osu file format v14

[General]
AudioFilename: ColorfuL Asterisk RemiX.mp3
AudioLeadIn: 0
PreviewTime: 177460
Countdown: 0
SampleSet: Soft
StackLeniency: 0.2
Mode: 0
LetterboxInBreaks: 0
WidescreenStoryboard: 1

[Editor]
DistanceSpacing: 2.4
BeatDivisor: 4
GridSize: 4
TimelineZoom: 1.9

[Metadata]
Title:Colorful. (Asterisk DnB Remix)
TitleUnicode:カラフル。(Asterisk DnB Remix)
Artist:Sawai Miku
ArtistUnicode:沢井美空
Creator:[ -Scarlet- ]
Version:Mawaru
Source:冴えない彼女の育てかた
Tags:drum and bass Saenai Heroine no Sodatekata Saekano 冴えカノ How to Raise a Boring Girlfriend
BeatmapID:776859
BeatmapSetID:352136

[Difficulty]
HPDrainRate:5
CircleSize:4.2
OverallDifficulty:8.5
ApproachRate:9.3
SliderMultiplier:1.6
SliderTickRate:1

[Events]
//Background and Video events
0,0,"Saekano.png",0,0
//Break Periods
//Storyboard Layer 0 (Background)
//Storyboard Layer 1 (Fail)
//Storyboard Layer 2 (Pass)
//Storyboard Layer 3 (Foreground)
//Storyboard Sound Samples

[TimingPoints]
546,342.857142857143,4,2,2,70,1,0
1574,-66.6666666666667,4,2,2,70,0,0
1917,-100,4,2,2,70,0,0
2946,-66.6666666666667,4,2,2,70,0,0
3288,-100,4,2,2,70,0,0
4317,-66.6666666666667,4,2,2,70,0,0
4660,-100,4,2,2,70,0,0
5688,-66.6666666666667,4,2,2,70,0,0
6031,-100,4,2,2,70,0,0
7060,-66.6666666666667,4,2,2,70,0,0
7403,-100,4,2,2,70,0,0
8431,-66.6666666666667,4,2,2,70,0,0
8774,-100,4,2,2,70,0,0
9803,-66.6666666666667,4,2,2,70,0,0
10146,-100,4,2,2,70,0,0
11174,-66.6666666666667,4,2,2,70,0,0
11517,-100,4,2,2,70,0,0
13917,-66.6666666666667,4,2,2,70,0,0
14260,-100,4,2,2,70,0,0
15288,-66.6666666666667,4,2,2,70,0,0
15631,-100,4,2,2,70,0,0
20946,-66.6666666666667,4,2,2,70,0,0
22488,-83.3333333333333,4,2,2,70,0,0
44088,-83.3333333333333,4,2,2,80,0,0
44431,-100,4,2,2,70,0,0
60546,-76.9230769230769,4,2,2,70,0,0
60888,-83.3333333333333,4,2,2,70,0,0
65688,-66.6666666666667,4,2,2,70,0,0
66374,-125,4,2,2,70,0,0
67403,-55.5555555555556,4,2,2,70,0,0
67746,-125,4,2,2,70,0,0
68774,-55.5555555555556,4,2,2,70,0,0
69117,-125,4,2,2,70,0,0
70146,-55.5555555555556,4,2,2,70,0,0
70488,-125,4,2,2,70,0,0
71517,-55.5555555555556,4,2,2,70,0,0
71860,-125,4,2,2,70,0,0
74260,-55.5555555555556,4,2,2,70,0,0
74603,-125,4,2,2,70,0,0
76146,-83.3333333333333,4,2,2,70,0,0
77346,-100,4,2,2,70,0,0
88660,-100,4,2,0,40,0,0
89688,-71.4285714285714,4,2,2,70,0,1
90203,-83.3333333333333,4,2,2,70,0,1
92088,-83.3333333333333,4,2,10,70,0,1
92260,-83.3333333333333,4,2,11,70,0,1
92431,-83.3333333333333,4,2,12,70,0,1
92603,-83.3333333333333,4,2,2,70,0,1
92774,-83.3333333333333,4,2,10,70,0,1
92946,-83.3333333333333,4,2,11,70,0,1
93117,-83.3333333333333,4,2,12,70,0,1
93288,-83.3333333333333,4,2,2,70,0,1
94488,-71.4285714285714,4,2,2,70,0,1
95174,-83.3333333333333,4,2,2,70,0,1
100574,-83.3333333333333,4,2,2,70,0,0
100660,-71.4285714285714,4,2,2,70,0,1
101003,-83.3333333333333,4,2,2,70,0,1
103060,-83.3333333333333,4,2,10,70,0,1
103231,-83.3333333333333,4,2,11,70,0,1
103403,-83.3333333333333,4,2,12,70,0,1
103574,-83.3333333333333,4,2,2,70,0,1
103746,-83.3333333333333,4,2,10,70,0,1
103917,-83.3333333333333,4,2,11,70,0,1
104088,-83.3333333333333,4,2,12,70,0,1
104260,-83.3333333333333,4,2,2,70,0,1
105460,-71.4285714285714,4,2,2,70,0,1
106146,-125,4,2,9,100,0,1
106488,-125,4,2,13,100,0,1
106831,-125,4,2,9,100,0,1
107174,-125,4,2,8,100,0,1
107346,-125,4,2,9,100,0,1
107517,-125,4,2,2,70,0,1
107688,-125,4,2,13,100,0,1
107860,-125,4,2,2,70,0,1
108031,-125,4,2,9,100,0,1
108203,-125,4,2,2,70,0,1
108374,-125,4,2,10,70,0,1
108546,-125,4,2,11,70,0,1
108717,-125,4,2,2,70,0,1
108888,-125,4,1,0,70,0,1
110088,-100,4,2,2,70,0,1
111631,-71.4285714285714,4,1,0,80,0,1
114031,-71.4285714285714,4,2,2,80,0,1
114203,-71.4285714285714,4,1,0,80,0,1
115403,-100,4,2,2,80,0,1
115574,-71.4285714285714,4,1,0,80,0,1
116774,-50,4,1,0,80,0,1
117117,-71.4285714285714,4,1,0,80,0,1
117974,-66.6666666666667,4,1,0,80,0,1
118146,-62.5,4,1,0,80,0,1
118917,-66.6666666666667,4,1,0,80,0,1
119517,-62.5,4,1,0,80,0,1
119860,-100,4,2,9,60,0,0
120203,-100,4,2,13,60,0,0
120546,-100,4,2,9,60,0,0
120717,-100,4,2,2,60,0,0
120888,-100,4,2,8,60,0,0
121060,-100,4,2,9,60,0,0
121403,-100,4,2,13,60,0,0
121746,-100,4,2,9,60,0,0
122088,-100,4,2,10,60,0,0
122174,-100,4,2,11,60,0,0
122431,-100,4,2,2,60,0,0
122603,-55.5555555555556,4,1,0,80,0,1
122946,-71.4285714285714,4,1,0,80,0,1
125003,-71.4285714285714,4,2,2,80,0,1
125174,-71.4285714285714,4,1,0,80,0,1
126374,-71.4285714285714,4,2,2,80,0,1
126546,-71.4285714285714,4,1,0,80,0,1
126888,-66.6666666666667,4,1,0,80,0,1
127060,-66.6666666666667,4,2,2,80,0,1
127231,-66.6666666666667,4,1,0,80,0,1
127746,-100,4,1,0,80,0,1
128088,-100,4,2,2,80,0,0
130831,-100,4,1,0,60,0,0
132031,-100,4,2,2,60,0,0
133231,-100,4,2,2,70,0,0
133574,-100,4,2,2,60,0,0
149688,-66.6666666666667,4,2,2,60,0,0
150031,-83.3333333333333,4,2,2,60,0,0
153974,-83.3333333333333,4,2,2,60,0,0
154831,-58.8235294117647,4,2,2,60,0,0
155517,-125,4,2,2,70,0,0
156546,-55.5555555555556,4,2,2,70,0,0
156888,-125,4,2,2,70,0,0
157917,-55.5555555555556,4,2,2,70,0,0
158260,-125,4,2,2,70,0,0
159288,-55.5555555555556,4,2,2,70,0,0
159631,-125,4,2,2,70,0,0
160660,-55.5555555555556,4,2,2,70,0,0
161003,-125,4,2,2,70,0,0
163403,-55.5555555555556,4,2,2,70,0,0
163746,-100,4,2,2,70,0,0
177803,-100,4,2,0,40,0,0
178831,-71.4285714285714,4,2,2,70,0,1
179346,-83.3333333333333,4,2,2,70,0,1
181231,-83.3333333333333,4,2,10,70,0,1
181403,-83.3333333333333,4,2,11,70,0,1
181574,-83.3333333333333,4,2,12,70,0,1
181746,-83.3333333333333,4,2,2,70,0,1
181917,-83.3333333333333,4,2,10,70,0,1
182088,-83.3333333333333,4,2,11,70,0,1
182260,-83.3333333333333,4,2,12,70,0,1
182431,-83.3333333333333,4,2,2,70,0,1
189717,-83.3333333333333,4,2,2,70,0,0
189803,-83.3333333333333,4,2,2,70,0,1
192203,-83.3333333333333,4,2,10,70,0,1
192374,-83.3333333333333,4,2,11,70,0,1
192546,-83.3333333333333,4,2,12,70,0,1
192717,-83.3333333333333,4,2,2,70,0,1
192888,-83.3333333333333,4,2,10,70,0,1
193060,-83.3333333333333,4,2,11,70,0,1
193231,-83.3333333333333,4,2,12,70,0,1
193403,-83.3333333333333,4,2,2,70,0,1
195288,-125,4,2,9,100,0,1
195631,-125,4,2,13,100,0,1
195974,-125,4,2,9,100,0,1
196317,-125,4,2,8,100,0,1
196488,-125,4,2,9,100,0,1
196660,-125,4,2,2,70,0,1
196831,-125,4,2,13,100,0,1
197003,-125,4,2,2,70,0,1
197174,-125,4,2,9,100,0,1
197346,-125,4,2,2,70,0,1
197517,-125,4,2,10,100,0,1
197688,-125,4,2,11,100,0,1
197860,-125,4,2,2,70,0,1
198031,-125,4,1,0,70,0,1
199231,-100,4,2,2,70,0,1
200431,-100,4,2,2,80,0,0
200774,-200,4,2,2,40,0,0
206260,-166.666666666667,4,2,2,40,0,0
209003,-111.111111111111,4,2,2,40,0,0
210374,-111.111111111111,4,2,2,30,0,0
212088,-200,4,2,8,50,0,0
212260,-200,4,2,8,5,0,0
212431,-200,4,2,9,60,0,0
212603,-200,4,2,9,5,0,0
212774,-200,4,2,13,70,0,0
213117,-200,4,2,12,100,0,0
213288,-200,4,2,12,5,0,0
213460,-200,4,2,11,20,0,0
213631,-200,4,2,11,100,0,0
213803,-200,4,2,12,100,0,0
213974,-200,4,2,12,5,0,0
214146,-200,4,2,11,20,0,0
214317,-200,4,2,11,100,0,0
214488,-200,4,2,12,100,0,0
214660,-200,4,2,11,100,0,0
214831,-200,4,2,13,100,0,0
215003,-200,4,2,0,5,0,0
215174,-200,4,2,12,100,0,0
215517,-200,4,2,10,100,0,0
215688,-200,4,2,11,100,0,0
215860,-200,4,2,12,100,0,0
216031,-200,4,2,0,5,0,0
216203,-200,4,2,10,100,0,0
216374,-200,4,2,11,100,0,0
216546,-200,4,2,12,100,0,0
216717,-200,4,2,0,5,0,0
216888,-200,4,2,16,100,0,0
217060,-200,4,2,14,100,0,0
217231,-200,4,2,14,5,0,0
217403,-200,4,2,14,20,0,0
217574,-200,4,2,13,100,0,0
217917,-200,4,2,12,100,0,0
218260,-200,4,2,11,100,0,0
218603,-200,4,2,9,100,0,0
218774,-200,4,2,9,5,0,0
218946,-200,4,2,13,100,0,0
219288,-200,4,2,13,5,0,0
219803,-200,4,2,13,100,0,0
219974,-200,4,2,12,100,0,0
220146,-200,4,2,12,5,0,0
220317,-200,4,2,12,20,0,0
220488,-200,4,2,11,100,0,0
220660,-200,4,2,10,100,0,0
221174,-200,4,2,11,100,0,0
221346,-200,4,2,12,100,0,0
221688,-200,4,2,11,100,0,0
221860,-200,4,2,12,100,0,0
222031,-200,4,2,2,5,0,0
222203,-200,4,2,16,100,0,0
222374,-200,4,2,13,100,0,0
222546,-200,4,2,13,5,0,0
223060,-100,4,2,0,50,0,0
223746,-50,4,2,20,100,0,0
223917,-50,4,2,2,100,0,0
224088,-83.3333333333333,4,2,2,70,0,1
226488,-83.3333333333333,4,2,10,70,0,1
226660,-83.3333333333333,4,2,11,70,0,1
226831,-83.3333333333333,4,2,12,70,0,1
227003,-83.3333333333333,4,2,2,70,0,1
227174,-83.3333333333333,4,2,10,70,0,1
227346,-83.3333333333333,4,2,11,70,0,1
227517,-83.3333333333333,4,2,12,70,0,1
227688,-83.3333333333333,4,2,2,70,0,1
234717,-66.6666666666667,4,2,2,70,0,1
234974,-83.3333333333333,4,2,2,70,0,0
235060,-83.3333333333333,4,2,2,70,0,1
237460,-83.3333333333333,4,2,10,70,0,1
237631,-83.3333333333333,4,2,11,70,0,1
237803,-83.3333333333333,4,2,12,70,0,1
237974,-83.3333333333333,4,2,2,70,0,1
238146,-83.3333333333333,4,2,10,70,0,1
238317,-83.3333333333333,4,2,11,70,0,1
238488,-83.3333333333333,4,2,12,70,0,1
238660,-83.3333333333333,4,2,2,70,0,1
240546,-83.3333333333333,4,2,9,100,0,1
240888,-83.3333333333333,4,2,13,100,0,1
241231,-83.3333333333333,4,2,9,100,0,1
241574,-83.3333333333333,4,2,8,100,0,1
241746,-83.3333333333333,4,2,9,100,0,1
241917,-100,4,2,2,70,0,1
242088,-100,4,2,13,100,0,1
242260,-100,4,2,2,70,0,1
242431,-100,4,2,9,100,0,1
242603,-100,4,2,2,70,0,1
242774,-100,4,2,10,100,0,1
242946,-100,4,2,11,100,0,1
243117,-83.3333333333333,4,2,2,70,0,1
244488,-100,4,2,2,70,0,1
245688,-100,4,2,2,80,0,0
246031,-83.3333333333333,4,2,2,70,0,1
248431,-83.3333333333333,4,2,10,70,0,1
248603,-83.3333333333333,4,2,11,70,0,1
248774,-83.3333333333333,4,2,12,70,0,1
248946,-83.3333333333333,4,2,2,70,0,1
249117,-83.3333333333333,4,2,10,70,0,1
249288,-83.3333333333333,4,2,11,70,0,1
249460,-83.3333333333333,4,2,12,70,0,1
249631,-83.3333333333333,4,2,2,70,0,1
256660,-66.6666666666667,4,2,2,70,0,1
256917,-83.3333333333333,4,2,2,70,0,0
257003,-83.3333333333333,4,2,2,70,0,1
259403,-83.3333333333333,4,2,10,70,0,1
259574,-83.3333333333333,4,2,11,70,0,1
259746,-83.3333333333333,4,2,12,70,0,1
259917,-83.3333333333333,4,2,2,70,0,1
260088,-83.3333333333333,4,2,10,70,0,1
260260,-83.3333333333333,4,2,11,70,0,1
260431,-83.3333333333333,4,2,12,70,0,1
260603,-83.3333333333333,4,2,2,70,0,1
262488,-125,4,2,9,100,0,1
262831,-125,4,2,13,100,0,1
263174,-125,4,2,9,100,0,1
263517,-125,4,2,8,100,0,1
263688,-125,4,2,9,100,0,1
263860,-125,4,2,2,70,0,1
264031,-125,4,2,13,100,0,1
264203,-125,4,2,2,70,0,1
264374,-125,4,2,9,100,0,1
264546,-125,4,2,2,70,0,1
264717,-125,4,2,10,100,0,1
264888,-125,4,2,11,100,0,1
265060,-125,4,2,2,70,0,1
265231,-125,4,1,0,70,0,1
266260,-100,4,2,2,70,0,1
267631,-100,4,2,2,80,0,0
267974,-71.4285714285714,4,1,0,80,0,1
269860,-55.5555555555556,4,1,0,80,0,1
270117,-55.5555555555556,4,1,0,5,0,1
270203,-55.5555555555556,4,1,0,80,0,1
270374,-55.5555555555556,4,2,2,80,0,1
270546,-71.4285714285714,4,1,0,80,0,1
271488,-71.4285714285714,4,1,0,5,0,1
271574,-71.4285714285714,4,1,0,80,0,1
271746,-71.4285714285714,4,2,2,80,0,1
271917,-71.4285714285714,4,1,0,80,0,1
272260,-55.5555555555556,4,1,0,80,0,1
272431,-71.4285714285714,4,1,0,80,0,1
273117,-50,4,1,0,80,0,1
273460,-71.4285714285714,4,1,0,80,0,1
274660,-55.5555555555556,4,1,0,80,0,1
274917,-55.5555555555556,4,1,0,5,0,1
275003,-55.5555555555556,4,1,0,80,0,1
275517,-62.5,4,1,0,80,0,1
276203,-83.3333333333333,4,2,9,60,0,0
276546,-100,4,2,13,60,0,0
276888,-100,4,2,9,60,0,0
277060,-100,4,2,2,60,0,0
277231,-100,4,2,8,60,0,0
277403,-100,4,2,9,60,0,0
277746,-100,4,2,13,60,0,0
278088,-100,4,2,9,60,0,0
278431,-100,4,2,10,60,0,0
278603,-100,4,2,11,60,0,0
278774,-100,4,2,2,60,0,0
278946,-55.5555555555556,4,1,0,80,0,1
279288,-71.4285714285714,4,1,0,80,0,1
281346,-71.4285714285714,4,2,2,80,0,1
281517,-71.4285714285714,4,1,0,80,0,1
282203,-55.5555555555556,4,1,0,80,0,1
282546,-71.4285714285714,4,1,0,80,0,1
282717,-71.4285714285714,4,2,2,80,0,1
282888,-71.4285714285714,4,1,0,80,0,1
283231,-62.5,4,1,0,80,0,1
283403,-62.5,4,2,2,80,0,1
283574,-62.5,4,1,0,80,0,1
284088,-83.3333333333333,4,1,0,80,0,1
284431,-100,4,2,2,80,0,1
287174,-100,4,1,0,80,0,1
288374,-100,4,2,2,80,0,1
289574,-100,4,2,2,60,0,0
289917,-200,4,2,0,50,0,0
309117,-166.666666666667,4,2,0,50,0,0
310831,-166.666666666667,4,2,0,40,0,0
311174,-166.666666666667,4,2,0,30,0,0
311517,-166.666666666667,4,2,0,20,0,0
311860,-166.666666666667,4,2,0,10,0,0

[Colours]
Combo1 : 0,128,255
Combo2 : 199,135,92
Combo3 : 128,255,0
Combo4 : 255,128,128
Combo5 : 128,0,128

[HitObjects]
176,200,546,5,4,0:0:0:0:
100,128,717,2,0,P|52:128|8:152,2,80,0|8|0,0:0|0:0|0:0,0:0:0:0:
176,200,1231,1,2,0:0:0:0:
276,152,1403,2,0,L|271:112,1,40
152,12,1574,6,0,B|184:28|200:76|200:76|232:28|300:36,1,180.000006866455,8|0,0:0|0:0,0:0:0:0:
283,34,1917,6,0,L|268:136,1,80,2|0,0:0|0:0,0:0:0:0:
271,113,2174,1,0,0:0:0:0:
271,113,2260,1,8,0:0:0:0:
344,192,2431,2,0,P|384:168|440:176,1,80,0|2,0:0|0:0,0:0:0:0:
460,352,2774,2,0,L|420:304,1,40
344,308,2946,6,0,B|364:364|364:364|412:224,1,180.000006866455,8|0,0:0|0:0,0:0:0:0:
344,192,3288,6,0,P|304:172|236:184,2,80,2|0|8,0:0|0:0|0:0,0:0:0:0:
256,340,3803,2,0,L|236:244,1,80,0|2,0:0|0:0,0:0:0:0:
148,152,4146,2,0,L|96:168,1,40
40,224,4317,6,0,P|100:200|136:300,1,180.000006866455,8|0,0:0|0:0,0:0:0:0:
76,324,4660,5,2,0:0:0:0:
239,261,4831,2,0,L|287:281,2,40,0|0|8,0:0|0:0|0:0,0:0:0:0:
161,361,5174,2,0,P|171:323|156:288,1,80,0|2,0:0|0:0,0:0:0:0:
24,240,5517,2,0,L|64:220,1,40
224,192,5688,6,0,B|112:152|112:152|152:184|152:248,1,180.000006866455,8|0,0:0|0:0,0:0:0:0:
156,288,6031,6,0,P|188:272|260:288,1,80,6|0,0:0|0:0,0:0:0:0:
231,272,6288,1,0,0:0:0:0:
231,272,6374,1,8,0:0:0:0:
344,360,6546,2,0,P|320:328|320:284,1,80,0|2,0:0|0:0,0:0:0:0:
460,192,6888,2,0,L|471:230,1,40
512,336,7060,6,8,P|472:264|392:304,1,180.000006866455,8|0,0:0|0:0,0:0:0:0:
432,364,7403,5,2,0:0:0:0:
318,289,7574,2,0,L|262:305,2,40,0|0|8,0:0|0:0|0:0,0:0:0:0:
400,216,7917,2,0,P|356:212|312:172,1,80,0|2,0:0|0:0,0:0:0:0:
192,48,8260,2,0,L|212:112,1,40
192,172,8431,6,0,B|256:152|256:152|288:120|288:120|360:96,1,180.000006866455,8|0,0:0|0:0,0:0:0:0:
392,32,8774,6,0,P|432:72|416:116,2,80,2|0|8,0:0|0:0|0:0,0:0:0:0:
326,192,9289,1,0,0:0:0:0:
232,72,9459,1,2,0:0:0:0:
136,184,9631,2,0,L|152:240,1,40
224,344,9803,6,0,B|268:316|280:264|240:216|240:216|212:248,1,180.000006866455,8|0,0:0|0:0,0:0:0:0:
88,268,10146,6,0,P|124:296|184:284,1,80,2|0,0:0|0:0,0:0:0:0:
300,224,10488,2,0,P|306:178|265:132,1,80,10|0,0:0|0:0,0:0:0:0:
144,84,10831,2,0,P|101:101|82:159,1,80,2|0,0:0|0:0,0:0:0:0:
212,228,11174,6,0,P|192:160|176:240,1,180.000006866455,8|0,0:0|0:0,0:0:0:0:
224,332,11517,6,0,P|272:288|364:288,1,160,4|8,0:0|0:0,0:0:0:0:
420,360,12031,1,0,0:0:0:0:
292,200,12203,2,0,P|272:168|228:148,1,80,2|0,0:0|0:0,0:0:0:0:
176,52,12546,2,0,P|132:52|88:84,1,80,8|0,0:0|0:0,0:0:0:0:
68,140,12803,1,0,0:0:0:0:
80,152,12888,5,2,0:0:0:0:
200,232,13060,1,2,0:0:0:0:
16,248,13231,2,0,P|80:240|136:304,1,120,10|0,0:0|0:0,0:0:0:0:
152,340,13574,1,2,0:0:0:0:
304,292,13746,2,0,L|292:240,1,40
188,192,13917,6,0,B|244:160|244:160|200:292,1,180.000006866455,8|0,0:0|0:0,0:0:0:0:
240,344,14260,5,4,0:0:0:0:
360,216,14431,1,0,0:0:0:0:
452,368,14603,1,8,0:0:0:0:
373,294,14774,2,0,L|357:198,1,80,0|2,0:0|0:0,0:0:0:0:
288,100,15117,2,0,L|324:84,1,40
484,124,15288,6,0,P|480:188|384:164,1,180.000006866455,8|0,0:0|0:0,0:0:0:0:
408,96,15631,6,0,P|424:64|496:44,1,80,2|0,0:0|0:0,0:0:0:0:
461,42,15888,1,0,0:0:0:0:
461,42,15974,1,8,0:0:0:0:
407,199,16146,1,0,0:0:0:0:
387,175,16231,1,0,0:0:0:0:
359,163,16317,1,2,0:0:0:0:
120,356,16488,6,0,P|144:356|164:344,1,40,2|0,0:0|0:0,0:0:0:0:
248,372,16660,2,0,P|267:358|277:336,1,40,8|0,0:0|0:0,0:0:0:0:
348,284,16831,2,0,P|348:260|336:240,1,40,2|0,0:0|0:0,0:0:0:0:
204,204,17003,5,4,1:0:0:0:
156,216,17346,1,0,1:0:0:0:
108,228,17688,1,0,1:0:0:0:
60,240,18031,5,0,1:0:0:0:
156,216,18203,1,0,1:0:0:0:
248,188,18374,5,4,1:0:0:0:
292,204,18717,1,0,1:0:0:0:
336,224,19060,1,0,1:0:0:0:
380,248,19403,5,0,1:0:0:0:
292,204,19574,1,0,1:0:0:0:
196,324,19746,5,4,1:0:0:0:
176,232,19917,1,0,1:0:0:0:
84,252,20088,1,0,1:0:0:0:
104,344,20260,1,0,1:0:0:0:
240,88,20431,5,4,1:0:0:0:
324,184,20602,1,0,1:0:0:0:
448,156,20773,1,0,1:0:0:0:
284,8,20946,6,0,B|336:24|352:100|352:100|396:56|500:68,1,240.000009155274,4|2,0:0|0:0,0:0:0:0:
324,184,21460,1,2,0:0:0:0:
352,312,21631,1,2,0:0:0:0:
460,360,21803,1,0,0:0:0:0:
464,348,21888,1,0,0:0:0:0:
468,336,21974,1,0,0:0:0:0:
472,324,22060,1,0,0:0:0:0:
476,312,22146,1,8,0:0:0:0:
349,206,22488,6,0,P|295:246|240:208,1,143.999995605469,4|0,0:0|0:0,0:0:0:0:
232,132,22831,2,8,L|136:152,1,95.9999970703126,8|0,0:0|0:0,0:0:0:0:
424,252,23174,2,0,P|436:208|420:152,1,95.9999970703126,2|0,0:0|0:0,0:0:0:0:
264,40,23517,2,0,L|156:64,1,95.9999970703126,8|0,0:0|0:0,0:0:0:0:
349,206,23860,5,2,0:0:0:0:
276,260,24031,2,0,P|263:234|276:186,1,47.9999985351563,2|0,0:0|0:0,0:0:0:0:
348,120,24203,2,0,P|376:121|411:157,1,47.9999985351563,10|0,0:0|0:0,0:0:0:0:
424,252,24374,2,0,P|408:276|360:288,1,47.9999985351563,2|0,0:0|0:0,0:0:0:0:
276,260,24546,6,0,P|240:264|212:284,1,47.9999985351563,2|0,0:0|0:0,0:0:0:0:
60,340,24717,2,0,P|83:339|106:331,1,47.9999985351563,2|0,0:0|0:0,0:0:0:0:
239,256,24888,2,0,P|218:266|200:282,1,47.9999985351563,10|0,0:0|0:0,0:0:0:0:
88,352,25060,2,0,P|116:336|146:292,1,47.9999985351563,2|0,0:0|0:0,0:0:0:0:
188,192,25231,6,0,P|236:176|288:188,1,95.9999970703126
424,252,25574,1,8,0:0:0:0:
240,256,25746,1,0,0:0:0:0:
336,356,25917,2,0,P|404:324|480:352,1,143.999995605469,2|0,0:0|0:0,0:0:0:0:
424,252,26260,2,0,P|412:208|432:156,1,95.9999970703126,8|0,0:0|0:0,0:0:0:0:
239,83,26603,6,0,P|276:169|240:256,1,191.999994140625,2|8,0:0|0:0,0:0:0:0:
424,252,27117,2,0,P|388:164|428:76,1,191.999994140625,2|2,0:0|0:0,0:0:0:0:
285,71,27631,1,8,0:0:0:0:
112,108,27803,1,0,0:0:0:0:
200,24,27974,6,0,P|240:84|208:168,1,143.999995605469,0|0,1:0|0:0,0:0:0:0:
285,71,28317,2,0,P|332:60|392:76,1,95.9999970703126,8|0,0:0|0:0,0:0:0:0:
127,202,28660,2,0,L|111:102,1,95.9999970703126,2|0,0:0|0:0,0:0:0:0:
400,148,29003,2,0,P|444:165|484:213,1,95.9999970703126,8|0,0:0|0:0,0:0:0:0:
200,188,29346,5,2,0:0:0:0:
120,228,29517,2,0,P|112:204|116:176,1,47.9999985351563,2|0,0:0|0:0,0:0:0:0:
212,104,29688,2,0,P|236:109|259:126,1,47.9999985351563,10|0,0:0|0:0,0:0:0:0:
272,236,29860,2,0,P|255:254|228:265,1,47.9999985351563,2|0,0:0|0:0,0:0:0:0:
120,228,30031,6,0,L|44:248,1,47.9999985351563,2|0,0:0|0:0,0:0:0:0:
212,104,30202,2,0,L|258:94,1,47.9999985351563,2|0,0:0|0:0,0:0:0:0:
92,136,30374,2,0,L|16:156,1,47.9999985351563,10|0,0:0|0:0,0:0:0:0:
240,196,30545,2,0,L|286:186,1,47.9999985351563,2|0,0:0|0:0,0:0:0:0:
152,324,30717,5,0,1:0:0:0:
288,328,30888,1,0,0:0:0:0:
120,228,31060,2,0,L|24:218,1,95.9999970703126,8|0,0:0|0:0,0:0:0:0:
288,328,31403,2,0,L|384:336,1,95.9999970703126,2|0,0:0|0:0,0:0:0:0:
120,228,31746,1,8,0:0:0:0:
392,252,31917,1,0,0:0:0:0:
264,116,32088,6,0,P|216:132|192:176,1,95.9999970703126,2|0,0:0|0:0,0:0:0:0:
392,252,32431,1,8,0:0:0:0:
256,44,32603,2,0,P|188:64|120:168,1,191.999994140625,2|2,0:0|0:0,0:0:0:0:
392,252,33117,1,8,0:0:0:0:
392,252,33460,6,0,L|229:239,1,143.999995605469,4|0,0:0|0:0,0:0:0:0:
204,304,33803,2,0,P|160:324|88:308,1,95.9999970703126,8|0,0:0|0:0,0:0:0:0:
185,90,34146,2,0,P|189:42|239:-11,1,95.9999970703126,2|0,0:0|0:0,0:0:0:0:
378,181,34488,2,0,P|418:209|440:279,1,95.9999970703126,8|0,0:0|0:0,0:0:0:0:
204,304,34831,5,2,0:0:0:0:
330,189,35003,2,0,L|378:181,1,47.9999985351563,2|0,0:0|0:0,0:0:0:0:
216,128,35174,2,0,L|185:91,1,47.9999985351563,10|0,0:0|0:0,0:0:0:0:
220,257,35346,2,0,L|204:303,1,47.9999985351563,2|0,0:0|0:0,0:0:0:0:
364,256,35517,6,0,P|388:260|424:244,1,47.9999985351563,2|0,0:0|0:0,0:0:0:0:
365,102,35688,2,0,P|342:106|322:120,1,47.9999985351563,2|0,0:0|0:0,0:0:0:0:
378,181,35860,2,0,P|401:175|420:162,1,47.9999985351563,10|0,0:0|0:0,0:0:0:0:
379,27,36031,2,0,P|356:23|333:30,1,47.9999985351563,2|0,0:0|0:0,0:0:0:0:
364,256,36203,5,0,1:0:0:0:
444,112,36374,1,0,0:0:0:0:
340,276,36546,2,0,L|352:376,1,95.9999970703126,8|0,0:0|0:0,0:0:0:0:
48,276,36888,2,0,P|128:280|200:224,1,143.999995605469,2|0,0:0|0:0,0:0:0:0:
196,204,37231,2,0,L|184:108,1,95.9999970703126,8|0,0:0|0:0,0:0:0:0:
59,84,37574,6,0,L|47:275,1,191.999994140625,2|8,0:0|0:0,0:0:0:0:
184,108,38088,2,0,L|160:0,1,95.9999970703126,2|0,0:0|0:0,0:0:0:0:
196,204,38431,2,0,P|232:196|252:176,1,47.9999985351563
272,48,38603,2,0,P|247:20|219:13,1,47.9999985351563,10|0,0:0|0:0,0:0:0:0:
92,56,38774,2,0,P|80:91|88:118,1,47.9999985351563
184,108,38946,5,4,1:0:0:0:
196,124,39117,1,0,0:0:0:0:
272,48,39288,1,0,1:0:0:0:
274,67,39459,1,0,0:0:0:0:
376,64,39631,5,0,1:0:0:0:
368,82,39802,1,0,0:0:0:0:
444,140,39974,1,0,1:0:0:0:
428,152,40146,1,0,1:0:0:0:
396,252,40317,5,4,1:0:0:0:
428,332,40488,1,0,0:0:0:0:
300,228,40660,1,0,1:0:0:0:
304,316,40831,1,0,0:0:0:0:
212,228,41003,5,0,1:0:0:0:
208,316,41174,1,0,0:0:0:0:
116,252,41346,1,0,1:0:0:0:
84,332,41517,1,0,1:0:0:0:
212,228,41688,6,0,P|220:204|212:168,1,47.9999985351563,4|0,1:0|0:0,0:0:0:0:
176,80,41860,1,0,1:0:0:0:
116,252,42032,1,0,1:0:0:0:
44,124,42203,1,0,1:0:0:0:
300,228,42374,6,0,P|292:204|300:168,1,47.9999985351563,4|0,1:0|0:0,0:0:0:0:
336,80,42546,1,0,1:0:0:0:
396,252,42718,1,0,1:0:0:0:
468,124,42888,6,0,B|416:120|376:152|376:152|420:116|420:64,1,191.999994140625,4|0,1:0|0:0,0:0:0:0:
328,20,43403,1,2,0:0:0:0:
252,92,43574,1,2,0:0:0:0:
208,208,43746,5,0,1:0:0:0:
180,164,43831,1,0,1:0:0:0:
132,140,43917,1,0,1:0:0:0:
80,136,44003,1,0,1:0:0:0:
28,140,44088,1,8,0:0:0:0:
332,252,44431,6,0,P|368:232|388:168,1,80,4|0,0:0|0:0,0:0:0:0:
352,352,44774,1,8,0:0:0:0:
304,172,44946,2,0,P|236:184|184:272,1,160,2|0,0:0|0:0,0:0:0:0:
185,254,45374,1,0,0:0:0:0:
185,254,45460,1,10,0:0:0:0:
128,184,45631,1,0,0:0:0:0:
36,192,45803,5,2,0:0:0:0:
120,68,45974,1,2,0:0:0:0:
272,72,46146,1,8,0:0:0:0:
261,232,46317,2,0,L|185:254,1,80,2|0,0:0|0:0,0:0:0:0:
332,352,46660,1,0,0:0:0:0:
332,352,46746,1,0,0:0:0:0:
332,352,46831,2,0,P|348:308|372:280,1,80,8|0,0:0|0:0,0:0:0:0:
512,176,47174,5,2,0:0:0:0:
364,208,47346,1,2,0:0:0:0:
448,248,47517,1,10,0:0:0:0:
428,140,47688,1,2,0:0:0:0:
92,84,47860,5,2,0:0:0:0:
320,112,48031,1,2,0:0:0:0:
220,24,48203,1,10,0:0:0:0:
196,184,48374,1,2,0:0:0:0:
320,112,48546,5,2,0:0:0:0:
334,190,48717,2,0,L|317:97,1,80,2|8,0:0|0:0,0:0:0:0:
388,40,48974,1,0,0:0:0:0:
384,56,49060,2,0,P|412:104|388:140,1,80,2|0,0:0|0:0,0:0:0:0:
268,244,49403,2,0,L|256:200,1,40
257,205,49574,6,0,P|221:241|213:289,1,80,8|0,0:0|0:0,0:0:0:0:
248,356,49831,1,0,0:0:0:0:
232,344,49917,6,0,L|372:304,1,120,2|0,0:0|0:0,0:0:0:0:
420,336,50260,1,8,0:0:0:0:
156,315,50431,2,0,P|176:281|213:267,1,80,2|0,0:0|0:0,0:0:0:0:
347,311,50774,1,0,0:0:0:0:
347,311,50860,1,0,0:0:0:0:
347,311,50946,2,0,B|376:232|376:232|356:252|324:260,1,120,10|0,0:0|0:0,0:0:0:0:
244,156,51288,6,0,P|284:156|320:192,1,80,2|0,0:0|0:0,0:0:0:0:
188,360,51631,1,8,0:0:0:0:
256,312,51803,2,0,P|220:288|132:304,1,120,2|0,0:0|0:0,0:0:0:0:
128,308,52146,1,2,0:0:0:0:
217,172,52317,1,8,0:0:0:0:
348,252,52488,1,0,0:0:0:0:
488,104,52660,5,2,0:0:0:0:
412,128,52831,1,2,0:0:0:0:
336,152,53003,1,10,0:0:0:0:
232,104,53174,6,0,B|240:52|268:28|304:24|304:24|292:48|296:88,1,160
295,65,53688,1,8,0:0:0:0:
208,176,53860,5,2,0:0:0:0:
108,52,54031,1,2,0:0:0:0:
116,212,54203,1,2,0:0:0:0:
208,80,54374,1,10,0:0:0:0:
60,140,54546,1,2,0:0:0:0:
208,176,54717,5,0,0:0:0:0:
124,224,54888,2,0,P|113:194|126:156,1,40
208,80,55060,2,0,P|238:85|265:115,1,40,8|0,0:0|0:0,0:0:0:0:
280,232,55231,2,0,P|260:256|220:264,1,40
104,324,55403,6,0,P|152:308|196:320,1,80,6|2,0:0|0:0,0:0:0:0:
340,320,55746,1,10,0:0:0:0:
262,350,55917,2,0,L|285:195,1,120,2|0,0:0|0:0,0:0:0:0:
260,208,56260,5,2,0:0:0:0:
400,248,56431,1,10,0:0:0:0:
452,112,56603,1,2,0:0:0:0:
384,169,56774,6,0,L|404:269,1,80,2|0,0:0|0:0,0:0:0:0:
472,200,57117,1,8,0:0:0:0:
360,352,57288,2,0,P|344:312|288:296,1,80,2|0,0:0|0:0,0:0:0:0:
236,296,57546,1,0,0:0:0:0:
220,308,57631,5,2,0:0:0:0:
136,280,57803,1,10,0:0:0:0:
56,240,57974,1,2,0:0:0:0:
20,332,58146,5,2,0:0:0:0:
136,280,58317,1,2,0:0:0:0:
256,232,58488,2,0,L|340:264,1,80,10|0,0:0|0:0,0:0:0:0:
432,344,58831,5,2,0:0:0:0:
384,208,59003,1,2,0:0:0:0:
252,152,59174,1,10,0:0:0:0:
116,200,59346,1,2,0:0:0:0:
204,344,59517,5,2,3:0:0:0:
252,152,59688,1,0,3:0:0:0:
204,344,60031,5,0,3:0:0:0:
252,152,60374,1,0,3:0:0:0:
128,208,60546,6,0,P|160:216|192:204,1,51.999997619629,8|0,0:0|0:0,0:0:0:0:
224,72,60717,2,0,P|256:64|288:76,1,51.999997619629,8|0,0:0|0:0,0:0:0:0:
273,244,60888,6,0,L|251:151,1,95.9999970703126,12|2,0:0|0:0,0:0:0:0:
396,72,61231,1,8,0:0:0:0:
348,168,61403,1,2,0:0:0:0:
468,144,61574,5,8,0:0:0:0:
312,164,61746,1,2,0:0:0:0:
484,240,61917,5,8,0:0:0:0:
272,156,62088,1,2,0:0:0:0:
272,156,62174,1,0,0:0:0:0:
272,156,62260,6,0,L|292:48,1,95.9999970703126,12|2,0:0|0:0,0:0:0:0:
72,84,62603,1,8,0:0:0:0:
184,120,62774,1,2,0:0:0:0:
64,208,62946,5,8,0:0:0:0:
208,92,63117,1,2,0:0:0:0:
208,92,63203,1,0,0:0:0:0:
207,91,63288,2,0,L|196:40,1,47.9999985351563,8|0,0:0|0:0,0:0:0:0:
59,37,63460,2,0,L|75:97,1,47.9999985351563,2|0,0:0|0:0,0:0:0:0:
224,192,63631,6,0,L|274:173,1,47.9999985351563,4|0,0:0|0:0,0:0:0:0:
340,116,63803,2,0,L|400:132,1,47.9999985351563,2|0,0:0|0:0,0:0:0:0:
464,196,63974,1,8,0:0:0:0:
264,316,64146,6,0,L|214:297,1,47.9999985351563,4|0,0:0|0:0,0:0:0:0:
148,240,64318,2,0,L|88:256,1,47.9999985351563,2|0,0:0|0:0,0:0:0:0:
24,320,64489,1,8,0:0:0:0:
140,360,64660,1,2,0:0:0:0:
284,220,64831,6,0,B|348:244|364:296|348:352|348:352|368:288|412:256|504:268|492:376|424:380|416:364,1,383.99998828125,4|0,0:0|0:0,0:0:0:0:
188,272,65688,6,0,P|256:352|248:280,1,240.000009155274,0|8,0:0|0:0,0:0:0:0:
265,310,66374,6,0,P|320:284|412:286,1,128,4|2,0:0|0:0,0:0:0:0:
484,340,66888,1,0,1:0:0:0:
484,340,66974,1,0,1:0:0:0:
484,340,67060,2,0,P|460:284|476:232,1,96,0|0,1:0|0:0,0:0:0:0:
480,176,67403,6,0,P|436:136|432:208,1,143.999995605469,8|0,0:0|0:0,0:0:0:0:
252,256,67746,6,0,P|200:276|127:283,1,128,0|2,1:0|0:0,0:0:0:0:
52,172,68260,2,0,L|92:148,1,32,0|0,1:0|0:0,0:0:0:0:
80,156,68431,2,0,P|77:209|49:265,1,96,0|0,1:0|0:0,0:0:0:0:
61,324,68774,6,0,P|120:345|129:283,1,143.999995605469,8|0,0:0|0:0,0:0:0:0:
220,120,69117,6,0,P|280:112|348:130,1,128,0|2,1:0|0:0,0:0:0:0:
416,28,69631,1,0,1:0:0:0:
416,28,69717,1,0,1:0:0:0:
416,28,69803,2,0,P|412:72|440:144,1,96,0|0,1:0|0:0,0:0:0:0:
488,168,70146,6,0,P|476:228|424:180,1,143.999995605469,8|0,0:0|0:0,0:0:0:0:
344,340,70488,6,0,P|313:286|228:252,1,128,0|2,1:0|0:0,0:0:0:0:
160,344,71003,2,0,L|92:364,2,64,0|0|0,1:0|1:0|0:0,0:0:0:0:
257,254,71517,6,0,P|264:324|192:260,1,215.999993408203,8|0,0:0|0:0,0:0:0:0:
200,196,71860,6,0,P|260:200|332:160,1,128,0|2,1:0|0:0,0:0:0:0:
368,36,72374,1,0,1:0:0:0:
368,36,72460,1,0,1:0:0:0:
368,36,72546,2,0,P|340:72|340:104,1,64,0|0,1:0|0:0,0:0:0:0:
404,152,72888,1,8,0:0:0:0:
468,100,73060,1,0,0:0:0:0:
264,56,73231,6,0,L|179:79,1,64,0|2,1:0|0:0,0:0:0:0:
202,72,73488,1,2,0:0:0:0:
202,72,73574,1,2,0:0:0:0:
128,126,73746,1,0,1:0:0:0:
100,40,73917,2,0,P|127:82|124:140,1,96,0|0,1:0|0:0,0:0:0:0:
64,172,74260,6,0,P|92:236|136:200,1,143.999995605469,8|0,0:0|0:0,0:0:0:0:
48,92,74603,1,0,1:0:0:0:
184,60,74774,1,2,0:0:0:0:
184,60,75117,5,0,1:0:0:0:
200,136,75288,1,0,1:0:0:0:
216,212,75460,1,2,0:0:0:0:
272,84,75631,5,8,0:0:0:0:
108,128,75803,1,2,0:0:0:0:
272,84,75974,2,0,P|320:96|376:76,1,96,0|0,1:0|0:0,0:0:0:0:
432,36,76317,6,0,P|444:60|444:92,1,47.9999985351563,8|0,0:0|0:0,0:0:0:0:
424,200,76488,1,2,0:0:0:0:
424,200,76660,6,0,P|400:184|360:176,1,47.9999985351563,8|0,0:0|0:0,0:0:0:0:
264,220,76831,1,2,0:0:0:0:
264,220,77003,6,0,P|252:252|256:280,1,47.9999985351563,8|0,0:0|0:0,0:0:0:0:
404,348,77174,2,0,P|416:316|412:288,1,47.9999985351563,8|0,0:0|0:0,0:0:0:0:
272,344,77346,6,0,P|312:316|364:304,1,80,4|0,0:0|0:0,0:0:0:0:
476,240,77688,1,10,0:0:0:0:
444,232,77774,1,0,0:0:0:0:
416,216,77860,1,2,0:0:0:0:
396,192,77946,1,0,0:0:0:0:
384,164,78031,5,0,0:0:0:0:
500,76,78203,1,2,0:0:0:0:
416,88,78374,2,0,P|364:44|296:32,1,120,8|0,0:0|0:0,0:0:0:0:
256,84,78717,6,0,P|220:84|180:56,1,80,2|0,0:0|0:0,0:0:0:0:
40,244,79060,2,0,L|120:216,1,80,8|0,0:0|0:0,0:0:0:0:
104,104,79403,6,0,P|74:83|57:37,1,80,2|0,0:0|0:0,0:0:0:0:
168,272,79746,2,0,L|249:294,1,80,8|0,0:0|0:0,0:0:0:0:
372,96,80088,6,0,P|352:56|349:5,1,80,6|0,0:0|0:0,0:0:0:0:
452,124,80431,1,10,0:0:0:0:
436,152,80517,1,0,0:0:0:0:
408,172,80603,1,2,0:0:0:0:
376,180,80688,1,0,0:0:0:0:
344,176,80774,5,0,0:0:0:0:
372,96,80946,1,2,0:0:0:0:
388,264,81117,1,8,0:0:0:0:
248,196,81288,1,2,0:0:0:0:
152,296,81460,6,0,B|174:290|186:270|186:270|202:282|230:278,1,80
280,116,81803,2,0,P|232:112|196:136,1,80,10|0,0:0|0:0,0:0:0:0:
48,200,82146,6,0,B|69:206|90:195|90:195|97:213|124:224,1,80,2|0,0:0|0:0,0:0:0:0:
160,60,82489,2,0,P|120:32|77:35,1,80,10|0,0:0|0:0,0:0:0:0:
232,200,82831,5,4,1:0:0:0:
308,176,83174,1,0,1:0:0:0:
344,104,83517,1,0,1:0:0:0:
316,28,83860,5,0,1:0:0:0:
400,180,84031,1,0,1:0:0:0:
232,200,84203,5,4,1:0:0:0:
160,160,84546,1,0,1:0:0:0:
84,180,84888,1,0,1:0:0:0:
36,244,85231,5,0,1:0:0:0:
104,92,85403,1,0,1:0:0:0:
232,200,85574,5,4,1:0:0:0:
120,200,85746,1,0,1:0:0:0:
284,100,85917,1,0,1:0:0:0:
292,292,86088,1,0,1:0:0:0:
232,200,86260,5,4,1:0:0:0:
168,88,86432,1,0,1:0:0:0:
360,188,86603,1,0,1:0:0:0:
180,304,86774,1,0,1:0:0:0:
32,120,86946,5,0,3:0:0:0:
64,156,87031,1,0,3:0:0:0:
108,172,87117,1,0,3:0:0:0:
156,164,87203,1,0,3:0:0:0:
192,136,87288,1,0,3:0:0:0:
212,92,87374,1,0,3:0:0:0:
248,68,87460,1,0,3:0:0:0:
292,68,87546,1,0,3:0:0:0:
308,112,87631,5,0,3:0:0:0:
340,108,87717,1,0,3:0:0:0:
372,136,87802,5,0,3:0:0:0:
396,116,87888,1,0,3:0:0:0:
436,120,87974,5,0,3:0:0:0:
444,88,88060,1,0,3:0:0:0:
476,72,88145,5,0,3:0:0:0:
472,40,88231,1,0,3:0:0:0:
372,136,88660,6,0,L|392:308,2,160,2|2|2,0:0|0:0|0:0,0:0:0:0:
344,68,89688,6,0,P|360:20|424:108,1,223.999993164063,6|8,0:0|0:0,0:0:0:0:
300,196,90203,1,2,0:0:0:0:
376,152,90374,2,0,P|336:113|289:109,1,95.9999970703126,2|0,0:0|0:0,0:0:0:0:
298,108,90631,1,0,0:0:0:0:
298,108,90717,1,8,0:0:0:0:
112,128,90888,5,0,0:0:0:0:
240,48,91060,1,2,0:0:0:0:
300,196,91231,1,2,0:0:0:0:
244,324,91403,6,0,P|232:248|188:176,1,143.999995605469,10|0,0:0|0:0,0:0:0:0:
120,192,91746,2,0,P|108:228|168:248,1,95.9999970703126,2|0,0:0|0:0,0:0:0:0:
384,56,92088,5,10,0:0:0:0:
464,200,92260,1,2,0:0:0:0:
300,212,92431,1,2,0:0:0:0:
384,144,92603,1,0,0:0:0:0:
384,32,92774,5,10,0:0:0:0:
484,212,92946,1,2,0:0:0:0:
280,228,93117,1,2,0:0:0:0:
384,144,93288,2,0,L|376:192,1,47.9999985351563
468,304,93460,6,0,P|428:268|332:292,1,143.999995605469,8|0,0:0|0:0,0:0:0:0:
320,356,93803,2,0,P|264:312|280:276,1,95.9999970703126,2|0,0:0|0:0,0:0:0:0:
276,144,94146,2,0,P|276:184|220:212,1,95.9999970703126,10|0,0:0|0:0,0:0:0:0:
92,224,94488,6,0,B|120:228|148:212|148:212|144:244|176:276,1,111.999996582031,2|0,0:0|0:0,0:0:0:0:
284,64,94831,2,0,B|256:60|228:76|228:76|232:44|200:12,1,111.999996582031,10|0,0:0|0:0,0:0:0:0:
44,116,95174,6,0,P|84:136|140:49,1,143.999995605469,0|0,1:0|0:0,0:0:0:0:
128,60,95517,1,8,0:0:0:0:
244,168,95688,1,2,0:0:0:0:
100,260,95860,6,0,P|104:196|160:244,1,143.999995605469
172,288,96203,2,0,P|216:280|280:308,1,95.9999970703126,8|0,0:0|0:0,0:0:0:0:
384,356,96546,6,0,P|360:324|352:288,1,47.9999985351563,2|0,0:0|0:0,0:0:0:0:
352,232,96717,1,2,0:0:0:0:
392,168,96888,1,10,0:0:0:0:
464,136,97060,5,2,0:0:0:0:
432,268,97231,1,2,0:0:0:0:
296,280,97403,1,2,0:0:0:0:
392,168,97574,5,10,0:0:0:0:
436,348,97746,1,2,0:0:0:0:
296,280,97917,6,0,P|248:256|152:264,1,143.999995605469,2|0,0:0|0:0,0:0:0:0:
108,316,98260,1,10,0:0:0:0:
376,316,98431,2,0,P|376:252|352:220,1,95.9999970703126,2|0,0:0|0:0,0:0:0:0:
136,156,98774,5,2,0:0:0:0:
204,200,98945,2,0,L|304:172,1,95.9999970703126,10|0,0:0|0:0,0:0:0:0:
296,174,99203,1,2,0:0:0:0:
296,174,99288,1,2,0:0:0:0:
200,288,99460,1,0,0:0:0:0:
240,100,99631,6,0,P|280:76|344:88,1,95.9999970703126,10|0,0:0|0:0,0:0:0:0:
280,268,99974,2,0,P|280:314|238:364,1,95.9999970703126,2|0,0:0|0:0,0:0:0:0:
108,200,100317,2,0,P|67:177|45:115,1,95.9999970703126,10|0,0:0|0:0,0:0:0:0:
208,140,100574,1,0,0:0:0:0:
208,152,100660,6,0,P|200:60|152:152,1,223.999993164063,4|8,0:0|0:0,0:0:0:0:
304,176,101174,1,2,0:0:0:0:
320,88,101346,2,0,P|368:60|416:60,1,95.9999970703126,2|0,0:0|0:0,0:0:0:0:
407,58,101603,1,0,0:0:0:0:
407,58,101688,1,8,0:0:0:0:
504,216,101860,5,2,0:0:0:0:
380,344,102031,1,2,0:0:0:0:
384,160,102203,1,2,0:0:0:0:
468,292,102374,6,0,P|420:256|316:268,1,143.999995605469,10|0,0:0|0:0,0:0:0:0:
308,332,102717,2,0,P|340:352|386:316,1,95.9999970703126,2|0,0:0|0:0,0:0:0:0:
244,144,103060,5,10,0:0:0:0:
180,304,103231,1,2,0:0:0:0:
20,236,103403,1,6,0:0:0:0:
180,304,103574,1,0,0:0:0:0:
248,104,103746,5,10,0:0:0:0:
172,280,103917,1,2,0:0:0:0:
0,192,104089,1,2,0:0:0:0:
172,280,104260,1,0,0:0:0:0:
248,104,104431,2,0,L|304:96,1,47.9999985351563,8|0,0:0|0:0,0:0:0:0:
460,32,104603,6,0,P|404:52|380:152,1,143.999995605469,2|0,0:0|0:0,0:0:0:0:
392,116,104946,1,2,0:0:0:0:
496,256,105117,2,0,P|460:208|388:188,1,95.9999970703126,10|0,0:0|0:0,0:0:0:0:
296,156,105460,6,0,B|311:190|335:198|335:198|303:202|287:218,1,111.999996582031,2|0,0:0|0:0,0:0:0:0:
120,204,105803,2,0,B|104:169|80:161|80:161|112:157|128:141,1,111.999996582031,10|0,0:0|0:0,0:0:0:0:
220,68,106146,5,4,0:0:0:0:
212,168,106488,1,0,0:0:0:0:
200,268,106831,1,0,0:0:0:0:
100,156,107174,5,0,0:0:0:0:
212,168,107346,1,0,0:0:0:0:
328,180,107517,2,0,L|356:260,1,64,4|0,0:0|0:0,0:0:0:0:
496,268,107860,2,0,L|468:188,1,64
256,248,108203,6,0,L|238:322,1,64
392,364,108546,2,0,L|410:290,1,64
256,248,108888,5,4,0:0:0:0:
120,312,109060,1,0,0:0:0:0:
76,184,109231,5,0,0:0:0:0:
256,248,109403,1,0,0:0:0:0:
260,120,109574,5,4,0:0:0:0:
76,184,109746,1,0,0:0:0:0:
40,36,109918,5,0,0:0:0:0:
260,120,110088,2,0,P|236:208|184:164,1,160,4|2,0:0|0:0,0:0:0:0:
176,112,110603,1,2,0:0:0:0:
128,44,110774,1,2,0:0:0:0:
348,120,110946,5,0,1:0:0:0:
356,72,111031,1,0,1:0:0:0:
388,36,111117,1,0,1:0:0:0:
436,24,111203,1,0,1:0:0:0:
484,36,111288,1,8,0:0:0:0:
456,164,111631,6,0,L|436:112,1,55.9999982910157,4|0,0:0|0:0,0:0:0:0:
356,72,111803,2,0,B|336:128|336:128|380:172,1,111.999996582031,0|8,0:0|0:0,0:0:0:0:
184,140,112146,1,0,0:0:0:0:
244,40,112317,5,0,0:0:0:0:
292,200,112488,1,0,0:0:0:0:
120,252,112660,1,8,0:0:0:0:
64,80,112831,1,0,0:0:0:0:
360,52,113003,6,0,P|376:84|376:116,1,55.9999982910157,0|0,0:0|2:0,0:0:0:0:
292,200,113174,2,0,P|256:197|228:181,1,55.9999982910157,0|0,0:0|2:0,0:0:0:0:
200,72,113346,2,0,P|219:42|247:26,1,55.9999982910157,8|0,0:0|0:0,0:0:0:0:
466,40,113517,6,0,P|434:56|334:36,1,111.999996582031
332,300,113860,5,2,3:0:0:0:
492,320,114031,1,8,2:0:0:0:
332,300,114203,1,2,3:0:0:0:
348,136,114374,6,0,P|368:156|386:201,1,55.9999982910157,0|0,0:0|2:0,0:0:0:0:
208,196,114546,2,0,P|215:167|246:130,1,55.9999982910157,0|0,0:0|2:0,0:0:0:0:
332,300,114717,2,0,P|304:308|256:300,1,55.9999982910157,8|0,0:0|0:0,0:0:0:0:
208,196,114888,6,0,B|176:192|148:212|148:212|128:204|104:208|104:208|72:176|16:192,1,167.999994873047,0|0,0:0|2:0,0:0:0:0:
48,272,115231,5,0,3:0:0:0:
200,284,115403,1,8,0:0:0:0:
48,272,115574,1,0,3:0:0:0:
172,104,115746,1,0,0:0:0:0:
172,104,115831,1,0,0:0:0:0:
172,104,115917,6,0,B|228:112|228:112|264:56,1,111.999996582031,0|8,0:0|0:0,0:0:0:0:
340,200,116260,1,0,0:0:0:0:
436,232,116431,2,0,P|472:252|492:280,1,55.9999982910157,0|0,0:0|2:0,0:0:0:0:
280,332,116603,2,0,P|292:284|312:268,1,55.9999982910157,0|0,0:0|2:0,0:0:0:0:
412,308,116774,6,0,P|405:371|361:325,2,160,8|0|0,0:0|0:0|0:0,0:0:0:0:
280,332,117288,5,0,0:0:0:0:
240,264,117460,1,8,0:0:0:0:
208,196,117631,1,0,0:0:0:0:
92,296,117803,6,0,B|48:304|48:304|60:316,1,55.9999982910157,0|0,0:0|2:0,0:0:0:0:
208,196,117974,2,0,B|256:188|256:188|240:204,1,60.0000022888184,0|0,0:0|2:0,0:0:0:0:
76,120,118146,2,0,B|24:108|24:108|44:132,1,64,8|0,0:0|0:0,0:0:0:0:
240,40,118317,6,0,B|400:16|400:16|320:68,1,256
208,196,118831,1,8,0:0:0:0:
76,120,119003,1,0,0:0:0:0:
308,144,119174,2,0,L|316:224,1,60.0000022888184,0|0,0:0|2:0,0:0:0:0:
476,176,119346,2,0,L|470:116,1,60.0000022888184,0|0,0:0|2:0,0:0:0:0:
292,136,119517,6,0,L|304:228,1,64,8|0,0:0|0:0,0:0:0:0:
488,192,119688,2,0,L|479:128,1,64
232,85,119860,6,0,P|144:84|68:121,1,160
276,256,120546,2,0,P|272:308|296:340,1,80
360,364,120888,1,0,0:0:0:0:
496,320,121060,6,0,P|428:272|328:296,2,160
124,272,122088,1,0,0:0:0:0:
216,364,122260,2,0,P|224:328|192:283,1,80
104,164,122603,6,0,B|128:136|128:136|96:100,1,71.9999978027344,4|0,0:0|0:0,0:0:0:0:
44,60,122774,2,0,B|200:92,1,143.999995605469,0|8,0:0|0:0,0:0:0:0:
360,168,123117,1,0,0:0:0:0:
408,56,123288,5,0,0:0:0:0:
500,212,123460,1,0,0:0:0:0:
328,260,123631,1,8,0:0:0:0:
236,104,123803,1,0,0:0:0:0:
380,196,123974,6,0,P|352:160|352:132,1,55.9999982910157,0|0,0:0|2:0,0:0:0:0:
408,56,124146,2,0,P|453:49|477:63,1,55.9999982910157,0|0,0:0|2:0,0:0:0:0:
512,152,124317,2,0,P|494:194|470:208,1,55.9999982910157,8|0,0:0|0:0,0:0:0:0:
328,72,124488,6,0,P|264:52|200:72,1,111.999996582031
240,308,124831,1,0,3:0:0:0:
264,144,125003,1,8,0:0:0:0:
240,308,125174,1,0,3:0:0:0:
8,152,125346,6,0,P|20:188|40:204,1,55.9999982910157,0|0,0:0|2:0,0:0:0:0:
128,56,125517,2,0,P|90:48|66:57,1,55.9999982910157,0|0,0:0|2:0,0:0:0:0:
152,200,125688,2,0,P|177:171|181:146,1,55.9999982910157,8|0,0:0|0:0,0:0:0:0:
316,24,125860,6,0,P|268:60|296:180,1,167.999994873047,0|0,0:0|2:0,0:0:0:0:
344,192,126203,6,0,P|380:156|336:128,2,111.999996582031,0|8|0,3:0|0:0|3:0,0:0:0:0:
208,92,126717,1,0,0:0:0:0:
420,72,126888,6,0,P|416:33|344:60,2,120.000004577637,0|8|0,3:0|0:0|3:0,0:0:0:0:
273,159,127403,1,0,0:0:0:0:
168,56,127574,1,0,0:0:0:0:
250,82,127746,2,0,L|274:162,1,80,8|0,0:0|0:0,0:0:0:0:
376,256,128088,6,0,P|332:232|280:248,1,80,4|0,1:0|0:0,0:0:0:0:
204,200,128431,2,0,P|155:219|147:271,1,80,2|0,0:0|0:0,0:0:0:0:
199,362,128774,1,2,0:0:0:0:
267,322,128946,1,2,0:0:0:0:
303,234,129117,1,2,0:0:0:0:
272,128,129288,1,2,0:0:0:0:
164,68,129460,6,0,P|124:92|88:95,2,80,6|0|0,0:0|0:0|0:0,0:0:0:0:
308,48,129974,1,2,0:0:0:0:
272,128,130146,2,0,P|324:96|432:112,1,160,2|2,0:0|0:0,0:0:0:0:
457,316,130660,5,2,0:0:0:0:
473,187,130831,1,4,0:0:0:0:
373,235,131003,1,0,0:0:0:0:
361,143,131174,1,0,0:0:0:0:
273,255,131346,5,0,0:0:0:0:
249,167,131517,1,4,0:0:0:0:
241,355,131688,1,0,0:0:0:0:
153,255,131860,1,0,0:0:0:0:
225,55,132031,6,0,B|249:167|249:167|281:111,1,160,4|2,0:0|0:0,0:0:0:0:
312,40,132546,1,2,0:0:0:0:
156,148,132717,1,2,0:0:0:0:
296,260,132888,5,0,1:0:0:0:
328,224,132974,1,0,1:0:0:0:
364,196,133060,1,0,1:0:0:0:
408,180,133146,1,0,1:0:0:0:
456,176,133231,1,8,0:0:0:0:
308,120,133574,6,0,P|292:72|304:16,1,80,4|0,0:0|0:0,0:0:0:0:
368,16,133917,1,8,0:0:0:0:
240,156,134089,2,0,P|168:116|88:120,1,160,2|2,0:0|0:0,0:0:0:0:
92,118,134517,1,0,0:0:0:0:
92,118,134603,1,8,0:0:0:0:
132,200,134774,1,2,0:0:0:0:
64,256,134946,5,2,0:0:0:0:
212,192,135117,1,2,0:0:0:0:
352,272,135289,1,10,0:0:0:0:
264,352,135460,2,0,P|268:312|244:256,1,80,2|0,0:0|0:0,0:0:0:0:
112,352,135803,1,0,0:0:0:0:
112,352,135888,1,0,0:0:0:0:
112,352,135974,2,0,P|156:320|192:320,1,80,10|2,0:0|0:0,0:0:0:0:
376,352,136317,5,2,0:0:0:0:
356,228,136489,1,2,0:0:0:0:
476,272,136660,1,10,0:0:0:0:
260,312,136831,1,2,0:0:0:0:
8,168,137003,5,2,0:0:0:0:
244,212,137174,1,2,0:0:0:0:
108,280,137346,1,10,0:0:0:0:
148,96,137517,1,2,0:0:0:0:
244,212,137689,5,2,0:0:0:0:
165,197,137860,2,0,L|255:213,1,80,2|8,0:0|0:0,0:0:0:0:
324,160,138117,1,0,0:0:0:0:
312,176,138203,2,0,P|356:176|392:200,1,80,2|0,0:0|0:0,0:0:0:0:
384,336,138546,2,0,L|340:344,1,40
345,344,138717,6,0,L|331:265,1,80,8|0,0:0|0:0,0:0:0:0:
243,211,138974,1,0,0:0:0:0:
260,232,139060,6,0,P|188:232|116:272,1,120,2|0,0:0|0:0,0:0:0:0:
92,308,139403,1,10,0:0:0:0:
312,352,139574,2,0,P|275:368|231:360,1,80,2|0,0:0|0:0,0:0:0:0:
144,249,139917,1,2,0:0:0:0:
144,249,140003,1,0,0:0:0:0:
144,249,140089,2,0,B|160:336|160:336|172:312|192:296,1,120,10|0,0:0|0:0,0:0:0:0:
300,264,140431,6,0,P|264:244|204:252,1,80,2|0,0:0|0:0,0:0:0:0:
56,268,140774,1,8,0:0:0:0:
59,178,140946,2,0,P|114:198|144:249,1,120,2|0,0:0|0:0,0:0:0:0:
136,324,141288,1,2,0:0:0:0:
225,243,141460,1,8,0:0:0:0:
316,316,141631,1,0,0:0:0:0:
428,220,141803,5,2,0:0:0:0:
408,136,141974,1,2,0:0:0:0:
388,52,142146,1,10,0:0:0:0:
264,76,142317,6,0,B|224:168|224:168|248:144|288:144,1,160,2|0,0:0|0:0,0:0:0:0:
277,144,142831,1,8,0:0:0:0:
432,276,143003,5,2,0:0:0:0:
280,228,143174,1,2,0:0:0:0:
376,356,143346,1,2,0:0:0:0:
372,196,143517,1,10,0:0:0:0:
276,324,143688,1,2,0:0:0:0:
124,264,143860,5,0,0:0:0:0:
168,184,144031,2,0,P|195:205|211:233,1,40
172,344,144203,2,8,P|140:356|108:356,1,40,8|0,0:0|0:0,0:0:0:0:
36,264,144374,2,0,P|42:230|58:202,1,40
240,136,144546,5,4,0:0:0:0:
332,228,144717,1,2,0:0:0:0:
460,176,144888,1,8,0:0:0:0:
464,336,145060,2,0,P|416:296|412:228,1,120,2|0,0:0|0:0,0:0:0:0:
424,256,145403,5,2,0:0:0:0:
352,312,145574,1,10,0:0:0:0:
260,320,145746,1,2,0:0:0:0:
296,232,145917,5,2,0:0:0:0:
408,376,146088,1,0,0:0:0:0:
476,184,146260,1,10,0:0:0:0:
296,232,146431,6,0,L|196:248,1,80,2|0,0:0|0:0,0:0:0:0:
200,260,146688,1,0,0:0:0:0:
184,276,146774,5,2,0:0:0:0:
124,200,146946,1,10,0:0:0:0:
72,120,147117,1,2,0:0:0:0:
28,288,147288,5,2,0:0:0:0:
124,200,147460,1,2,0:0:0:0:
220,112,147631,2,0,L|316:88,1,80,8|0,0:0|0:0,0:0:0:0:
416,176,147974,2,0,L|388:272,1,80,2|2,0:0|0:0,0:0:0:0:
380,324,148231,1,2,0:0:0:0:
384,340,148317,5,10,0:0:0:0:
272,300,148488,1,2,0:0:0:0:
496,256,148660,5,2,3:0:0:0:
272,300,148831,1,0,3:0:0:0:
496,256,149174,5,0,3:0:0:0:
272,300,149517,1,0,3:0:0:0:
376,356,149688,6,0,P|392:328|388:288,1,60.0000022888184,8|0,0:0|0:0,0:0:0:0:
312,220,149860,2,0,P|313:190|328:164,1,60.0000022888184,8|0,0:0|0:0,0:0:0:0:
492,204,150031,6,0,L|380:216,1,95.9999970703126,12|2,0:0|0:0,0:0:0:0:
232,156,150374,1,10,0:0:0:0:
244,284,150546,1,2,0:0:0:0:
144,56,150717,5,8,0:0:0:0:
120,204,150888,1,2,0:0:0:0:
0,112,151060,5,8,0:0:0:0:
32,288,151231,1,2,0:0:0:0:
32,288,151317,1,2,0:0:0:0:
32,288,151403,5,12,0:0:0:0:
244,284,151574,1,2,0:0:0:0:
148,136,151746,5,8,0:0:0:0:
300,216,151917,1,2,0:0:0:0:
320,80,152088,5,8,0:0:0:0:
376,188,152260,1,2,0:0:0:0:
376,188,152346,1,2,0:0:0:0:
376,188,152431,2,0,L|440:168,1,47.9999985351563,8|0,0:0|0:0,0:0:0:0:
444,40,152603,2,0,L|398:54,1,47.9999985351563,2|0,0:0|0:0,0:0:0:0:
252,24,152774,6,0,P|236:60|240:108,1,47.9999985351563,4|0,0:0|0:0,0:0:0:0:
152,120,152946,2,0,P|159:158|190:195,1,47.9999985351563,2|0,0:0|0:0,0:0:0:0:
228,252,153117,1,8,0:0:0:0:
24,372,153288,6,0,P|40:336|36:288,1,47.9999985351563,4|0,0:0|0:0,0:0:0:0:
124,276,153460,2,0,P|116:237|85:200,1,47.9999985351563,2|0,0:0|0:0,0:0:0:0:
48,144,153631,1,8,0:0:0:0:
156,40,153803,1,2,0:0:0:0:
256,176,153974,6,0,B|336:252|464:180|400:100|320:144|376:232|376:232|432:220|472:252|488:312,1,383.99998828125,4|0,0:0|0:0,0:0:0:0:
364,80,154831,6,0,P|428:-4|436:104,1,272.000005187988,0|8,0:0|0:0,0:0:0:0:
364,80,155517,6,0,P|312:104|232:88,1,128,4|2,1:0|0:0,0:0:0:0:
128,40,156031,1,0,1:0:0:0:
132,32,156117,1,0,1:0:0:0:
136,24,156203,2,0,P|164:60|152:112,1,96,0|0,1:0|0:0,0:0:0:0:
124,180,156546,6,0,P|64:176|104:108,1,143.999995605469,8|0,0:0|0:0,0:0:0:0:
184,264,156889,6,0,P|240:240|311:249,1,128,0|2,1:0|0:0,0:0:0:0:
442,210,157403,2,0,L|418:186,1,32,0|0,1:0|0:0,0:0:0:0:
420,188,157574,2,0,P|392:232|384:277,1,96,0|0,1:0|0:0,0:0:0:0:
408,348,157917,6,0,P|454:362|444:284,1,143.999995605469,8|0,0:0|0:0,0:0:0:0:
305,247,158260,6,0,P|269:203|273:123,1,128,0|2,1:0|0:0,0:0:0:0:
420,84,158774,1,0,1:0:0:0:
428,92,158860,1,0,1:0:0:0:
432,100,158946,2,0,P|385:116|332:96,1,96,0|0,1:0|0:0,0:0:0:0:
276,64,159289,6,0,P|276:12|340:60,1,143.999995605469,8|0,0:0|0:0,0:0:0:0:
196,184,159631,6,0,P|139:141|75:121,1,128,0|2,1:0|0:0,0:0:0:0:
32,184,160146,1,0,1:0:0:0:
48,260,160317,1,0,1:0:0:0:
296,296,160660,6,0,P|268:356|224:268,1,215.999993408203,8|0,0:0|0:0,0:0:0:0:
280,220,161003,6,0,P|336:212|407:231,1,128,0|2,1:0|0:0,0:0:0:0:
440,88,161517,1,0,1:0:0:0:
432,84,161603,1,0,1:0:0:0:
424,80,161689,2,0,P|412:120|432:164,1,64,0|0,1:0|0:0,0:0:0:0:
484,200,162031,1,8,0:0:0:0:
512,116,162203,1,0,0:0:0:0:
348,96,162374,6,0,P|320:96|268:116,1,64,0|0,1:0|0:0,0:0:0:0:
285,105,162631,1,0,0:0:0:0:
285,105,162717,1,2,0:0:0:0:
247,185,162888,1,0,1:0:0:0:
344,268,163060,2,0,P|348:216|328:168,1,96,0|0,1:0|0:0,0:0:0:0:
284,104,163403,6,0,P|224:124|256:188,1,143.999995605469,8|0,0:0|0:0,0:0:0:0:
368,104,163746,1,0,1:0:0:0:
444,216,163917,1,0,0:0:0:0:
444,216,164260,5,0,1:0:0:0:
364,248,164431,1,0,1:0:0:0:
320,324,164603,1,0,0:0:0:0:
408,348,164774,5,8,0:0:0:0:
244,228,164946,1,0,0:0:0:0:
400,100,165117,6,0,P|418:117|427:149,1,40,0|0,1:0|0:0,0:0:0:0:
364,248,165288,1,0,0:0:0:0:
364,248,165460,6,0,P|340:256|308:248,1,40,8|0,0:0|0:0,0:0:0:0:
260,144,165631,1,0,0:0:0:0:
260,144,165803,6,0,P|265:120|287:96,1,40,8|0,0:0|0:0,0:0:0:0:
64,80,165974,1,0,0:0:0:0:
64,80,166146,6,0,P|74:98|77:117,1,40,8|0,0:0|0:0,0:0:0:0:
136,256,166317,2,0,P|168:244|180:220,1,40,8|0,0:0|0:0,0:0:0:0:
176,76,166489,6,0,L|160:156,1,80,4|0,0:0|0:0,0:0:0:0:
176,352,166831,1,10,0:0:0:0:
204,312,166917,1,0,0:0:0:0:
240,280,167003,1,2,0:0:0:0:
284,260,167089,1,0,0:0:0:0:
332,252,167174,5,0,0:0:0:0:
440,364,167346,1,2,0:0:0:0:
412,280,167517,2,0,P|424:228|476:176,1,120,8|0,0:0|0:0,0:0:0:0:
496,108,167860,6,0,P|472:96|420:128,1,80,2|0,0:0|0:0,0:0:0:0:
240,216,168203,2,0,P|264:228|316:196,1,80,8|0,0:0|0:0,0:0:0:0:
316,40,168546,6,0,L|336:136,1,80,2|0,0:0|0:0,0:0:0:0:
420,280,168889,2,0,L|401:180,1,80,8|0,0:0|0:0,0:0:0:0:
405,201,169146,1,0,0:0:0:0:
405,201,169231,5,4,0:0:0:0:
300,328,169403,1,0,0:0:0:0:
192,216,169574,1,10,0:0:0:0:
172,260,169660,1,0,0:0:0:0:
136,292,169746,1,2,0:0:0:0:
92,308,169831,1,0,0:0:0:0:
44,312,169917,5,0,0:0:0:0:
80,200,170089,1,2,0:0:0:0:
204,344,170260,1,8,0:0:0:0:
296,204,170431,1,0,0:0:0:0:
218,265,170603,6,0,L|202:349,1,80,2|0,0:0|0:0,0:0:0:0:
372,296,170946,2,0,L|386:217,1,80,10|0,0:0|0:0,0:0:0:0:
275,126,171289,6,0,L|299:218,1,80,2|0,0:0|0:0,0:0:0:0:
444,124,171631,2,0,L|423:46,1,80,10|0,0:0|0:0,0:0:0:0:
208,200,171974,5,4,1:0:0:0:
232,328,172317,1,0,1:0:0:0:
208,200,172660,1,0,1:0:0:0:
232,328,173003,5,0,1:0:0:0:
208,200,173174,1,0,1:0:0:0:
176,72,173346,5,4,1:0:0:0:
336,128,173689,1,0,1:0:0:0:
176,72,174031,1,0,1:0:0:0:
336,128,174374,5,0,1:0:0:0:
176,72,174546,1,0,1:0:0:0:
72,188,174717,5,4,1:0:0:0:
192,156,174889,1,0,1:0:0:0:
204,252,175060,1,0,1:0:0:0:
124,304,175231,1,0,1:0:0:0:
448,136,175403,5,4,1:0:0:0:
316,88,175575,1,0,1:0:0:0:
304,192,175746,1,0,1:0:0:0:
388,256,175917,1,0,1:0:0:0:
264,24,176089,5,0,3:0:0:0:
232,52,176174,1,0,3:0:0:0:
224,96,176260,1,0,3:0:0:0:
236,140,176346,1,0,3:0:0:0:
264,172,176431,1,0,3:0:0:0:
288,208,176517,1,0,3:0:0:0:
280,252,176603,1,0,3:0:0:0:
248,284,176689,1,0,3:0:0:0:
220,328,176774,5,0,3:0:0:0:
188,324,176860,1,0,3:0:0:0:
144,344,176946,5,0,3:0:0:0:
120,320,177031,1,0,3:0:0:0:
76,316,177117,5,0,3:0:0:0:
72,284,177203,1,0,3:0:0:0:
36,264,177289,5,0,3:0:0:0:
52,236,177374,1,0,3:0:0:0:
120,320,177803,6,0,L|316:296,2,160,2|2|2,0:0|0:0|0:0,0:0:0:0:
72,256,178831,6,0,P|92:168|152:252,1,223.999993164063,4|8,0:0|0:0,0:0:0:0:
296,324,179346,1,2,0:0:0:0:
216,356,179517,2,0,P|164:316|120:308,1,95.9999970703126,2|0,0:0|0:0,0:0:0:0:
135,308,179774,1,0,0:0:0:0:
135,308,179860,1,8,0:0:0:0:
48,340,180031,5,2,0:0:0:0:
164,232,180203,1,2,0:0:0:0:
296,324,180374,2,0,L|290:276,1,47.9999985351563,2|0,0:0|0:0,0:0:0:0:
280,192,180546,5,8,0:0:0:0:
280,192,180717,1,0,0:0:0:0:
280,192,180888,1,2,0:0:0:0:
280,192,181060,2,0,L|344:172,1,47.9999985351563
165,228,181231,5,10,0:0:0:0:
320,80,181403,1,2,0:0:0:0:
340,288,181574,1,2,0:0:0:0:
280,192,181746,1,0,0:0:0:0:
136,240,181917,5,10,0:0:0:0:
332,56,182089,1,2,0:0:0:0:
348,324,182260,1,2,0:0:0:0:
280,192,182431,2,0,L|220:176,1,47.9999985351563
136,240,182603,6,0,P|160:176|128:104,1,143.999995605469,10|0,0:0|0:0,0:0:0:0:
56,100,182946,2,0,P|45:146|81:174,1,95.9999970703126,2|0,0:0|0:0,0:0:0:0:
232,100,183288,2,0,P|232:48|268:16,1,95.9999970703126,10|0,0:0|0:0,0:0:0:0:
408,168,183631,6,0,L|420:232,1,47.9999985351563,2|0,0:0|0:0,0:0:0:0:
408,232,183803,1,0,0:0:0:0:
256,184,183974,2,0,B|336:136|336:136|320:168|340:216,1,143.999995605469,10|0,0:0|0:0,0:0:0:0:
288,264,184317,6,0,P|216:224|152:224,1,143.999995605469,0|0,1:0|0:0,0:0:0:0:
88,256,184660,1,8,0:0:0:0:
228,348,184831,1,2,0:0:0:0:
368,276,185003,6,0,P|380:344|324:324,1,143.999995605469
288,264,185346,2,0,P|300:224|288:168,1,95.9999970703126,8|0,0:0|0:0,0:0:0:0:
80,160,185689,6,0,P|104:172|132:172,1,47.9999985351563,2|0,0:0|0:0,0:0:0:0:
208,168,185860,1,2,0:0:0:0:
264,100,186031,1,10,0:0:0:0:
240,16,186203,5,2,0:0:0:0:
289,171,186374,1,2,0:0:0:0:
124,173,186546,1,2,0:0:0:0:
180,80,186717,5,10,0:0:0:0:
172,256,186889,1,2,0:0:0:0:
312,72,187060,6,0,L|432:56,1,95.9999970703126,2|0,0:0|0:0,0:0:0:0:
407,59,187403,1,8,0:0:0:0:
412,212,187574,6,0,L|292:196,1,95.9999970703126,2|0,0:0|0:0,0:0:0:0:
317,199,187917,1,2,0:0:0:0:
312,344,188088,6,0,L|432:328,1,95.9999970703126,10|0,0:0|0:0,0:0:0:0:
407,331,188346,1,2,0:0:0:0:
407,331,188431,1,2,0:0:0:0:
317,199,188603,1,0,0:0:0:0:
228,308,188774,6,0,B|236:280|252:268|252:268|236:256|223:216,1,95.9999970703126,10|0,0:0|0:0,0:0:0:0:
0,172,189117,2,0,B|20:192|22:212|22:212|41:204|81:214,1,95.9999970703126,2|0,0:0|0:0,0:0:0:0:
244,40,189460,2,0,B|215:47|197:39|197:39|194:59|166:89,1,95.9999970703126,10|0,0:0|0:0,0:0:0:0:
164,172,189717,1,0,0:0:0:0:
164,172,189803,6,0,P|232:148|328:152,1,143.999995605469,4|0,0:0|0:0,0:0:0:0:
380,168,190146,1,8,0:0:0:0:
220,280,190317,1,2,0:0:0:0:
324,340,190489,2,0,P|308:300|320:236,1,95.9999970703126,2|0,0:0|0:0,0:0:0:0:
313,248,190746,1,0,0:0:0:0:
313,248,190831,1,8,0:0:0:0:
420,240,191003,5,2,0:0:0:0:
303,146,191174,1,2,0:0:0:0:
220,280,191346,1,2,0:0:0:0:
68,260,191517,6,0,B|112:256|156:224|156:224|136:252|139:269,1,143.999995605469,10|0,0:0|0:0,0:0:0:0:
158,339,191860,2,0,P|175:296|219:279,1,95.9999970703126,2|0,0:0|0:0,0:0:0:0:
416,356,192203,5,10,0:0:0:0:
368,252,192374,1,2,0:0:0:0:
324,144,192546,1,6,0:0:0:0:
368,252,192717,1,0,0:0:0:0:
256,356,192889,5,10,0:0:0:0:
368,252,193060,1,2,0:0:0:0:
476,144,193232,1,2,0:0:0:0:
368,252,193403,1,0,0:0:0:0:
264,156,193574,2,0,L|200:176,1,47.9999985351563,8|0,0:0|0:0,0:0:0:0:
100,288,193746,6,0,P|140:248|120:144,1,143.999995605469
112,156,194088,1,2,0:0:0:0:
73,20,194260,2,0,P|43:57|47:103,1,95.9999970703126,10|0,0:0|0:0,0:0:0:0:
240,40,194603,6,0,L|292:28,2,47.9999985351563,2|0|0,0:0|0:0|0:0,0:0:0:0:
132,76,194946,1,10,0:0:0:0:
164,84,195031,1,0,0:0:0:0:
184,112,195117,1,0,0:0:0:0:
88,232,195289,5,4,0:0:0:0:
112,156,195631,1,0,0:0:0:0:
172,220,195974,1,0,0:0:0:0:
172,220,196317,5,0,0:0:0:0:
216,324,196489,1,0,0:0:0:0:
316,256,196660,2,0,P|344:240|377:238,1,64,4|0,0:0|0:0,0:0:0:0:
424,308,197003,2,0,P|456:308|485:322,1,64
424,136,197346,6,0,P|396:152|363:154,1,64
316,84,197689,2,0,P|283:83|254:69,1,64
32,152,198031,5,4,0:0:0:0:
124,224,198203,1,0,0:0:0:0:
152,104,198374,5,0,0:0:0:0:
204,236,198546,1,0,0:0:0:0:
292,144,198717,5,4,0:0:0:0:
272,296,198889,1,0,0:0:0:0:
436,268,199061,5,0,0:0:0:0:
264,380,199231,2,0,B|216:368|200:336|200:336|168:376|108:368,1,160,4|2,0:0|0:0,0:0:0:0:
60,304,199746,1,2,0:0:0:0:
92,216,199917,1,0,0:0:0:0:
60,116,200089,5,0,1:0:0:0:
112,136,200174,1,0,1:0:0:0:
168,136,200260,1,0,1:0:0:0:
216,108,200346,1,0,1:0:0:0:
252,64,200431,1,0,0:0:0:0:
252,64,200774,6,0,P|284:48|340:48,1,80,4|0,0:0|0:0,0:0:0:0:
388,92,201288,1,2,0:0:0:0:
292,168,201631,1,2,0:0:0:0:
400,280,201974,6,0,B|444:324|396:352|320:332|336:236|416:180,1,240,2|0,0:0|0:0,0:0:0:0:
252,296,203517,6,0,P|216:272|172:268,1,80,2|0,0:0|0:0,0:0:0:0:
96,312,204031,1,2,0:0:0:0:
244,196,204374,1,2,0:0:0:0:
312,340,204717,2,0,L|304:256,1,80,2|0,0:0|0:0,0:0:0:0:
244,196,205231,6,0,P|276:176|324:176,2,80,2|2|2,0:0|0:0|0:0,0:0:0:0:
24,80,206260,6,0,P|64:160|64:28,1,383.99998828125,2|0,0:0|0:0,0:0:0:0:
248,40,207974,5,2,0:0:0:0:
256,148,208317,1,2,0:0:0:0:
364,128,208660,1,2,0:0:0:0:
136,316,209003,6,0,B|128:244|187:188|187:188|219:252|219:252|287:219|287:219|301:312|240:377,1,431.999986816407,2|0,0:0|0:0,0:0:0:0:
400,304,210374,6,0,B|380:208|364:92|364:92|468:44|468:44|364:92|216:108,1,575.999982421876,2|0,0:0|0:0,0:0:0:0:
400,304,212088,6,0,P|404:272|420:296,2,80
436,204,213117,6,0,P|384:200|352:220,1,80
408,304,213631,1,0,0:0:0:0:
512,200,213803,2,0,P|504:164|464:132,1,80
380,168,214317,1,0,0:0:0:0:
304,116,214488,5,0,0:0:0:0:
316,36,214660,1,0,0:0:0:0:
228,144,214831,2,0,L|184:152,1,40
112,164,215174,1,0,0:0:0:0:
172,300,215517,5,0,0:0:0:0:
64,308,215688,1,0,0:0:0:0:
180,288,215860,2,0,L|232:300,1,40
344,236,216203,5,0,0:0:0:0:
452,244,216374,1,0,0:0:0:0:
336,224,216546,2,0,L|284:236,1,40
256,120,216888,1,0,0:0:0:0:
248,40,217060,6,0,L|256:124,1,80
168,88,217574,1,0,0:0:0:0:
336,72,217917,1,0,0:0:0:0:
140,92,218260,1,0,0:0:0:0:
408,32,218603,6,0,P|420:72|408:116,1,80
296,127,219117,2,0,P|224:96|140:92,1,160
80,136,219888,1,0,0:0:0:0:
88,160,219974,6,0,P|124:184|160:172,1,80
232,264,220488,1,0,0:0:0:0:
220,344,220660,1,0,0:0:0:0:
336,304,220831,5,0,0:0:0:0:
332,224,221003,1,0,0:0:0:0:
448,252,221174,5,0,0:0:0:0:
432,332,221346,2,0,L|428:376,1,40
336,304,221688,5,0,0:0:0:0:
332,224,221860,2,0,L|340:168,1,40
232,264,222203,5,0,0:0:0:0:
220,344,222374,2,0,L|164:360,1,40
96,152,223060,6,0,P|108:88|136:152,1,160
96,152,223746,6,0,B|56:120|56:120|172:76|172:76|144:152,1,240
140,220,224088,6,0,B|184:220|224:188|224:188|276:228|240:312,1,191.999994140625,4|8,0:0|0:0,0:0:0:0:
96,344,224603,1,2,0:0:0:0:
178,326,224774,2,0,P|212:284|288:296,1,95.9999970703126,2|0,0:0|0:0,0:0:0:0:
316,312,225031,1,0,0:0:0:0:
320,328,225117,1,8,0:0:0:0:
416,344,225288,5,2,0:0:0:0:
328,232,225460,1,2,0:0:0:0:
480,216,225631,1,0,0:0:0:0:
480,216,225717,1,0,0:0:0:0:
480,216,225803,6,0,P|468:180|476:136,1,47.9999985351563,10|0,0:0|0:0,0:0:0:0:
392,188,225974,2,0,P|393:150|415:111,1,47.9999985351563
380,16,226146,6,0,P|392:52|384:96,1,47.9999985351563,2|0,0:0|0:0,0:0:0:0:
468,44,226317,2,0,P|466:81|444:120,1,47.9999985351563
312,96,226488,5,8,0:0:0:0:
152,32,226660,1,2,0:0:0:0:
128,204,226831,1,2,0:0:0:0:
200,120,227003,1,0,0:0:0:0:
272,4,227174,5,10,0:0:0:0:
260,216,227346,1,2,0:0:0:0:
76,112,227517,1,2,0:0:0:0:
200,120,227688,2,0,L|264:96,1,47.9999985351563
376,56,227860,6,0,B|347:16|347:16|306:147,1,143.999995605469,8|0,0:0|0:0,0:0:0:0:
328,184,228203,2,0,P|380:180|392:136,1,95.9999970703126,2|0,0:0|0:0,0:0:0:0:
136,56,228546,2,0,P|164:72|172:136,1,95.9999970703126,10|0,0:0|0:0,0:0:0:0:
20,236,228888,6,0,L|24:168,1,47.9999985351563,2|0,0:0|0:0,0:0:0:0:
88,128,229060,1,0,0:0:0:0:
176,268,229231,2,0,B|100:204|100:204|96:268,1,143.999995605469,8|0,0:0|0:0,0:0:0:0:
112,340,229574,6,0,P|164:304|252:312,1,143.999995605469,0|0,1:0|0:0,0:0:0:0:
300,360,229917,1,8,0:0:0:0:
368,212,230088,1,2,0:0:0:0:
440,356,230260,6,0,P|392:352|424:280,1,143.999995605469
492,292,230603,2,0,P|496:260|478:198,1,95.9999970703126,8|0,0:0|0:0,0:0:0:0:
472,0,230946,6,0,P|484:32|480:64,1,47.9999985351563,2|0,0:0|0:0,0:0:0:0:
484,124,231117,1,2,0:0:0:0:
408,168,231288,1,10,0:0:0:0:
324,148,231460,5,2,0:0:0:0:
484,124,231631,1,2,0:0:0:0:
388,28,231803,1,2,0:0:0:0:
408,168,231974,5,10,0:0:0:0:
272,72,232146,2,0,L|212:84,1,47.9999985351563
120,168,232317,6,0,B|148:172|160:200|160:200|164:164|188:140,1,95.9999970703126,2|0,0:0|0:0,0:0:0:0:
172,160,232660,1,8,0:0:0:0:
460,224,232831,6,0,B|432:219|411:241|411:241|420:206|405:175,1,95.9999970703126,2|0,0:0|0:0,0:0:0:0:
413,199,233174,1,2,0:0:0:0:
224,352,233346,6,0,B|249:337|276:350|276:350|256:320|259:286,1,95.9999970703126,8|0,0:0|0:0,0:0:0:0:
260,311,233603,1,0,0:0:0:0:
260,311,233689,1,2,0:0:0:0:
80,256,233860,1,0,0:0:0:0:
80,256,233946,1,0,0:0:0:0:
80,256,234031,6,0,P|136:252|176:296,1,95.9999970703126,10|0,0:0|0:0,0:0:0:0:
224,352,234288,1,0,0:0:0:0:
224,336,234374,2,0,P|240:312|264:292,1,47.9999985351563,2|0,0:0|0:0,0:0:0:0:
344,228,234546,1,2,0:0:0:0:
428,352,234717,6,0,P|380:384|380:300,1,180.000006866455,8|0,0:0|0:0,0:0:0:0:
468,276,235060,6,0,P|432:216|432:144,1,143.999995605469,4|0,0:0|0:0,0:0:0:0:
484,92,235403,1,8,0:0:0:0:
392,220,235574,1,2,0:0:0:0:
272,132,235746,6,0,P|316:148|380:116,1,95.9999970703126,2|0,0:0|0:0,0:0:0:0:
400,68,236003,1,0,0:0:0:0:
396,48,236088,1,8,0:0:0:0:
288,32,236260,5,2,0:0:0:0:
212,200,236431,1,2,0:0:0:0:
80,96,236603,1,2,0:0:0:0:
162,69,236774,6,0,P|202:129|206:229,1,143.999995605469,10|0,0:0|0:0,0:0:0:0:
160,268,237117,2,0,P|120:220|156:180,1,95.9999970703126,2|0,0:0|0:0,0:0:0:0:
376,220,237460,5,10,0:0:0:0:
272,356,237631,1,2,0:0:0:0:
211,199,237803,1,2,0:0:0:0:
272,356,237974,1,0,0:0:0:0:
456,144,238146,5,10,0:0:0:0:
392,324,238317,1,2,0:0:0:0:
280,168,238489,1,2,0:0:0:0:
392,324,238660,1,0,0:0:0:0:
284,272,238831,2,0,L|232:288,1,47.9999985351563,8|0,0:0|0:0,0:0:0:0:
144,368,239003,6,0,P|164:300|123:238,1,143.999995605469,2|0,0:0|0:0,0:0:0:0:
120,264,239346,1,0,0:0:0:0:
16,152,239517,2,0,P|76:176|120:164,1,95.9999970703126,10|0,0:0|0:0,0:0:0:0:
228,104,239860,6,0,L|212:52,1,47.9999985351563,2|0,0:0|0:0,0:0:0:0:
148,28,240031,1,0,0:0:0:0:
296,40,240203,6,0,L|312:92,1,47.9999985351563,10|0,0:0|0:0,0:0:0:0:
376,116,240374,1,0,0:0:0:0:
384,216,240546,5,4,0:0:0:0:
264,216,240888,1,0,0:0:0:0:
252,336,241231,1,0,0:0:0:0:
252,336,241574,5,0,0:0:0:0:
384,216,241746,1,0,0:0:0:0:
296,56,241917,2,0,P|244:64|220:96,1,80,4|0,0:0|0:0,0:0:0:0:
164,152,242260,2,0,P|136:120|84:116,1,80
52,300,242603,6,0,P|101:280|137:296,1,80
214,317,242946,2,0,P|222:275|265:245,1,80
464,240,243288,5,4,1:0:0:0:
304,328,243460,1,0,1:0:0:0:
324,216,243631,5,0,1:0:0:0:
448,344,243803,1,0,1:0:0:0:
444,76,243974,5,4,1:0:0:0:
236,172,244146,1,0,1:0:0:0:
272,48,244318,5,0,1:0:0:0:
414,196,244488,2,0,P|386:256|324:203,1,160,4|2,0:0|0:0,0:0:0:0:
236,172,245003,1,2,0:0:0:0:
180,252,245174,1,2,0:0:0:0:
88,160,245346,5,0,1:0:0:0:
96,112,245431,1,0,1:0:0:0:
140,96,245517,1,0,1:0:0:0:
176,128,245603,1,0,1:0:0:0:
160,177,245688,1,8,0:0:0:0:
88,160,246031,6,0,P|100:112|152:184,1,191.999994140625,4|8,0:0|0:0,0:0:0:0:
164,324,246546,1,2,0:0:0:0:
20,264,246717,2,0,P|52:248|114:249,1,95.9999970703126,2|0,0:0|0:0,0:0:0:0:
160,304,246974,1,0,0:0:0:0:
164,324,247060,1,8,0:0:0:0:
72,352,247231,5,2,0:0:0:0:
212,236,247403,1,2,0:0:0:0:
280,352,247574,1,0,0:0:0:0:
280,352,247660,1,0,0:0:0:0:
280,352,247746,6,0,P|312:348|340:328,1,47.9999985351563,10|0,0:0|0:0,0:0:0:0:
296,268,247917,2,0,P|321:248|335:217,1,47.9999985351563
444,116,248088,6,0,P|427:98|406:88,1,47.9999985351563,2|0,0:0|0:0,0:0:0:0:
369,157,248259,2,0,P|346:150|322:151,1,47.9999985351563
56,224,248431,5,10,0:0:0:0:
256,200,248602,1,2,0:0:0:0:
140,36,248774,1,2,0:0:0:0:
152,148,248946,1,0,0:0:0:0:
164,268,249117,5,10,0:0:0:0:
260,72,249288,1,2,0:0:0:0:
40,88,249460,1,2,0:0:0:0:
152,148,249631,2,0,L|172:96,1,47.9999985351563
132,6,249803,6,0,B|148:68|148:68|144:102|144:102|156:170,1,143.999995605469,8|0,0:0|0:0,0:0:0:0:
204,216,250146,2,0,P|244:184|224:136,1,95.9999970703126,2|0,0:0|0:0,0:0:0:0:
428,24,250489,2,0,P|380:48|368:120,1,95.9999970703126,10|0,0:0|0:0,0:0:0:0:
472,224,250831,6,0,L|492:160,1,47.9999985351563,2|0,0:0|0:0,0:0:0:0:
444,104,251003,1,0,0:0:0:0:
361,210,251174,2,0,B|297:138|297:138|301:170|289:206,1,143.999995605469,10|0,0:0|0:0,0:0:0:0:
300,263,251517,6,0,P|212:256|120:284,1,143.999995605469,0|0,1:0|0:0,0:0:0:0:
96,320,251860,1,8,0:0:0:0:
240,352,252031,1,2,0:0:0:0:
294,185,252203,6,0,P|240:156|264:228,1,143.999995605469
300,263,252546,2,0,P|344:276|408:256,1,95.9999970703126,8|0,0:0|0:0,0:0:0:0:
432,72,252889,6,0,L|380:88,1,47.9999985351563,2|0,0:0|0:0,0:0:0:0:
294,185,253060,1,2,0:0:0:0:
296,100,253231,1,10,0:0:0:0:
232,40,253403,5,2,0:0:0:0:
294,185,253574,1,2,0:0:0:0:
386,86,253746,1,2,0:0:0:0:
204,148,253917,5,10,0:0:0:0:
64,80,254088,2,0,L|80:148,1,47.9999985351563
8,252,254260,6,0,P|52:244|88:204,1,95.9999970703126,2|0,0:0|0:0,0:0:0:0:
86,207,254603,1,8,0:0:0:0:
244,368,254774,6,0,P|215:333|162:322,1,95.9999970703126,2|0,0:0|0:0,0:0:0:0:
166,322,255117,1,2,0:0:0:0:
272,128,255288,6,0,P|256:170|273:221,1,95.9999970703126,10|0,0:0|0:0,0:0:0:0:
271,217,255546,1,0,0:0:0:0:
271,218,255631,1,2,0:0:0:0:
308,52,255803,1,0,0:0:0:0:
308,52,255888,1,0,0:0:0:0:
308,52,255974,6,0,P|240:36|176:56,1,95.9999970703126,10|0,0:0|0:0,0:0:0:0:
160,168,256231,1,0,0:0:0:0:
172,160,256317,2,0,P|184:132|180:104,1,47.9999985351563,2|0,0:0|0:0,0:0:0:0:
120,28,256488,1,2,0:0:0:0:
24,116,256660,6,0,P|88:80|72:152,1,180.000006866455,10|0,0:0|0:0,0:0:0:0:
16,260,257003,6,0,P|72:228|172:248,1,143.999995605469,4|0,0:0|0:0,0:0:0:0:
220,264,257346,1,8,0:0:0:0:
172,160,257517,1,2,0:0:0:0:
92,348,257689,6,0,P|160:352|220:324,1,95.9999970703126,2|0,0:0|0:0,0:0:0:0:
228,280,257946,1,0,0:0:0:0:
220,264,258031,1,8,0:0:0:0:
288,368,258203,5,2,0:0:0:0:
132,264,258374,1,2,0:0:0:0:
300,180,258546,1,2,0:0:0:0:
88,168,258717,2,0,P|156:172|232:124,1,143.999995605469,10|0,0:0|0:0,0:0:0:0:
248,56,259060,2,0,P|192:52|160:120,1,95.9999970703126,2|0,0:0|0:0,0:0:0:0:
192,280,259403,5,10,0:0:0:0:
316,232,259574,1,2,0:0:0:0:
444,184,259746,1,2,0:0:0:0:
316,232,259917,1,0,0:0:0:0:
448,332,260089,5,10,0:0:0:0:
316,232,260260,1,2,0:0:0:0:
184,136,260432,1,2,0:0:0:0:
316,232,260603,1,0,0:0:0:0:
228,348,260774,2,0,L|216:300,1,47.9999985351563,8|0,0:0|0:0,0:0:0:0:
148,256,260946,6,0,B|184:240|196:204|196:204|220:228|280:236,1,143.999995605469
256,216,261288,1,0,0:0:0:0:
112,184,261460,1,10,0:0:0:0:
216,301,261631,1,0,0:0:0:0:
328,180,261802,6,0,L|312:116,1,47.9999985351563,2|0,0:0|0:0,0:0:0:0:
296,60,261974,1,0,0:0:0:0:
144,64,262146,6,0,L|128:128,1,47.9999985351563,10|0,0:0|0:0,0:0:0:0:
112,184,262318,1,0,0:0:0:0:
216,301,262489,5,4,0:0:0:0:
340,268,262831,1,0,0:0:0:0:
464,236,263174,1,0,0:0:0:0:
480,336,263517,5,0,0:0:0:0:
340,268,263689,1,0,0:0:0:0:
204,200,263860,2,0,P|164:200|132:212,1,64,4|0,0:0|0:0,0:0:0:0:
20,108,264203,2,0,P|40:132|69:145,1,64
240,268,264546,6,0,P|205:288|183:314,1,64
34,280,264889,2,0,P|63:291|95:287,1,64
264,352,265231,5,4,0:0:0:0:
152,148,265403,1,0,0:0:0:0:
95,287,265574,1,0,0:0:0:0:
328,220,265746,1,0,0:0:0:0:
264,352,265917,5,4,0:0:0:0:
136,72,266089,1,0,0:0:0:0:
95,287,266261,1,0,0:0:0:0:
408,168,266431,2,0,B|360:84|360:84|364:124|352:164,1,160,4|2,0:0|0:0,0:0:0:0:
284,236,266946,1,2,0:0:0:0:
128,180,267117,1,2,0:0:0:0:
284,236,267289,5,0,1:0:0:0:
260,196,267374,1,0,1:0:0:0:
220,172,267460,1,0,1:0:0:0:
172,164,267546,1,0,1:0:0:0:
128,180,267631,1,8,0:0:0:0:
128,180,267974,6,0,L|152:260,1,55.9999982910157,4|0,0:0|0:0,0:0:0:0:
196,356,268146,2,0,B|212:284|212:284|192:304|168:308,1,111.999996582031,0|8,0:0|0:0,0:0:0:0:
128,180,268489,1,0,0:0:0:0:
8,224,268660,5,0,0:0:0:0:
256,128,268831,1,0,0:0:0:0:
180,304,269003,1,8,0:0:0:0:
76,64,269174,1,0,0:0:0:0:
264,216,269346,6,0,B|292:216|292:216|316:188,1,55.9999982910157,0|0,0:0|2:0,0:0:0:0:
324,56,269517,2,0,B|310:31|310:31|273:24,1,55.9999982910157,0|0,0:0|2:0,0:0:0:0:
164,92,269688,2,0,B|150:116|150:116|162:151,1,55.9999982910157,8|0,0:0|2:0,0:0:0:0:
256,128,269860,6,0,B|316:112|316:112|356:128|356:128|392:104|392:104|496:112,1,215.999993408203
496,40,270203,5,0,3:0:0:0:
476,248,270374,1,8,0:0:0:0:
496,40,270546,1,0,3:0:0:0:
400,204,270717,6,0,P|386:179|367:160,1,55.9999982910157,0|0,0:0|2:0,0:0:0:0:
256,128,270888,2,0,P|232:113|205:106,1,55.9999982910157,0|0,0:0|2:0,0:0:0:0:
144,200,271060,2,0,P|116:200|89:206,1,55.9999982910157,8|0,0:0|0:0,0:0:0:0:
92,344,271231,6,0,B|84:264|16:260|16:260|36:280|36:316,1,167.999994873047
20,368,271574,5,0,3:0:0:0:
16,168,271746,1,8,0:0:0:0:
20,368,271917,1,0,3:0:0:0:
216,280,272089,1,0,0:0:0:0:
208,324,272174,1,0,0:0:0:0:
200,364,272260,6,0,B|172:304|172:304|224:224,1,143.999995605469,0|8,0:0|0:0,0:0:0:0:
360,256,272603,1,0,0:0:0:0:
460,240,272774,2,0,B|464:212|464:212|456:184,1,55.9999982910157,0|0,0:0|2:0,0:0:0:0:
316,168,272946,2,0,B|312:140|312:140|320:112,1,55.9999982910157,0|0,0:0|2:0,0:0:0:0:
468,56,273117,6,0,B|404:108|404:108|408:16,2,160,8|0|0,0:0|0:0|0:0,0:0:0:0:
316,168,273631,5,0,0:0:0:0:
240,144,273803,1,8,0:0:0:0:
164,120,273974,1,0,0:0:0:0:
24,240,274146,6,0,B|12:264|12:264|20:300,1,55.9999982910157,0|0,0:0|2:0,0:0:0:0:
196,212,274317,2,0,B|176:188|176:188|124:184,1,55.9999982910157,0|0,0:0|2:0,0:0:0:0:
128,360,274488,2,0,B|160:360|160:360|180:332,1,55.9999982910157,8|0,0:0|0:0,0:0:0:0:
151,186,274660,6,0,B|80:144|80:144|123:306,1,215.999993408203
128,360,275003,5,0,0:0:0:0:
220,296,275174,1,8,0:0:0:0:
316,356,275346,1,0,0:0:0:0:
472,336,275517,6,0,B|472:320|480:308|480:308|460:304|440:276,1,64,0|0,0:0|2:0,0:0:0:0:
296,284,275688,2,0,B|296:268|288:256|288:256|308:252|328:224,1,64,0|0,0:0|2:0,0:0:0:0:
452,208,275860,6,0,B|448:192|432:184|432:184|440:172|444:144,1,64,8|0,0:0|0:0,0:0:0:0:
316,156,276031,2,0,B|324:140|344:136|344:136|336:124|340:104,1,64
492,20,276203,6,0,B|447:26|419:78|419:78|400:28|343:17,1,191.999994140625
272,48,276889,2,0,P|248:88|276:136,1,80
304,184,277231,1,0,0:0:0:0:
176,88,277403,6,0,B|88:56|112:144|-12:80,2,160
147,176,278431,1,0,0:0:0:0:
156,256,278603,2,0,L|146:165,1,80
300,72,278946,6,0,L|372:52,1,71.9999978027344
512,80,279117,2,0,B|424:112|424:112|444:96|456:60,1,143.999995605469,0|8,0:0|0:0,0:0:0:0:
356,224,279460,1,0,0:0:0:0:
220,237,279631,5,0,0:0:0:0:
340,136,279803,1,0,0:0:0:0:
480,204,279974,1,8,0:0:0:0:
364,308,280146,1,0,0:0:0:0:
220,237,280317,6,0,P|211:208|223:168,1,55.9999982910157,0|0,0:0|2:0,0:0:0:0:
304,68,280488,2,0,P|332:58|373:71,1,55.9999982910157,0|0,0:0|2:0,0:0:0:0:
474,150,280660,2,0,P|483:179|471:219,1,55.9999982910157,8|0,0:0|0:0,0:0:0:0:
364,308,280831,6,0,B|356:236|356:236|344:212|344:212|336:116,1,167.999994873047
304,68,281174,5,0,3:0:0:0:
496,56,281346,1,8,0:0:0:0:
304,68,281517,1,0,0:0:0:0:
196,328,281689,6,0,P|224:296|220:248,1,55.9999982910157,0|0,0:0|2:0,0:0:0:0:
92,240,281860,2,0,P|76:212|76:172,1,55.9999982910157,0|0,0:0|2:0,0:0:0:0:
180,124,282031,2,0,P|204:104|212:76,1,55.9999982910157,8|0,0:0|0:0,0:0:0:0:
128,48,282203,6,0,L|148:264,1,215.999993408203
196,328,282546,6,0,P|172:360|108:332,2,111.999996582031,0|8|0,3:0|0:0|0:0,0:0:0:0:
292,332,283060,1,0,0:0:0:0:
64,256,283231,6,0,P|52:228|124:188,2,128,0|8|0,0:0|0:0|0:0,0:0:0:0:
195,327,283746,1,0,0:0:0:0:
288,192,283917,1,0,0:0:0:0:
206,232,284089,2,0,L|194:344,1,95.9999970703126,8|0,0:0|0:0,0:0:0:0:
292,356,284431,6,0,P|340:348|364:320,1,80,4|0,0:0|0:0,0:0:0:0:
448,312,284774,2,0,P|464:288|452:220,1,80,2|0,0:0|0:0,0:0:0:0:
432,92,285117,5,2,0:0:0:0:
396,172,285289,1,2,0:0:0:0:
316,224,285460,1,2,0:0:0:0:
212,216,285631,1,2,0:0:0:0:
136,132,285803,6,0,L|148:44,2,80,6|0|0,0:0|0:0|0:0,0:0:0:0:
108,300,286317,1,2,0:0:0:0:
52,180,286489,2,0,B|96:188|120:228|120:228|156:196|212:196,1,160,0|2,0:0|0:0,0:0:0:0:
296,156,287003,5,2,0:0:0:0:
384,196,287174,1,4,0:0:0:0:
280,128,287346,1,0,0:0:0:0:
428,116,287517,1,0,0:0:0:0:
300,316,287689,5,0,0:0:0:0:
388,276,287860,1,4,0:0:0:0:
284,344,288032,1,0,0:0:0:0:
428,360,288203,1,0,0:0:0:0:
340,216,288374,6,0,B|320:172|340:132|392:128|392:128|368:148|380:188,1,160,4|2,0:0|0:0,0:0:0:0:
428,360,288889,1,2,0:0:0:0:
448,184,289060,1,2,0:0:0:0:
428,360,289231,5,0,1:0:0:0:
412,312,289317,1,0,1:0:0:0:
440,272,289403,1,0,1:0:0:0:
472,232,289489,1,0,1:0:0:0:
448,184,289574,1,8,0:0:0:0:
448,184,289917,5,6,0:0:0:0:
368,220,290088,1,0,0:0:0:0:
296,168,290260,1,0,0:0:0:0:
312,84,290431,1,0,0:0:0:0:
488,84,290603,5,2,0:0:0:0:
376,140,290774,1,0,0:0:0:0:
352,12,290946,1,0,0:0:0:0:
376,140,291117,1,0,0:0:0:0:
284,248,291288,5,0,3:0:0:0:
200,220,291460,1,0,0:0:0:0:
128,268,291631,1,0,0:0:0:0:
44,240,291803,1,0,0:0:0:0:
216,320,291974,5,2,0:0:0:0:
120,188,292146,1,0,0:0:0:0:
48,332,292317,1,0,0:0:0:0:
120,188,292488,1,0,0:0:0:0:
388,268,292660,5,2,3:0:0:0:
348,192,292831,1,0,0:0:0:0:
400,120,293003,1,0,0:0:0:0:
364,40,293174,1,0,0:0:0:0:
444,204,293346,5,2,0:0:0:0:
312,116,293517,1,0,0:0:0:0:
456,40,293688,1,0,0:0:0:0:
312,116,293860,1,0,0:0:0:0:
164,56,294031,6,0,P|160:72|164:80,1,20,2|0,0:0|0:0,0:0:0:0:
36,212,294288,6,0,P|47:223|56:224,1,20,2|0,0:0|0:0,0:0:0:0:
76,112,294546,6,0,P|80:127|88:132,1,20,2|0,0:0|0:0,0:0:0:0:
56,312,294803,6,0,P|72:316|80:312,1,20,2|0,0:0|0:0,0:0:0:0:
256,264,295060,5,2,0:0:0:0:
480,296,295231,1,2,0:0:0:0:
388,364,295403,5,2,0:0:0:0:
340,300,295574,1,0,0:0:0:0:
324,220,295746,1,0,0:0:0:0:
344,144,295917,1,0,0:0:0:0:
448,60,296088,5,0,3:0:0:0:
456,92,296260,1,0,0:0:0:0:
424,104,296431,1,0,0:0:0:0:
412,72,296603,1,0,0:0:0:0:
344,144,296774,5,2,0:0:0:0:
272,176,296946,1,0,0:0:0:0:
188,172,297117,1,0,0:0:0:0:
124,124,297288,1,0,0:0:0:0:
128,8,297460,5,0,3:0:0:0:
160,15,297631,1,0,0:0:0:0:
156,46,297803,1,0,0:0:0:0:
122,42,297974,1,0,0:0:0:0:
124,124,298146,5,2,0:0:0:0:
176,184,298317,1,0,0:0:0:0:
188,264,298488,1,0,0:0:0:0:
156,336,298660,1,0,0:0:0:0:
36,328,298831,5,0,3:0:0:0:
56,304,299003,1,0,0:0:0:0:
88,300,299174,1,0,0:0:0:0:
240,344,299346,6,0,L|272:340,1,20,2|0,0:0|0:0,0:0:0:0:
304,240,299603,2,0,L|336:244,1,20,2|0,0:0|0:0,0:0:0:0:
376,312,299860,1,2,0:0:0:0:
512,344,300031,6,0,L|480:340,1,20,2|0,0:0|0:0,0:0:0:0:
448,240,300288,2,0,L|416:244,1,20,2|0,0:0|0:0,0:0:0:0:
376,312,300546,2,0,L|384:368,1,40,2|0,0:0|0:0,0:0:0:0:
208,160,300888,5,2,0:0:0:0:
192,73,301060,1,0,0:0:0:0:
120,26,301231,1,0,0:0:0:0:
32,45,301403,1,0,0:0:0:0:
43,49,301574,5,0,3:0:0:0:
120,38,301746,1,0,0:0:0:0:
181,82,301917,1,0,0:0:0:0:
196,155,302088,1,0,0:0:0:0:
326,207,302260,5,2,0:0:0:0:
410,187,302431,1,0,0:0:0:0:
462,116,302603,1,0,0:0:0:0:
459,30,302774,1,0,0:0:0:0:
444,37,302946,5,0,3:0:0:0:
445,114,303117,1,0,0:0:0:0:
402,175,303288,1,0,0:0:0:0:
328,191,303460,1,0,0:0:0:0:
220,224,303631,5,2,0:0:0:0:
132,220,303803,1,0,0:0:0:0:
56,264,303974,1,0,0:0:0:0:
44,352,304146,1,0,0:0:0:0:
56,348,304317,5,0,3:0:0:0:
72,272,304488,1,0,0:0:0:0:
136,232,304660,1,0,0:0:0:0:
212,236,304831,1,0,0:0:0:0:
272,340,305003,6,0,L|264:308,1,20,2|0,0:0|0:0,0:0:0:0:
416,232,305260,2,0,L|411:212,1,20,2|0,0:0|0:0,0:0:0:0:
456,344,305517,6,0,L|460:324,1,20,2|0,0:0|0:0,0:0:0:0:
304,236,305774,2,0,L|308:216,1,20,2|0,0:0|0:0,0:0:0:0:
352,112,306032,5,2,0:0:0:0:
364,324,306203,1,2,0:0:0:0:
224,284,306375,5,2,0:0:0:0:
172,176,306546,1,0,0:0:0:0:
80,252,306717,1,0,0:0:0:0:
128,360,306888,1,0,0:0:0:0:
184,328,307060,5,0,3:0:0:0:
96,304,307231,1,0,0:0:0:0:
120,216,307403,1,0,0:0:0:0:
208,236,307574,1,0,0:0:0:0:
384,80,307746,5,2,0:0:0:0:
460,176,307917,1,0,0:0:0:0:
352,224,308088,1,0,0:0:0:0:
276,132,308259,1,0,0:0:0:0:
336,96,308431,5,0,3:0:0:0:
316,184,308602,1,0,0:0:0:0:
404,208,308774,1,0,0:0:0:0:
428,120,308945,1,0,0:0:0:0:
184,216,309117,6,0,B|156:252|56:248|8:164|88:108|184:132|72:284|140:332,1,335.999989746094,2|2,0:0|0:0,0:0:0:0:
256,192,310403,12,0,311860,0:0:0:0:
