osu file format v14

[General]
AudioFilename: audio.mp3
AudioLeadIn: 0
PreviewTime: 177202
Countdown: 0
SampleSet: Normal
StackLeniency: 0.7
Mode: 3
LetterboxInBreaks: 0
SpecialStyle: 0
WidescreenStoryboard: 0
SamplesMatchPlaybackRate: 1

[Editor]
DistanceSpacing: 0.8
BeatDivisor: 4
GridSize: 32
TimelineZoom: 1

[Metadata]
Title:Colorful (Asterisk DnB Remix)
TitleUnicode:カラフル。(Asterisk DnB Remix)
Artist:Sawai Miku
ArtistUnicode:沢井美空
Creator:AetherKeys
Version:"Megumi" MX
Source:冴えない彼女の育てかた
Tags:Saenai heroine no sodatekata asterisk dnb remix
BeatmapID:989253
BeatmapSetID:460269

[Difficulty]
HPDrainRate:8
CircleSize:4
OverallDifficulty:8
ApproachRate:5
SliderMultiplier:1.4
SliderTickRate:1

[Events]
//Background and Video events
0,0,"saenai.jpg",0,0
//Break Periods
//Storyboard Layer 0 (Background)
//Storyboard Layer 1 (Fail)
//Storyboard Layer 2 (Pass)
//Storyboard Layer 3 (Foreground)
//Storyboard Sound Samples

[TimingPoints]
288,342.857142857143,4,1,1,40,1,0
89430,-90.9090909090909,4,1,1,30,0,1
111088,-100,4,1,1,40,0,0
178573,-90.9090909090909,4,1,1,30,0,1
200230,-100,4,1,1,30,0,0
200516,-142.857142857143,4,1,1,40,0,0
211545,-100,4,1,1,40,0,0
211602,-133.333333333333,4,1,1,20,0,0
222459,-90.9090909090909,4,1,1,35,0,1
245488,-100,4,1,1,25,0,0
262230,-100,4,1,1,35,0,0
267716,-111.111111111111,4,2,1,5,0,0

[HitObjects]
64,192,288,5,4,3:0:0:0:
448,192,288,1,4,3:3:0:0:
320,192,459,1,0,0:0:0:0:
448,192,630,1,0,0:0:0:0:
64,192,630,1,0,0:0:0:0:
192,192,630,1,0,1:0:0:0:
320,192,802,1,0,3:0:0:0:
64,192,973,1,0,3:0:0:0:
448,192,1145,1,4,3:0:0:0:
192,192,1145,1,4,3:0:0:0:
64,192,1316,1,0,0:0:0:0:
192,192,1316,1,0,0:0:0:0:
320,192,1316,1,0,0:0:0:0:
448,192,1488,1,0,0:0:0:0:
320,192,1659,1,4,3:0:0:0:
64,192,1659,1,0,0:0:0:0:
448,192,1830,1,0,0:0:0:0:
64,192,2002,1,0,0:0:0:0:
192,192,2002,1,0,0:0:0:0:
320,192,2002,1,0,0:0:0:0:
320,192,2173,1,0,3:0:0:0:
448,192,2345,1,0,3:0:0:0:
64,192,2516,1,4,3:0:0:0:
320,192,2516,1,4,3:0:0:0:
192,192,2688,1,0,0:0:0:0:
320,192,2688,1,0,0:0:0:0:
448,192,2688,1,0,0:0:0:0:
64,192,2859,1,0,0:0:0:0:
192,192,3030,1,4,3:0:0:0:
320,192,3030,1,4,3:0:0:0:
448,192,3202,1,0,0:0:0:0:
320,192,3373,1,0,0:0:0:0:
192,192,3373,1,0,0:0:0:0:
64,192,3373,1,0,0:0:0:0:
448,192,3545,1,0,3:0:0:0:
192,192,3716,1,0,3:0:0:0:
64,192,3888,1,4,3:0:0:0:
448,192,3888,1,4,3:0:0:0:
448,192,4059,1,0,0:0:0:0:
320,192,4059,1,0,0:0:0:0:
192,192,4059,1,0,0:0:0:0:
64,192,4230,1,0,3:0:0:0:
192,192,4402,1,4,3:0:0:0:
448,192,4402,1,4,3:0:0:0:
320,192,4573,1,0,0:0:0:0:
64,192,4745,1,0,0:0:0:0:
320,192,4745,1,0,0:0:0:0:
448,192,4745,1,0,0:0:0:0:
192,192,4916,1,0,3:0:0:0:
320,192,5088,1,0,3:0:0:0:
64,192,5259,1,4,3:0:0:0:
448,192,5259,1,4,3:0:0:0:
192,192,5430,1,0,0:0:0:0:
320,192,5430,1,0,0:0:0:0:
448,192,5430,1,0,0:0:0:0:
192,192,5602,1,0,0:0:0:0:
64,192,5773,1,4,3:0:0:0:
448,192,5773,1,0,0:0:0:0:
320,192,5945,1,0,0:0:0:0:
448,192,6116,1,0,0:0:0:0:
64,192,6116,1,0,0:0:0:0:
192,192,6116,1,0,0:0:0:0:
320,192,6288,1,0,0:0:0:0:
192,192,6459,1,0,3:0:0:0:
320,192,6630,1,4,3:0:0:0:
448,192,6630,1,4,3:0:0:0:
64,192,6802,1,0,0:0:0:0:
192,192,6802,1,0,0:0:0:0:
320,192,6802,1,0,0:0:0:0:
448,192,6973,1,0,0:0:0:0:
64,192,7145,5,4,3:0:0:0:
192,192,7145,1,4,3:0:0:0:
320,192,7316,1,0,0:0:0:0:
448,192,7488,1,0,0:0:0:0:
192,192,7488,1,0,0:0:0:0:
64,192,7488,1,0,0:0:0:0:
320,192,7659,1,0,3:0:0:0:
64,192,7830,1,0,3:0:0:0:
448,192,8002,1,4,3:0:0:0:
192,192,8002,1,4,3:0:0:0:
64,192,8173,1,0,0:0:0:0:
192,192,8173,1,0,0:0:0:0:
320,192,8173,1,0,0:0:0:0:
64,192,8345,1,0,0:0:0:0:
320,192,8516,1,4,3:0:0:0:
448,192,8516,1,4,3:0:0:0:
448,192,8688,1,0,0:0:0:0:
64,192,8859,1,0,0:0:0:0:
192,192,8859,1,0,0:0:0:0:
320,192,8859,1,0,0:0:0:0:
192,192,9030,1,0,3:0:0:0:
448,192,9202,1,0,3:0:0:0:
64,192,9373,1,4,3:0:0:0:
320,192,9373,1,4,3:0:0:0:
192,192,9545,1,0,0:0:0:0:
320,192,9545,1,0,0:0:0:0:
448,192,9545,1,0,0:0:0:0:
64,192,9716,1,0,0:0:0:0:
192,192,9888,1,4,3:0:0:0:
320,192,9888,1,4,3:0:0:0:
448,192,10059,1,0,0:0:0:0:
320,192,10230,1,0,0:0:0:0:
192,192,10230,1,0,0:0:0:0:
64,192,10230,1,0,0:0:0:0:
320,192,10402,1,0,3:0:0:0:
64,192,10573,1,0,3:0:0:0:
320,192,10745,1,4,3:0:0:0:
448,192,10745,1,4,3:0:0:0:
448,192,10916,1,0,0:0:0:0:
320,192,10916,1,0,0:0:0:0:
192,192,10916,1,0,0:0:0:0:
64,192,11088,1,0,3:0:0:0:
192,192,11259,1,4,3:0:0:0:
448,192,11259,1,4,3:0:0:0:
320,192,11259,1,0,0:0:0:0:
192,192,11430,1,0,0:0:0:0:
64,192,11602,1,0,0:0:0:0:
320,192,11602,1,0,0:0:0:0:
448,192,11602,1,0,0:0:0:0:
448,192,11773,1,0,3:0:0:0:
320,192,11945,1,0,3:0:0:0:
64,192,12116,1,4,3:0:0:0:
192,192,12116,1,4,3:0:0:0:
192,192,12288,1,0,0:0:0:0:
320,192,12288,1,0,0:0:0:0:
448,192,12288,1,0,0:0:0:0:
64,192,12630,1,4,3:0:0:0:
192,192,12630,1,0,0:0:0:0:
320,192,12802,1,0,0:0:0:0:
448,192,12973,1,0,0:0:0:0:
192,192,12973,1,0,0:0:0:0:
64,192,12973,1,0,0:0:0:0:
64,192,13145,1,0,3:0:0:0:
192,192,13316,1,0,3:0:0:0:
320,192,13488,1,4,3:0:0:0:
448,192,13488,1,4,3:0:0:0:
64,192,13659,1,0,0:0:0:0:
192,192,13659,1,0,0:0:0:0:
320,192,13659,1,0,0:0:0:0:
448,192,13830,1,0,0:0:0:0:
64,192,14002,5,4,3:0:0:0:
192,192,14002,1,4,3:0:0:0:
448,192,14002,1,0,0:0:0:0:
320,192,14173,1,0,0:0:0:0:
192,192,14345,1,0,0:0:0:0:
320,192,14345,1,0,0:0:0:0:
448,192,14345,1,0,0:0:0:0:
192,192,14516,1,0,0:0:0:0:
64,192,14688,1,0,3:0:0:0:
192,192,14859,1,4,3:0:0:0:
448,192,14859,1,4,3:0:0:0:
320,192,15030,1,0,0:0:0:0:
192,192,15030,1,0,0:0:0:0:
64,192,15030,1,0,0:0:0:0:
448,192,15373,1,4,3:0:0:0:
320,192,15373,1,4,3:0:0:0:
448,192,15545,1,0,0:0:0:0:
320,192,15716,1,0,0:0:0:0:
192,192,15716,1,0,0:0:0:0:
64,192,15716,1,0,0:0:0:0:
192,192,15888,1,0,3:0:0:0:
448,192,16059,1,0,3:0:0:0:
320,192,16230,1,4,3:0:0:0:
64,192,16230,1,4,3:0:0:0:
448,192,16402,1,0,0:0:0:0:
320,192,16402,1,0,0:0:0:0:
192,192,16402,1,0,0:0:0:0:
64,192,16573,1,0,3:0:0:0:
320,192,16745,1,4,3:0:0:0:
448,192,16745,1,4,3:0:0:0:
64,192,16745,1,4,3:0:0:0:
192,192,16916,1,0,3:0:0:0:
320,192,17088,1,4,3:0:0:0:
448,192,17088,1,4,3:0:0:0:
192,192,17259,1,0,3:0:0:0:
448,192,17430,1,4,3:0:0:0:
320,192,17430,1,4,3:0:0:0:
192,192,17602,1,0,3:0:0:0:
320,192,17773,1,4,3:0:0:0:
448,192,17773,1,4,3:0:0:0:
192,192,17945,1,0,3:0:0:0:
64,192,18116,1,4,3:0:0:0:
192,192,18116,1,4,3:0:0:0:
448,192,18116,1,0,3:0:0:0:
320,192,18288,1,0,3:0:0:0:
192,192,18459,1,4,3:0:0:0:
64,192,18459,1,4,3:0:0:0:
320,192,18630,1,0,3:0:0:0:
192,192,18802,1,4,3:0:0:0:
64,192,18802,1,4,3:0:0:0:
320,192,18973,1,0,3:0:0:0:
64,192,19145,1,4,3:0:0:0:
192,192,19145,1,4,3:0:0:0:
320,192,19316,1,0,3:0:0:0:
448,192,19488,1,0,3:0:0:0:
320,192,19488,1,4,3:0:0:0:
64,192,19488,1,4,3:0:0:0:
64,192,19659,1,4,3:0:0:0:
320,192,19659,1,0,0:0:0:0:
192,192,19830,1,4,3:0:0:0:
448,192,19830,1,0,0:0:0:0:
64,192,20002,1,4,3:0:0:0:
320,192,20002,1,0,0:0:0:0:
448,192,20173,1,0,0:0:0:0:
320,192,20173,1,0,0:0:0:0:
64,192,20173,1,0,0:0:0:0:
64,192,20345,1,4,3:0:0:0:
320,192,20345,1,0,0:0:0:0:
192,192,20516,1,4,3:0:0:0:
448,192,20516,1,0,0:0:0:0:
64,192,20688,1,4,3:0:0:0:
320,192,20688,1,0,0:0:0:0:
448,192,20688,1,0,0:0:0:0:
320,192,21030,1,4,3:0:0:0:
448,192,21030,1,0,0:0:0:0:
192,192,21202,1,4,3:0:0:0:
64,192,21202,1,4,3:0:0:0:
448,192,21373,1,0,0:0:0:0:
320,192,21373,1,4,3:0:0:0:
64,192,21545,1,4,3:0:0:0:
192,192,21545,1,0,0:0:0:0:
448,192,21630,1,0,0:0:0:0:
320,192,21630,1,4,3:0:0:0:
64,192,21716,1,4,3:0:0:0:
192,192,21716,1,0,0:0:0:0:
448,192,21802,1,0,0:0:0:0:
320,192,21802,1,0,0:0:0:0:
192,192,21888,1,0,0:0:0:0:
192,192,21888,1,0,0:0:0:0:
320,192,21888,1,0,0:0:0:0:
64,192,21888,1,0,0:0:0:0:
64,192,22230,5,4,3:0:0:0:
192,192,22230,1,4,3:0:0:0:
320,192,22230,1,0,0:0:0:0:
448,192,22402,1,0,0:0:0:0:
448,192,22573,1,0,0:0:0:0:
320,192,22573,1,0,0:0:0:0:
192,192,22573,1,0,0:0:0:0:
320,192,22745,1,0,3:0:0:0:
64,192,22916,1,0,3:0:0:0:
448,192,23088,1,4,3:0:0:0:
192,192,23088,1,4,3:0:0:0:
64,192,23259,1,0,0:0:0:0:
192,192,23259,1,0,0:0:0:0:
320,192,23259,1,0,0:0:0:0:
448,192,23602,1,4,3:0:0:0:
192,192,23602,1,4,3:0:0:0:
448,192,23773,1,0,0:0:0:0:
64,192,23945,1,0,0:0:0:0:
192,192,23945,1,0,0:0:0:0:
320,192,23945,1,0,0:0:0:0:
192,192,24116,1,0,3:0:0:0:
448,192,24288,1,0,3:0:0:0:
64,192,24459,1,4,3:0:0:0:
320,192,24459,1,4,3:0:0:0:
192,192,24630,1,0,0:0:0:0:
320,192,24630,1,0,0:0:0:0:
448,192,24630,1,0,0:0:0:0:
64,192,24802,1,0,0:0:0:0:
192,192,24973,1,4,3:0:0:0:
320,192,24973,1,4,3:0:0:0:
448,192,25145,1,0,0:0:0:0:
320,192,25316,1,0,0:0:0:0:
192,192,25316,1,0,0:0:0:0:
64,192,25316,1,0,0:0:0:0:
192,192,25488,1,0,3:0:0:0:
64,192,25659,1,0,3:0:0:0:
320,192,25830,1,4,3:0:0:0:
448,192,25830,1,4,3:0:0:0:
448,192,26002,1,0,0:0:0:0:
320,192,26002,1,0,0:0:0:0:
192,192,26002,1,0,0:0:0:0:
64,192,26173,1,0,3:0:0:0:
448,192,26345,1,4,3:0:0:0:
320,192,26345,1,4,3:0:0:0:
192,192,26516,1,0,0:0:0:0:
64,192,26688,1,0,0:0:0:0:
320,192,26688,1,0,0:0:0:0:
448,192,26688,1,0,0:0:0:0:
192,192,26859,1,0,0:0:0:0:
320,192,27030,1,0,0:0:0:0:
64,192,27202,1,4,3:0:0:0:
192,192,27202,1,4,3:0:0:0:
192,192,27373,1,0,0:0:0:0:
320,192,27373,1,0,0:0:0:0:
448,192,27373,1,0,0:0:0:0:
448,192,27545,1,0,0:0:0:0:
64,192,27716,1,4,3:0:0:0:
320,192,27716,1,4,3:0:0:0:
192,192,27888,1,0,0:0:0:0:
64,192,28059,1,0,0:0:0:0:
192,192,28059,1,0,0:0:0:0:
448,192,28059,1,0,0:0:0:0:
320,192,28230,1,0,3:0:0:0:
192,192,28402,1,0,3:0:0:0:
320,192,28573,1,4,3:0:0:0:
448,192,28573,1,4,3:0:0:0:
64,192,28745,1,0,0:0:0:0:
192,192,28745,1,0,0:0:0:0:
320,192,28745,1,0,0:0:0:0:
448,192,28916,1,0,0:0:0:0:
64,192,29088,5,4,3:0:0:0:
192,192,29088,1,4,3:0:0:0:
64,192,29259,1,0,0:0:0:0:
192,192,29430,1,0,0:0:0:0:
320,192,29430,1,0,0:0:0:0:
448,192,29430,1,0,0:0:0:0:
320,192,29602,1,0,3:0:0:0:
64,192,29773,1,0,3:0:0:0:
192,192,29945,1,4,3:0:0:0:
448,192,29945,1,4,3:0:0:0:
320,192,30116,1,0,0:0:0:0:
192,192,30116,1,0,0:0:0:0:
64,192,30116,1,0,0:0:0:0:
64,192,30288,1,0,0:0:0:0:
448,192,30459,1,4,3:0:0:0:
320,192,30459,1,4,3:0:0:0:
448,192,30630,1,0,0:0:0:0:
320,192,30802,1,0,0:0:0:0:
192,192,30802,1,0,0:0:0:0:
64,192,30802,1,0,0:0:0:0:
192,192,30973,1,0,3:0:0:0:
448,192,31145,1,0,3:0:0:0:
320,192,31316,1,4,3:0:0:0:
64,192,31316,1,4,3:0:0:0:
448,192,31488,1,0,0:0:0:0:
320,192,31488,1,0,0:0:0:0:
192,192,31488,1,0,0:0:0:0:
64,192,31659,1,0,0:0:0:0:
320,192,31830,1,0,2:0:0:0:
448,192,31830,1,0,0:0:0:0:
448,192,32002,1,0,0:0:0:0:
64,192,32173,1,0,0:0:0:0:
192,192,32173,1,0,0:0:0:0:
320,192,32173,1,0,0:0:0:0:
192,192,32345,1,0,3:0:0:0:
320,192,32516,1,0,0:0:0:0:
448,192,32688,1,4,3:0:0:0:
64,192,32688,1,0,0:0:0:0:
320,192,32859,1,0,0:0:0:0:
448,192,32859,1,0,0:0:0:0:
192,192,32859,1,0,0:0:0:0:
320,192,33030,1,0,0:0:0:0:
448,192,33202,1,4,3:0:0:0:
64,192,33202,1,0,0:0:0:0:
192,192,33202,1,0,0:0:0:0:
320,192,33373,1,0,0:0:0:0:
448,192,33545,1,0,0:0:0:0:
320,192,33545,1,0,0:0:0:0:
64,192,33545,1,0,0:0:0:0:
192,192,33716,1,0,3:0:0:0:
320,192,33888,1,0,3:0:0:0:
192,192,34059,1,4,3:0:0:0:
64,192,34059,1,4,3:0:0:0:
320,192,34230,1,0,0:0:0:0:
192,192,34230,1,0,0:0:0:0:
448,192,34230,1,0,0:0:0:0:
64,192,34573,1,4,3:0:0:0:
320,192,34573,1,4,3:0:0:0:
192,192,34745,1,0,0:0:0:0:
192,192,34916,1,0,0:0:0:0:
448,192,34916,1,0,0:0:0:0:
64,192,34916,1,0,0:0:0:0:
320,192,35088,1,0,3:0:0:0:
192,192,35259,1,0,3:0:0:0:
320,192,35430,1,4,3:0:0:0:
448,192,35430,1,4,3:0:0:0:
64,192,35602,1,0,0:0:0:0:
192,192,35602,1,0,0:0:0:0:
320,192,35602,1,0,0:0:0:0:
448,192,35773,1,0,0:0:0:0:
64,192,35945,5,4,3:0:0:0:
192,192,35945,1,4,3:0:0:0:
64,192,36116,1,0,0:0:0:0:
448,192,36288,1,0,0:0:0:0:
320,192,36288,1,0,0:0:0:0:
192,192,36288,1,0,0:0:0:0:
320,192,36459,1,0,3:0:0:0:
64,192,36630,1,0,3:0:0:0:
448,192,36802,1,4,3:0:0:0:
192,192,36802,1,4,3:0:0:0:
192,192,36973,1,0,0:0:0:0:
320,192,36973,1,0,0:0:0:0:
64,192,36973,1,0,0:0:0:0:
320,192,37316,1,4,3:0:0:0:
448,192,37316,1,4,3:0:0:0:
448,192,37488,1,0,0:0:0:0:
64,192,37659,1,0,0:0:0:0:
192,192,37659,1,0,0:0:0:0:
320,192,37659,1,0,0:0:0:0:
192,192,37830,1,0,3:0:0:0:
448,192,38002,1,0,3:0:0:0:
64,192,38173,1,4,3:0:0:0:
320,192,38173,1,4,3:0:0:0:
192,192,38345,1,0,0:0:0:0:
320,192,38345,1,0,0:0:0:0:
448,192,38345,1,0,0:0:0:0:
192,192,38516,1,0,0:0:0:0:
320,192,38688,1,4,3:0:0:0:
448,192,38688,1,4,3:0:0:0:
64,192,38688,1,0,3:0:0:0:
192,192,38859,1,0,3:0:0:0:
320,192,39030,1,4,3:0:0:0:
448,192,39030,1,4,3:0:0:0:
192,192,39202,1,0,3:0:0:0:
320,192,39373,1,4,3:0:0:0:
448,192,39373,1,4,3:0:0:0:
192,192,39545,1,0,3:0:0:0:
320,192,39716,1,4,3:0:0:0:
448,192,39716,1,4,3:0:0:0:
192,192,39888,1,0,3:0:0:0:
64,192,40059,1,0,0:0:0:0:
192,192,40059,1,0,0:0:0:0:
448,192,40059,1,4,3:0:0:0:
320,192,40230,1,0,3:0:0:0:
192,192,40402,1,4,3:0:0:0:
64,192,40402,1,4,3:0:0:0:
320,192,40573,1,0,3:0:0:0:
64,192,40745,1,4,3:0:0:0:
192,192,40745,1,4,3:0:0:0:
320,192,40916,1,0,3:0:0:0:
64,192,41088,1,4,3:0:0:0:
192,192,41088,1,4,3:0:0:0:
320,192,41259,1,0,3:0:0:0:
64,192,41430,1,0,0:0:0:0:
320,192,41430,1,0,0:0:0:0:
448,192,41430,1,4,3:0:0:0:
64,192,41602,1,0,0:0:0:0:
320,192,41602,1,4,3:0:0:0:
192,192,41773,1,0,0:0:0:0:
448,192,41773,1,4,3:0:0:0:
64,192,41945,1,0,0:0:0:0:
320,192,41945,1,4,3:0:0:0:
448,192,42116,1,4,3:0:0:0:
320,192,42116,1,0,0:0:0:0:
64,192,42116,1,0,0:0:0:0:
64,192,42288,1,0,0:0:0:0:
320,192,42288,1,4,3:0:0:0:
192,192,42459,1,0,0:0:0:0:
448,192,42459,1,4,3:0:0:0:
64,192,42630,1,0,0:0:0:0:
320,192,42630,1,0,3:0:0:0:
448,192,42630,1,0,3:0:0:0:
192,192,42973,1,4,3:0:0:0:
64,192,42973,1,0,2:0:0:0:
448,192,43145,1,4,3:0:0:0:
320,192,43145,1,4,3:0:0:0:
192,192,43316,1,4,3:0:0:0:
320,192,43316,1,4,3:0:0:0:
448,192,43488,1,0,2:0:0:0:
320,192,43488,1,4,3:0:0:0:
64,192,43573,1,0,2:0:0:0:
192,192,43573,1,4,3:0:0:0:
448,192,43659,1,0,2:0:0:0:
320,192,43659,1,4,3:0:0:0:
64,192,43745,1,0,2:0:0:0:
192,192,43745,1,4,3:0:0:0:
448,192,43830,1,0,0:0:0:0:
192,192,43830,1,0,3:0:0:0:
320,192,43830,1,0,3:0:0:0:
64,192,44173,128,4,45545:3:0:0:0:
192,192,44173,1,4,3:0:0:0:
320,192,44173,1,0,0:0:0:0:
448,192,44345,1,0,0:0:0:0:
192,192,44516,1,0,0:0:0:0:
320,192,44516,1,0,0:0:0:0:
320,192,44688,1,0,3:0:0:0:
448,192,44859,1,0,3:0:0:0:
192,192,45030,1,4,3:0:0:0:
320,192,45030,1,4,3:0:0:0:
192,192,45202,1,0,0:0:0:0:
320,192,45202,1,0,2:0:0:0:
448,192,45202,1,0,2:0:0:0:
192,192,45545,128,4,46916:3:0:0:0:
448,192,45545,1,4,3:0:0:0:
320,192,45716,1,0,0:0:0:0:
64,192,45888,1,0,0:0:0:0:
448,192,45888,1,0,0:0:0:0:
320,192,46059,1,0,3:0:0:0:
448,192,46230,1,0,3:0:0:0:
64,192,46402,1,4,3:0:0:0:
320,192,46402,1,4,3:0:0:0:
64,192,46573,1,0,0:0:0:0:
448,192,46573,1,0,2:0:0:0:
320,192,46573,1,0,2:0:0:0:
320,192,46916,128,4,48288:3:0:0:0:
448,192,46916,1,4,3:0:0:0:
448,192,47259,1,0,0:0:0:0:
64,192,47259,1,0,0:0:0:0:
192,192,47430,1,0,0:0:0:0:
64,192,47602,1,0,3:0:0:0:
448,192,47773,1,4,3:0:0:0:
192,192,47773,1,4,3:0:0:0:
64,192,47945,1,0,0:0:0:0:
192,192,47945,1,0,2:0:0:0:
448,192,47945,1,0,2:0:0:0:
448,192,48288,128,4,49659:3:0:0:0:
64,192,48288,1,0,0:0:0:0:
192,192,48459,1,0,0:0:0:0:
64,192,48630,1,0,0:0:0:0:
320,192,48630,1,0,0:0:0:0:
192,192,48802,1,0,3:0:0:0:
64,192,48973,1,0,3:0:0:0:
192,192,49145,1,4,3:0:0:0:
320,192,49145,1,4,3:0:0:0:
192,192,49316,1,0,2:0:0:0:
320,192,49316,1,0,2:0:0:0:
64,192,49316,1,0,0:0:0:0:
64,192,49659,128,4,51030:3:0:0:0:
192,192,49659,1,4,3:0:0:0:
320,192,49830,1,0,0:0:0:0:
448,192,50002,1,0,0:0:0:0:
192,192,50002,1,0,0:0:0:0:
320,192,50173,1,0,3:0:0:0:
448,192,50345,1,0,3:0:0:0:
320,192,50516,1,4,3:0:0:0:
192,192,50516,1,4,3:0:0:0:
192,192,50688,1,0,0:0:0:0:
320,192,50688,1,0,2:0:0:0:
448,192,50688,1,0,2:0:0:0:
192,192,51030,128,4,52402:3:0:0:0:
448,192,51030,1,4,3:0:0:0:
320,192,51202,1,0,0:0:0:0:
448,192,51373,1,0,0:0:0:0:
64,192,51373,1,0,0:0:0:0:
320,192,51545,1,0,3:0:0:0:
64,192,51716,1,0,3:0:0:0:
320,192,51888,1,4,3:0:0:0:
448,192,51888,1,4,3:0:0:0:
320,192,52059,1,0,2:0:0:0:
64,192,52059,1,0,0:0:0:0:
448,192,52059,1,0,2:0:0:0:
448,192,52402,1,4,3:0:0:0:
320,192,52402,128,4,53773:3:0:0:0:
448,192,52745,1,0,0:0:0:0:
64,192,52745,1,0,0:0:0:0:
192,192,52916,1,0,0:0:0:0:
448,192,53088,1,0,0:0:0:0:
192,192,53259,1,0,0:0:0:0:
64,192,53259,1,0,0:0:0:0:
64,192,53430,1,0,0:0:0:0:
192,192,53430,1,0,2:0:0:0:
448,192,53430,1,0,0:0:0:0:
448,192,53602,128,4,53773:2:0:0:0:
192,192,53773,128,4,53945:2:0:0:0:
320,192,53945,128,4,54116:2:0:0:0:
64,192,54116,128,4,54288:2:0:0:0:
192,192,54288,128,4,54459:2:0:0:0:
320,192,54459,1,4,2:0:0:0:
192,192,54630,1,4,3:0:0:0:
448,192,54630,1,4,3:0:0:0:
64,192,54802,1,0,0:0:0:0:
192,192,54802,1,0,0:0:0:0:
320,192,54802,1,0,0:0:0:0:
320,192,55145,128,4,56516:3:0:0:0:
192,192,55145,1,0,0:0:0:0:
448,192,55145,1,0,0:0:0:0:
64,192,55316,1,0,0:0:0:0:
448,192,55488,1,0,0:0:0:0:
192,192,55488,1,0,0:0:0:0:
64,192,55659,1,0,3:0:0:0:
448,192,55830,1,0,3:0:0:0:
192,192,56002,1,4,3:0:0:0:
64,192,56002,1,4,3:0:0:0:
192,192,56173,1,0,2:0:0:0:
64,192,56173,1,0,0:0:0:0:
448,192,56173,1,0,2:0:0:0:
192,192,56516,128,4,57888:3:0:0:0:
64,192,56516,1,0,0:0:0:0:
448,192,56688,1,0,0:0:0:0:
320,192,56859,1,0,0:0:0:0:
64,192,56859,1,0,0:0:0:0:
448,192,57030,1,0,3:0:0:0:
64,192,57202,1,0,3:0:0:0:
320,192,57373,1,4,3:0:0:0:
448,192,57373,1,4,3:0:0:0:
320,192,57545,1,0,2:0:0:0:
448,192,57545,1,0,2:0:0:0:
64,192,57545,1,0,0:0:0:0:
320,192,57888,128,4,59259:3:0:0:0:
448,192,57888,1,4,3:0:0:0:
192,192,58059,1,0,0:0:0:0:
448,192,58230,1,0,0:0:0:0:
64,192,58230,1,0,0:0:0:0:
192,192,58402,1,0,3:0:0:0:
64,192,58573,1,0,3:0:0:0:
448,192,58745,1,4,3:0:0:0:
192,192,58745,1,4,3:0:0:0:
64,192,58916,1,0,0:0:0:0:
192,192,58916,1,0,2:0:0:0:
448,192,58916,1,0,2:0:0:0:
64,192,59259,1,0,0:0:0:0:
192,192,59259,1,0,2:0:0:0:
320,192,59430,1,0,0:0:0:0:
448,192,59430,1,0,2:0:0:0:
64,192,59773,128,0,59888:0:0:0:0:
320,192,59773,128,0,59888:2:0:0:0:
192,192,60116,128,0,60230:0:0:0:0:
448,192,60116,128,0,60230:2:0:0:0:
64,192,60230,1,4,0:0:0:0:
320,192,60230,1,4,2:0:0:0:
64,192,60402,1,0,0:0:0:0:
320,192,60402,1,0,2:0:0:0:
448,192,60402,1,0,2:0:0:0:
192,192,60630,1,4,2:0:0:0:
448,192,60630,1,4,3:0:0:0:
64,192,60630,1,0,0:0:0:0:
320,192,60973,1,4,3:0:0:0:
448,192,60973,1,4,3:0:0:0:
192,192,61145,1,4,3:0:0:0:
64,192,61316,1,0,0:0:0:0:
320,192,61316,1,0,0:0:0:0:
192,192,61488,1,4,3:0:0:0:
320,192,61659,1,0,0:0:0:0:
448,192,61659,1,0,0:0:0:0:
192,192,61830,1,4,3:0:0:0:
64,192,62002,1,0,0:0:0:0:
320,192,62002,1,4,3:0:0:0:
448,192,62002,1,4,2:0:0:0:
192,192,62345,1,0,2:0:0:0:
64,192,62345,1,0,0:0:0:0:
320,192,62516,1,4,3:0:0:0:
192,192,62688,1,0,0:0:0:0:
448,192,62688,1,0,0:0:0:0:
320,192,62859,1,4,3:0:0:0:
320,192,62945,1,4,3:0:0:0:
64,192,63030,1,0,0:0:0:0:
192,192,63030,1,0,0:0:0:0:
448,192,63202,1,4,3:0:0:0:
320,192,63202,1,4,3:0:0:0:
64,192,63373,1,0,0:0:0:0:
192,192,63373,1,0,0:0:0:0:
320,192,63373,1,0,2:0:0:0:
64,192,63545,1,4,3:0:0:0:
192,192,63545,1,4,3:0:0:0:
192,192,63716,1,0,0:0:0:0:
320,192,63716,1,0,0:0:0:0:
448,192,63716,1,0,0:0:0:0:
64,192,63888,1,4,3:0:0:0:
448,192,63888,1,0,0:0:0:0:
64,192,64059,1,4,3:0:0:0:
320,192,64059,1,0,0:0:0:0:
192,192,64230,1,0,0:0:0:0:
320,192,64230,1,0,0:0:0:0:
448,192,64230,1,0,2:0:0:0:
64,192,64402,1,4,3:0:0:0:
192,192,64402,1,4,2:0:0:0:
64,192,64573,1,0,0:0:0:0:
320,192,64573,1,0,0:0:0:0:
448,192,64573,1,0,0:0:0:0:
64,192,65773,1,0,0:0:0:0:
320,192,65773,1,0,2:0:0:0:
192,192,65773,1,0,0:0:0:0:
192,192,66116,1,0,0:0:0:0:
320,192,66116,1,4,3:0:0:0:
448,192,66116,1,4,3:0:0:0:
320,192,66459,1,4,3:0:0:0:
64,192,66630,1,4,3:0:0:0:
192,192,66630,1,0,0:0:0:0:
64,192,66802,1,4,3:0:0:0:
192,192,66802,1,0,0:0:0:0:
192,192,67145,1,0,0:0:0:0:
320,192,67145,1,0,0:0:0:0:
448,192,67145,1,0,2:0:0:0:
192,192,67316,1,0,3:0:0:0:
64,192,67488,1,4,3:0:0:0:
320,192,67488,1,4,3:0:0:0:
64,192,67830,1,0,3:0:0:0:
448,192,68002,1,0,0:0:0:0:
320,192,68002,1,4,3:0:0:0:
320,192,68173,1,4,3:0:0:0:
448,192,68173,1,0,0:0:0:0:
64,192,68516,1,0,0:0:0:0:
192,192,68516,1,0,0:0:0:0:
320,192,68516,1,0,2:0:0:0:
320,192,68688,1,0,3:0:0:0:
64,192,68859,1,0,0:0:0:0:
192,192,68859,1,4,3:0:0:0:
448,192,68859,1,4,3:0:0:0:
64,192,69202,1,0,3:0:0:0:
192,192,69373,1,4,3:0:0:0:
320,192,69373,1,0,0:0:0:0:
192,192,69545,1,4,3:0:0:0:
320,192,69545,1,0,0:0:0:0:
64,192,69888,1,0,0:0:0:0:
320,192,69888,1,0,0:0:0:0:
448,192,69888,1,0,2:0:0:0:
448,192,70059,1,0,3:0:0:0:
64,192,70230,1,0,0:0:0:0:
192,192,70230,1,4,3:0:0:0:
320,192,70230,1,4,3:0:0:0:
192,192,70573,1,0,3:0:0:0:
64,192,70745,1,4,3:0:0:0:
320,192,70745,1,0,0:0:0:0:
64,192,70916,1,4,3:0:0:0:
320,192,70916,1,0,0:0:0:0:
64,192,71259,1,0,0:0:0:0:
448,192,71259,1,0,2:0:0:0:
192,192,71259,1,0,0:0:0:0:
64,192,71430,1,0,3:0:0:0:
192,192,71602,1,0,0:0:0:0:
320,192,71602,1,4,3:0:0:0:
448,192,71602,1,4,3:0:0:0:
320,192,71945,1,0,3:0:0:0:
192,192,72116,1,4,3:0:0:0:
448,192,72116,1,0,0:0:0:0:
192,192,72288,1,4,3:0:0:0:
448,192,72288,1,0,0:0:0:0:
64,192,72630,1,0,0:0:0:0:
320,192,72630,1,0,0:0:0:0:
448,192,72630,1,0,2:0:0:0:
448,192,72802,1,0,3:0:0:0:
64,192,72973,1,0,0:0:0:0:
192,192,72973,1,4,3:0:0:0:
320,192,72973,1,4,3:0:0:0:
192,192,73316,1,0,3:0:0:0:
64,192,73488,1,4,3:0:0:0:
448,192,73488,1,0,0:0:0:0:
64,192,73659,1,4,3:0:0:0:
448,192,73659,1,0,0:0:0:0:
320,192,74002,1,0,0:0:0:0:
448,192,74002,1,0,2:0:0:0:
64,192,74002,1,0,0:0:0:0:
192,192,74173,1,0,3:0:0:0:
320,192,74345,1,4,3:0:0:0:
448,192,74345,1,4,3:0:0:0:
192,192,74345,1,0,0:0:0:0:
320,192,74688,1,0,3:0:0:0:
64,192,74859,1,4,3:0:0:0:
448,192,74859,1,0,0:0:0:0:
64,192,75030,1,4,3:0:0:0:
448,192,75030,1,0,0:0:0:0:
64,192,75373,1,0,0:0:0:0:
192,192,75373,1,0,0:0:0:0:
448,192,75373,1,0,2:0:0:0:
320,192,75545,1,4,3:0:0:0:
64,192,75716,1,4,3:0:0:0:
192,192,75716,1,4,3:0:0:0:
320,192,75888,1,4,3:0:0:0:
192,192,76059,1,0,0:0:0:0:
448,192,76059,1,0,0:0:0:0:
320,192,76230,1,4,3:0:0:0:
192,192,76402,1,0,0:0:0:0:
448,192,76402,1,0,0:0:0:0:
64,192,76573,1,4,3:0:0:0:
320,192,76745,1,0,0:0:0:0:
448,192,76745,1,0,2:0:0:0:
192,192,76745,1,0,0:0:0:0:
320,192,76916,1,0,0:0:0:0:
64,192,76916,1,0,0:0:0:0:
448,192,76916,1,0,2:0:0:0:
192,192,77088,5,4,3:0:0:0:
64,192,77088,1,0,0:0:0:0:
448,192,77259,1,0,0:0:0:0:
448,192,77430,1,0,2:0:0:0:
320,192,77430,1,0,0:0:0:0:
192,192,77430,1,0,0:0:0:0:
320,192,77602,1,0,3:0:0:0:
64,192,77773,1,0,3:0:0:0:
448,192,77945,1,4,3:0:0:0:
192,192,77945,1,4,3:0:0:0:
64,192,78116,1,0,0:0:0:0:
192,192,78116,1,0,0:0:0:0:
320,192,78116,1,0,2:0:0:0:
320,192,78459,1,4,3:0:0:0:
448,192,78459,1,4,3:0:0:0:
448,192,78630,1,0,0:0:0:0:
64,192,78802,1,0,0:0:0:0:
192,192,78802,1,0,0:0:0:0:
320,192,78802,1,0,2:0:0:0:
192,192,78973,1,0,3:0:0:0:
448,192,79145,1,0,3:0:0:0:
64,192,79316,1,4,3:0:0:0:
320,192,79316,1,4,3:0:0:0:
192,192,79488,1,0,0:0:0:0:
320,192,79488,1,0,0:0:0:0:
448,192,79488,1,0,2:0:0:0:
192,192,79830,1,4,3:0:0:0:
320,192,79830,1,4,3:0:0:0:
448,192,80002,1,0,0:0:0:0:
320,192,80173,1,0,2:0:0:0:
192,192,80173,1,0,0:0:0:0:
64,192,80173,1,0,0:0:0:0:
320,192,80345,1,0,3:0:0:0:
64,192,80516,1,0,3:0:0:0:
320,192,80688,1,4,3:0:0:0:
448,192,80688,1,4,3:0:0:0:
448,192,80859,1,0,2:0:0:0:
320,192,80859,1,0,0:0:0:0:
192,192,80859,1,0,0:0:0:0:
64,192,81030,1,0,3:0:0:0:
192,192,81202,1,4,3:0:0:0:
448,192,81202,1,4,3:0:0:0:
192,192,81373,1,0,0:0:0:0:
64,192,81545,1,0,0:0:0:0:
320,192,81545,1,0,0:0:0:0:
448,192,81545,1,0,2:0:0:0:
448,192,81716,1,0,3:0:0:0:
320,192,81888,1,0,3:0:0:0:
64,192,82059,1,4,3:0:0:0:
192,192,82059,1,4,3:0:0:0:
192,192,82230,1,0,0:0:0:0:
320,192,82230,1,0,0:0:0:0:
448,192,82230,1,0,2:0:0:0:
64,192,82573,1,0,0:0:0:0:
320,192,82573,1,0,2:0:0:0:
192,192,82573,1,4,3:0:0:0:
64,192,82916,1,0,0:0:0:0:
320,192,82916,1,0,2:0:0:0:
192,192,82916,1,4,3:0:0:0:
192,192,83259,1,0,0:0:0:0:
320,192,83259,1,4,3:0:0:0:
448,192,83259,1,0,2:0:0:0:
192,192,83602,1,0,0:0:0:0:
320,192,83602,1,4,3:0:0:0:
448,192,83602,1,0,2:0:0:0:
64,192,83945,1,0,0:0:0:0:
320,192,83945,1,4,3:0:0:0:
448,192,83945,1,0,2:0:0:0:
64,192,84288,1,0,0:0:0:0:
320,192,84288,1,4,3:0:0:0:
448,192,84288,1,0,2:0:0:0:
64,192,84630,1,0,0:0:0:0:
448,192,84630,1,0,2:0:0:0:
192,192,84630,1,4,3:0:0:0:
64,192,84973,1,0,0:0:0:0:
192,192,84973,1,4,3:0:0:0:
448,192,84973,1,0,2:0:0:0:
64,192,85316,1,4,3:0:0:0:
192,192,85316,1,0,2:0:0:0:
320,192,85488,1,4,3:0:0:0:
448,192,85488,1,0,2:0:0:0:
64,192,85659,1,4,3:0:0:0:
192,192,85659,1,0,2:0:0:0:
320,192,85830,1,4,3:0:0:0:
448,192,85830,1,0,2:0:0:0:
64,192,86002,1,0,0:0:0:0:
320,192,86002,1,0,2:0:0:0:
192,192,86173,1,0,0:0:0:0:
448,192,86173,1,0,2:0:0:0:
64,192,86345,1,0,0:0:0:0:
320,192,86345,1,0,2:0:0:0:
192,192,86516,1,0,0:0:0:0:
448,192,86516,1,0,2:0:0:0:
64,192,86688,1,0,0:0:0:0:
192,192,86688,1,4,3:0:0:0:
448,192,86773,1,0,0:0:0:0:
320,192,86773,1,4,3:0:0:0:
64,192,86859,1,0,0:0:0:0:
192,192,86859,1,4,3:0:0:0:
448,192,86945,1,0,0:0:0:0:
320,192,86945,1,4,3:0:0:0:
64,192,87030,1,0,0:0:0:0:
192,192,87030,1,4,3:0:0:0:
320,192,87116,1,4,3:0:0:0:
64,192,87202,1,0,0:0:0:0:
448,192,87202,1,4,3:0:0:0:
192,192,87288,1,0,0:0:0:0:
320,192,87288,1,4,3:0:0:0:
64,192,87373,1,0,0:0:0:0:
448,192,87373,1,4,3:0:0:0:
320,192,87459,1,4,3:0:0:0:
192,192,87459,1,0,0:0:0:0:
448,192,87545,1,4,3:0:0:0:
64,192,87545,1,0,0:0:0:0:
192,192,87630,1,0,0:0:0:0:
320,192,87630,1,4,3:0:0:0:
448,192,87716,1,4,3:0:0:0:
64,192,87716,1,0,0:0:0:0:
320,192,87802,1,4,3:0:0:0:
192,192,87802,1,0,0:0:0:0:
64,192,87888,1,0,0:0:0:0:
448,192,87888,1,4,3:0:0:0:
192,192,87973,1,0,0:0:0:0:
320,192,87973,1,4,3:0:0:0:
64,192,89430,128,4,90802:3:0:0:0:
192,192,89430,1,0,0:0:0:0:
320,192,89430,1,0,0:0:0:0:
448,192,89602,1,0,0:0:0:0:
192,192,89773,1,0,0:0:0:0:
448,192,89773,1,0,2:0:0:0:
320,192,89945,1,0,3:0:0:0:
192,192,90116,1,0,3:0:0:0:
448,192,90288,1,4,3:0:0:0:
320,192,90288,1,4,3:0:0:0:
192,192,90459,1,0,0:0:0:0:
448,192,90459,1,0,2:0:0:0:
320,192,90459,1,0,0:0:0:0:
448,192,90802,1,4,3:0:0:0:
192,192,90802,128,4,92173:3:0:0:0:
320,192,90973,1,0,0:0:0:0:
64,192,91145,1,0,0:0:0:0:
448,192,91145,1,0,2:0:0:0:
320,192,91316,1,0,3:0:0:0:
448,192,91488,1,0,3:0:0:0:
64,192,91659,1,4,3:0:0:0:
320,192,91659,1,4,3:0:0:0:
448,192,91830,1,0,2:0:0:0:
320,192,91830,1,0,0:0:0:0:
64,192,91830,1,0,0:0:0:0:
448,192,92173,1,4,3:0:0:0:
320,192,92173,128,4,93545:3:0:0:0:
192,192,92345,1,0,0:0:0:0:
448,192,92516,1,0,2:0:0:0:
64,192,92516,1,0,0:0:0:0:
192,192,92688,1,0,3:0:0:0:
64,192,92859,1,0,3:0:0:0:
448,192,93030,1,4,3:0:0:0:
192,192,93030,1,4,3:0:0:0:
192,192,93202,1,0,0:0:0:0:
64,192,93202,1,0,0:0:0:0:
448,192,93202,1,0,2:0:0:0:
448,192,93545,128,4,94916:3:0:0:0:
64,192,93545,1,0,0:0:0:0:
192,192,93716,1,0,0:0:0:0:
320,192,93888,1,0,2:0:0:0:
64,192,93888,1,0,0:0:0:0:
192,192,94059,1,0,3:0:0:0:
320,192,94230,1,0,3:0:0:0:
64,192,94402,1,4,3:0:0:0:
192,192,94402,1,4,3:0:0:0:
320,192,94573,1,0,2:0:0:0:
192,192,94573,1,0,0:0:0:0:
64,192,94573,1,0,0:0:0:0:
64,192,94916,128,4,96288:3:0:0:0:
192,192,94916,1,0,0:0:0:0:
320,192,95088,1,0,0:0:0:0:
192,192,95259,1,0,0:0:0:0:
448,192,95259,1,0,2:0:0:0:
320,192,95430,1,0,3:0:0:0:
448,192,95602,1,0,3:0:0:0:
192,192,95773,1,4,3:0:0:0:
320,192,95773,1,4,3:0:0:0:
192,192,95945,1,0,0:0:0:0:
448,192,95945,1,0,2:0:0:0:
320,192,95945,1,0,0:0:0:0:
448,192,96288,1,4,3:0:0:0:
192,192,96288,128,4,97659:3:0:0:0:
320,192,96459,1,0,0:0:0:0:
64,192,96630,1,0,0:0:0:0:
448,192,96630,1,0,2:0:0:0:
320,192,96802,1,0,3:0:0:0:
448,192,96973,1,0,3:0:0:0:
64,192,97145,1,4,3:0:0:0:
320,192,97145,1,4,3:0:0:0:
448,192,97316,1,0,2:0:0:0:
320,192,97316,1,0,0:0:0:0:
64,192,97316,1,0,0:0:0:0:
448,192,97659,1,4,3:0:0:0:
320,192,97659,128,4,99030:3:0:0:0:
192,192,97830,1,0,0:0:0:0:
448,192,98002,1,0,2:0:0:0:
64,192,98002,1,0,0:0:0:0:
192,192,98173,1,0,3:0:0:0:
64,192,98345,1,0,3:0:0:0:
448,192,98516,1,4,3:0:0:0:
192,192,98516,1,4,3:0:0:0:
192,192,98688,1,0,0:0:0:0:
64,192,98688,1,0,0:0:0:0:
448,192,98688,1,0,2:0:0:0:
448,192,99030,128,4,100402:3:0:0:0:
64,192,99030,1,0,0:0:0:0:
192,192,99202,1,0,0:0:0:0:
320,192,99373,1,0,2:0:0:0:
64,192,99373,1,0,0:0:0:0:
192,192,99545,1,0,3:0:0:0:
64,192,99716,1,0,3:0:0:0:
192,192,99888,1,4,3:0:0:0:
320,192,99888,1,4,3:0:0:0:
320,192,100059,1,0,2:0:0:0:
192,192,100059,1,0,0:0:0:0:
64,192,100059,1,0,0:0:0:0:
64,192,100402,128,4,101773:3:0:0:0:
192,192,100402,1,0,0:0:0:0:
320,192,100573,1,0,0:0:0:0:
448,192,100745,1,0,2:0:0:0:
192,192,100745,1,0,0:0:0:0:
320,192,100916,1,0,3:0:0:0:
448,192,101088,1,0,3:0:0:0:
320,192,101259,1,4,3:0:0:0:
192,192,101259,1,4,3:0:0:0:
192,192,101430,1,0,0:0:0:0:
448,192,101430,1,0,2:0:0:0:
320,192,101430,1,0,0:0:0:0:
192,192,101773,128,4,103145:3:0:0:0:
448,192,101773,1,4,3:0:0:0:
320,192,101945,1,0,0:0:0:0:
448,192,102116,1,0,2:0:0:0:
64,192,102116,1,0,0:0:0:0:
320,192,102288,1,0,3:0:0:0:
448,192,102459,1,0,3:0:0:0:
64,192,102630,1,4,3:0:0:0:
320,192,102630,1,4,3:0:0:0:
320,192,102802,1,0,0:0:0:0:
448,192,102802,1,0,2:0:0:0:
64,192,102802,1,0,0:0:0:0:
320,192,103145,128,4,104516:3:0:0:0:
448,192,103145,1,4,3:0:0:0:
192,192,103316,1,0,0:0:0:0:
64,192,103488,1,0,0:0:0:0:
448,192,103488,1,0,2:0:0:0:
192,192,103659,1,0,3:0:0:0:
64,192,103830,1,0,3:0:0:0:
448,192,104002,1,4,3:0:0:0:
192,192,104002,1,4,3:0:0:0:
192,192,104173,1,0,0:0:0:0:
448,192,104173,1,0,2:0:0:0:
64,192,104173,1,0,0:0:0:0:
448,192,104516,128,4,105888:3:0:0:0:
192,192,104516,1,4,3:0:0:0:
64,192,104688,1,0,0:0:0:0:
320,192,104859,1,0,0:0:0:0:
192,192,104859,1,0,0:0:0:0:
192,192,105030,1,0,3:0:0:0:
64,192,105202,1,0,3:0:0:0:
192,192,105373,1,4,3:0:0:0:
320,192,105373,1,4,3:0:0:0:
192,192,105545,1,0,0:0:0:0:
320,192,105545,1,0,0:0:0:0:
64,192,105545,1,0,0:0:0:0:
64,192,105888,1,4,3:0:0:0:
192,192,105888,1,4,3:0:0:0:
320,192,106059,1,0,3:0:0:0:
64,192,106230,1,4,3:0:0:0:
192,192,106230,1,0,3:0:0:0:
320,192,106402,1,0,3:0:0:0:
64,192,106573,1,4,3:0:0:0:
192,192,106573,1,0,3:0:0:0:
320,192,106745,1,0,3:0:0:0:
64,192,106916,1,4,3:0:0:0:
192,192,106916,1,0,3:0:0:0:
320,192,107088,1,0,3:0:0:0:
64,192,107259,1,4,3:0:0:0:
320,192,107259,1,4,3:0:0:0:
448,192,107259,1,4,3:0:0:0:
192,192,107430,1,0,3:0:0:0:
448,192,107602,1,0,3:0:0:0:
320,192,107602,1,4,3:0:0:0:
192,192,107773,1,0,3:0:0:0:
320,192,107945,1,4,3:0:0:0:
448,192,107945,1,0,3:0:0:0:
192,192,108116,1,0,3:0:0:0:
320,192,108288,1,4,3:0:0:0:
448,192,108288,1,0,3:0:0:0:
192,192,108459,1,0,3:0:0:0:
64,192,108630,1,4,3:0:0:0:
320,192,108630,1,4,3:0:0:0:
448,192,108630,1,4,3:0:0:0:
64,192,108802,1,0,0:0:0:0:
320,192,108802,1,4,3:0:0:0:
192,192,108973,1,0,0:0:0:0:
448,192,108973,1,4,3:0:0:0:
64,192,109145,1,0,0:0:0:0:
320,192,109145,1,4,3:0:0:0:
192,192,109316,1,0,0:0:0:0:
448,192,109316,1,4,3:0:0:0:
64,192,109316,1,0,0:0:0:0:
64,192,109488,1,0,0:0:0:0:
320,192,109488,1,4,3:0:0:0:
192,192,109659,1,0,0:0:0:0:
448,192,109659,1,4,3:0:0:0:
64,192,109830,1,0,0:0:0:0:
320,192,109830,1,0,2:0:0:0:
448,192,109830,1,4,3:0:0:0:
320,192,110173,1,0,3:0:0:0:
448,192,110173,1,0,2:0:0:0:
64,192,110345,1,0,0:0:0:0:
192,192,110345,1,0,2:0:0:0:
320,192,110516,1,0,0:0:0:0:
448,192,110516,1,0,2:0:0:0:
64,192,110688,1,0,0:0:0:0:
192,192,110688,1,4,3:0:0:0:
448,192,110773,1,0,0:0:0:0:
320,192,110773,1,4,3:0:0:0:
192,192,110859,1,4,3:0:0:0:
64,192,110859,1,0,0:0:0:0:
448,192,110945,1,0,0:0:0:0:
320,192,110945,1,4,3:0:0:0:
192,192,111030,1,0,0:0:0:0:
320,192,111030,1,0,0:0:0:0:
64,192,111030,1,0,0:0:0:0:
64,192,111373,128,4,111888:2:0:0:0:
320,192,111373,1,0,0:0:0:0:
192,192,111545,1,0,0:0:0:0:
320,192,111716,1,0,0:0:0:0:
448,192,111716,1,0,0:0:0:0:
192,192,111888,128,4,112402:2:0:0:0:
320,192,111888,1,0,0:0:0:0:
448,192,112059,1,0,0:0:0:0:
320,192,112230,1,0,0:0:0:0:
320,192,112402,128,4,112745:2:0:0:0:
64,192,112402,1,0,0:0:0:0:
448,192,112402,1,0,0:0:0:0:
192,192,112573,1,0,0:0:0:0:
448,192,112745,128,4,113430:2:0:0:0:
64,192,112745,1,0,0:0:0:0:
192,192,112916,1,0,0:0:0:0:
64,192,113088,1,0,0:0:0:0:
320,192,113088,1,0,0:0:0:0:
192,192,113259,1,0,0:0:0:0:
64,192,113430,128,4,114116:2:0:0:0:
320,192,113430,1,0,0:0:0:0:
192,192,113602,1,0,0:0:0:0:
320,192,113773,1,0,0:0:0:0:
448,192,113773,1,0,0:0:0:0:
192,192,113945,1,0,0:0:0:0:
448,192,114116,128,4,114973:2:0:0:0:
320,192,114116,1,0,0:0:0:0:
64,192,114288,1,0,0:0:0:0:
192,192,114459,1,0,0:0:0:0:
320,192,114459,1,0,0:0:0:0:
64,192,114630,1,0,0:0:0:0:
192,192,114802,1,0,0:0:0:0:
192,192,114973,128,4,115316:2:0:0:0:
64,192,114973,1,0,0:0:0:0:
320,192,115145,1,0,0:0:0:0:
448,192,115145,1,0,0:0:0:0:
64,192,115316,128,4,115488:2:0:0:0:
320,192,115488,128,4,115945:2:0:0:0:
448,192,115488,1,4,2:0:0:0:
192,192,115659,1,0,0:0:0:0:
64,192,115830,1,0,0:0:0:0:
448,192,115830,1,0,0:0:0:0:
192,192,116002,1,4,2:0:0:0:
448,192,116088,128,4,116602:2:0:0:0:
320,192,116173,1,0,0:0:0:0:
64,192,116345,1,0,0:0:0:0:
192,192,116516,1,0,0:0:0:0:
320,192,116516,1,0,0:0:0:0:
64,192,116602,128,4,118830:2:0:0:0:
320,192,116688,1,0,0:0:0:0:
448,192,116859,1,0,0:0:0:0:
192,192,117030,1,0,0:0:0:0:
320,192,117202,1,0,0:0:0:0:
448,192,117202,1,0,0:0:0:0:
192,192,117373,1,0,0:0:0:0:
448,192,117545,1,0,0:0:0:0:
320,192,117716,1,0,0:0:0:0:
192,192,117888,1,0,0:0:0:0:
448,192,117888,1,0,0:0:0:0:
320,192,118059,1,0,0:0:0:0:
192,192,118230,1,0,0:0:0:0:
448,192,118402,1,0,0:0:0:0:
192,192,118573,1,0,0:0:0:0:
320,192,118573,1,0,0:0:0:0:
320,192,118745,1,0,0:0:0:0:
448,192,118830,128,4,119259:2:0:0:0:
192,192,118916,1,0,0:0:0:0:
320,192,119088,1,0,0:0:0:0:
64,192,119259,128,4,120745:2:0:0:0:
192,192,119259,1,0,0:0:0:0:
320,192,119259,1,0,0:0:0:0:
448,192,119430,1,0,0:0:0:0:
192,192,119602,1,0,0:0:0:0:
320,192,119773,1,0,0:0:0:0:
192,192,119945,1,0,0:0:0:0:
448,192,119945,1,0,0:0:0:0:
320,192,120116,1,0,0:0:0:0:
192,192,120288,1,0,0:0:0:0:
448,192,120459,1,0,0:0:0:0:
192,192,120630,1,0,0:0:0:0:
320,192,120630,1,0,0:0:0:0:
320,192,120802,1,0,0:0:0:0:
64,192,120973,128,4,122345:2:0:0:0:
448,192,120973,1,0,0:0:0:0:
192,192,121145,1,0,0:0:0:0:
320,192,121316,1,0,0:0:0:0:
448,192,121316,1,0,0:0:0:0:
192,192,121488,1,0,0:0:0:0:
448,192,121659,1,0,0:0:0:0:
320,192,121830,1,0,0:0:0:0:
192,192,122002,1,0,0:0:0:0:
448,192,122002,1,0,0:0:0:0:
448,192,122345,128,4,122859:2:0:0:0:
320,192,122345,1,4,2:0:0:0:
192,192,122345,1,4,2:0:0:0:
320,192,122859,128,4,123373:2:0:0:0:
192,192,122859,1,4,2:0:0:0:
64,192,122859,1,4,2:0:0:0:
192,192,123373,128,4,124402:2:0:0:0:
64,192,123373,1,4,2:0:0:0:
320,192,124402,128,4,125088:2:0:0:0:
448,192,124402,128,4,125088:2:0:0:0:
64,192,124402,1,4,2:0:0:0:
64,192,125088,128,4,125945:2:0:0:0:
192,192,125088,1,4,2:0:0:0:
192,192,125945,128,4,126230:2:0:0:0:
320,192,125945,128,4,126230:2:0:0:0:
448,192,125945,128,4,126230:2:0:0:0:
64,192,126288,1,4,2:0:0:0:
192,192,126345,128,4,126973:2:0:0:0:
320,192,126345,1,4,2:0:0:0:
320,192,126973,128,4,127830:2:0:0:0:
448,192,126973,128,4,127830:2:0:0:0:
64,192,127830,1,4,3:0:0:0:
192,192,127830,1,4,3:0:0:0:
320,192,128002,1,0,3:0:0:0:
64,192,128173,1,4,3:0:0:0:
192,192,128173,1,4,3:0:0:0:
320,192,128345,1,0,3:0:0:0:
64,192,128516,1,4,3:0:0:0:
192,192,128516,1,4,3:0:0:0:
320,192,128688,1,0,3:0:0:0:
64,192,128859,1,4,3:0:0:0:
192,192,128859,1,4,3:0:0:0:
320,192,129030,1,0,3:0:0:0:
64,192,129202,1,0,0:0:0:0:
320,192,129202,1,0,3:0:0:0:
448,192,129202,1,4,3:0:0:0:
192,192,129373,1,0,3:0:0:0:
448,192,129545,1,0,3:0:0:0:
320,192,129545,1,4,3:0:0:0:
192,192,129716,1,0,3:0:0:0:
320,192,129888,1,4,3:0:0:0:
448,192,129888,1,0,3:0:0:0:
192,192,130059,1,0,3:0:0:0:
320,192,130230,1,4,3:0:0:0:
448,192,130230,1,0,3:0:0:0:
192,192,130402,1,0,3:0:0:0:
64,192,130573,1,4,3:0:0:0:
320,192,130573,1,4,3:0:0:0:
448,192,130573,1,0,3:0:0:0:
64,192,130745,1,0,0:0:0:0:
320,192,130745,1,4,3:0:0:0:
192,192,130916,1,0,0:0:0:0:
448,192,130916,1,4,3:0:0:0:
64,192,131088,1,0,0:0:0:0:
320,192,131088,1,4,3:0:0:0:
192,192,131259,1,0,0:0:0:0:
448,192,131259,1,4,3:0:0:0:
320,192,131259,1,0,0:0:0:0:
64,192,131430,1,0,0:0:0:0:
320,192,131430,1,4,3:0:0:0:
192,192,131602,1,0,0:0:0:0:
448,192,131602,1,4,3:0:0:0:
64,192,131773,1,0,0:0:0:0:
320,192,131773,1,0,2:0:0:0:
448,192,131773,1,0,3:0:0:0:
320,192,132116,1,0,2:0:0:0:
448,192,132116,1,0,3:0:0:0:
64,192,132288,1,0,0:0:0:0:
192,192,132288,1,4,3:0:0:0:
320,192,132459,1,4,3:0:0:0:
192,192,132459,1,0,0:0:0:0:
64,192,132630,1,0,0:0:0:0:
192,192,132630,1,4,3:0:0:0:
448,192,132716,1,0,0:0:0:0:
320,192,132716,1,4,3:0:0:0:
192,192,132802,1,4,3:0:0:0:
64,192,132802,1,0,0:0:0:0:
448,192,132888,1,0,0:0:0:0:
320,192,132888,1,4,3:0:0:0:
192,192,132973,1,0,0:0:0:0:
320,192,132973,1,0,0:0:0:0:
64,192,132973,1,0,2:0:0:0:
64,192,133316,128,4,134688:3:0:0:0:
192,192,133316,1,0,0:0:0:0:
320,192,133316,1,0,0:0:0:0:
448,192,133488,1,0,0:0:0:0:
320,192,133659,1,0,2:0:0:0:
192,192,133659,1,0,0:0:0:0:
320,192,133830,1,0,3:0:0:0:
448,192,134002,1,0,3:0:0:0:
192,192,134173,1,4,3:0:0:0:
320,192,134173,1,4,3:0:0:0:
192,192,134345,1,0,0:0:0:0:
320,192,134345,1,0,0:0:0:0:
448,192,134345,1,0,2:0:0:0:
192,192,134688,128,4,136059:3:0:0:0:
448,192,134688,1,4,3:0:0:0:
320,192,134859,1,0,0:0:0:0:
448,192,135030,1,0,2:0:0:0:
64,192,135030,1,0,0:0:0:0:
320,192,135202,1,0,3:0:0:0:
448,192,135373,1,0,3:0:0:0:
64,192,135545,1,4,3:0:0:0:
320,192,135545,1,4,3:0:0:0:
320,192,135716,1,0,0:0:0:0:
448,192,135716,1,0,2:0:0:0:
64,192,135716,1,0,0:0:0:0:
320,192,136059,128,4,137430:3:0:0:0:
448,192,136059,1,4,3:0:0:0:
192,192,136230,1,0,0:0:0:0:
64,192,136402,1,0,0:0:0:0:
448,192,136402,1,0,2:0:0:0:
192,192,136573,1,0,3:0:0:0:
64,192,136745,1,0,3:0:0:0:
448,192,136916,1,4,3:0:0:0:
192,192,136916,1,4,3:0:0:0:
64,192,137088,1,0,0:0:0:0:
192,192,137088,1,0,0:0:0:0:
448,192,137088,1,0,2:0:0:0:
448,192,137430,128,4,138802:3:0:0:0:
192,192,137430,1,4,3:0:0:0:
64,192,137602,1,0,0:0:0:0:
64,192,137773,1,0,0:0:0:0:
320,192,137773,1,0,2:0:0:0:
192,192,137945,1,0,3:0:0:0:
64,192,138116,1,0,3:0:0:0:
192,192,138288,1,4,3:0:0:0:
320,192,138288,1,4,3:0:0:0:
192,192,138459,1,0,0:0:0:0:
320,192,138459,1,0,2:0:0:0:
64,192,138459,1,0,0:0:0:0:
64,192,138802,128,4,140173:3:0:0:0:
192,192,138802,1,0,0:0:0:0:
320,192,138973,1,0,0:0:0:0:
448,192,139145,1,0,2:0:0:0:
192,192,139145,1,0,0:0:0:0:
320,192,139316,1,0,3:0:0:0:
192,192,139488,1,0,3:0:0:0:
448,192,139659,1,4,3:0:0:0:
320,192,139659,1,4,3:0:0:0:
192,192,139830,1,0,0:0:0:0:
320,192,139830,1,0,0:0:0:0:
448,192,139830,1,0,2:0:0:0:
192,192,140173,128,4,141545:3:0:0:0:
448,192,140173,1,4,3:0:0:0:
320,192,140345,1,0,0:0:0:0:
448,192,140516,1,0,2:0:0:0:
64,192,140516,1,0,0:0:0:0:
320,192,140688,1,0,3:0:0:0:
64,192,140859,1,0,3:0:0:0:
320,192,141030,1,4,3:0:0:0:
448,192,141030,1,4,3:0:0:0:
320,192,141202,1,0,0:0:0:0:
448,192,141202,1,0,2:0:0:0:
64,192,141202,1,0,0:0:0:0:
320,192,141545,128,4,142916:3:0:0:0:
448,192,141545,1,4,3:0:0:0:
192,192,141716,1,0,0:0:0:0:
64,192,141888,1,0,0:0:0:0:
448,192,141888,1,0,2:0:0:0:
192,192,142059,1,0,3:0:0:0:
448,192,142230,1,0,3:0:0:0:
192,192,142402,1,4,3:0:0:0:
64,192,142402,1,4,3:0:0:0:
64,192,142573,1,0,0:0:0:0:
192,192,142573,1,0,0:0:0:0:
448,192,142573,1,0,2:0:0:0:
448,192,142745,128,4,142916:2:0:0:0:
192,192,142916,128,4,143088:2:0:0:0:
320,192,143088,128,4,143259:2:0:0:0:
64,192,143259,128,4,143430:2:0:0:0:
192,192,143430,128,4,143602:2:0:0:0:
320,192,143602,1,4,2:0:0:0:
192,192,143773,1,4,3:0:0:0:
448,192,143773,1,4,3:0:0:0:
64,192,143945,1,0,2:0:0:0:
192,192,143945,1,0,3:0:0:0:
320,192,143945,1,4,2:0:0:0:
320,192,144288,128,4,145659:3:0:0:0:
448,192,144288,1,0,0:0:0:0:
64,192,144459,1,0,0:0:0:0:
448,192,144630,1,0,2:0:0:0:
192,192,144630,1,0,0:0:0:0:
192,192,144802,1,0,3:0:0:0:
64,192,144973,1,0,3:0:0:0:
448,192,145145,1,4,3:0:0:0:
192,192,145145,1,4,3:0:0:0:
192,192,145316,1,0,0:0:0:0:
64,192,145316,1,0,0:0:0:0:
448,192,145316,1,0,2:0:0:0:
192,192,145659,128,4,147030:3:0:0:0:
448,192,145659,1,4,3:0:0:0:
64,192,145830,1,0,0:0:0:0:
320,192,146002,1,0,2:0:0:0:
64,192,146002,1,0,0:0:0:0:
320,192,146173,1,0,3:0:0:0:
448,192,146345,1,0,3:0:0:0:
64,192,146516,1,4,3:0:0:0:
320,192,146516,1,4,3:0:0:0:
320,192,146688,1,0,0:0:0:0:
448,192,146688,1,0,2:0:0:0:
64,192,146688,1,0,0:0:0:0:
320,192,147030,128,4,148402:3:0:0:0:
448,192,147030,1,4,3:0:0:0:
192,192,147202,1,0,0:0:0:0:
64,192,147373,1,0,0:0:0:0:
448,192,147373,1,0,2:0:0:0:
192,192,147545,1,0,3:0:0:0:
448,192,147716,1,0,3:0:0:0:
192,192,147888,1,4,3:0:0:0:
64,192,147888,1,4,3:0:0:0:
64,192,148059,1,0,0:0:0:0:
192,192,148059,1,0,0:0:0:0:
448,192,148059,1,0,2:0:0:0:
64,192,148402,1,0,3:0:0:0:
192,192,148402,1,4,3:0:0:0:
320,192,148573,1,0,3:0:0:0:
448,192,148573,1,4,3:0:0:0:
64,192,148916,128,0,149030:0:0:0:0:
320,192,148916,128,0,149030:2:0:0:0:
192,192,149259,128,0,149373:0:0:0:0:
448,192,149259,128,0,149373:2:0:0:0:
64,192,149373,1,0,0:0:0:0:
320,192,149373,1,0,2:0:0:0:
64,192,149545,1,0,0:0:0:0:
320,192,149545,1,0,3:0:0:0:
448,192,149545,1,0,2:0:0:0:
192,192,149773,1,0,3:0:0:0:
448,192,149773,1,0,2:0:0:0:
64,192,149773,1,0,0:0:0:0:
192,192,149945,1,4,3:0:0:0:
320,192,150116,1,0,0:0:0:0:
448,192,150116,1,0,3:0:0:0:
192,192,150288,1,4,3:0:0:0:
64,192,150459,1,0,0:0:0:0:
320,192,150459,1,0,3:0:0:0:
192,192,150630,1,4,3:0:0:0:
320,192,150802,1,0,0:0:0:0:
448,192,150802,1,0,3:0:0:0:
192,192,150973,1,4,3:0:0:0:
64,192,151145,1,0,0:0:0:0:
320,192,151145,1,0,0:0:0:0:
448,192,151145,1,0,2:0:0:0:
192,192,151488,1,0,3:0:0:0:
64,192,151488,1,0,0:0:0:0:
320,192,151659,1,4,3:0:0:0:
192,192,151830,1,0,0:0:0:0:
448,192,151830,1,0,3:0:0:0:
320,192,152002,1,4,3:0:0:0:
320,192,152088,1,4,3:0:0:0:
64,192,152173,1,0,0:0:0:0:
192,192,152173,1,0,2:0:0:0:
448,192,152345,1,4,3:0:0:0:
320,192,152345,1,4,3:0:0:0:
64,192,152516,1,0,0:0:0:0:
192,192,152516,1,0,0:0:0:0:
320,192,152516,1,0,2:0:0:0:
448,192,152688,1,4,3:0:0:0:
64,192,152688,1,4,3:0:0:0:
192,192,152859,1,0,0:0:0:0:
320,192,152859,1,0,0:0:0:0:
448,192,152859,1,0,2:0:0:0:
64,192,153030,1,4,3:0:0:0:
448,192,153030,1,0,3:0:0:0:
64,192,153202,1,4,3:0:0:0:
320,192,153202,1,0,3:0:0:0:
192,192,153373,1,0,0:0:0:0:
320,192,153373,1,0,0:0:0:0:
448,192,153373,1,0,2:0:0:0:
64,192,153545,1,4,3:0:0:0:
192,192,153545,1,0,3:0:0:0:
64,192,153716,1,0,0:0:0:0:
320,192,153716,1,0,0:0:0:0:
448,192,153716,1,0,2:0:0:0:
64,192,154916,1,0,0:0:0:0:
320,192,154916,1,0,2:0:0:0:
192,192,154916,1,4,3:0:0:0:
192,192,155259,1,0,0:0:0:0:
320,192,155259,1,0,3:0:0:0:
448,192,155259,1,0,2:0:0:0:
320,192,155602,1,0,3:0:0:0:
64,192,155773,1,4,3:0:0:0:
192,192,155773,1,0,0:0:0:0:
64,192,155945,1,4,3:0:0:0:
192,192,155945,1,0,0:0:0:0:
192,192,156288,1,0,0:0:0:0:
320,192,156288,1,0,0:0:0:0:
448,192,156288,1,0,2:0:0:0:
192,192,156459,1,0,3:0:0:0:
320,192,156630,1,0,0:0:0:0:
64,192,156630,1,0,0:0:0:0:
64,192,156973,1,0,2:0:0:0:
320,192,157145,1,4,3:0:0:0:
448,192,157145,1,0,0:0:0:0:
320,192,157316,1,4,3:0:0:0:
448,192,157316,1,0,0:0:0:0:
64,192,157659,1,0,0:0:0:0:
192,192,157659,1,0,0:0:0:0:
320,192,157659,1,0,2:0:0:0:
320,192,157830,1,0,3:0:0:0:
192,192,158002,1,0,0:0:0:0:
448,192,158002,1,0,3:0:0:0:
64,192,158345,1,0,2:0:0:0:
192,192,158516,1,4,3:0:0:0:
320,192,158516,1,0,0:0:0:0:
192,192,158688,1,4,3:0:0:0:
320,192,158688,1,0,0:0:0:0:
64,192,159030,1,0,0:0:0:0:
320,192,159030,1,0,0:0:0:0:
448,192,159030,1,0,2:0:0:0:
448,192,159202,1,0,3:0:0:0:
192,192,159373,1,0,0:0:0:0:
320,192,159373,1,0,3:0:0:0:
192,192,159716,1,0,2:0:0:0:
64,192,159888,1,4,3:0:0:0:
320,192,159888,1,0,0:0:0:0:
64,192,160059,1,4,3:0:0:0:
320,192,160059,1,0,0:0:0:0:
64,192,160402,1,0,0:0:0:0:
448,192,160402,1,0,2:0:0:0:
192,192,160402,1,0,0:0:0:0:
64,192,160573,1,0,3:0:0:0:
320,192,160745,1,0,0:0:0:0:
448,192,160745,1,0,3:0:0:0:
320,192,161088,1,0,2:0:0:0:
192,192,161259,1,4,3:0:0:0:
448,192,161259,1,0,0:0:0:0:
192,192,161430,1,4,3:0:0:0:
448,192,161430,1,0,0:0:0:0:
320,192,161602,1,0,2:0:0:0:
64,192,161773,1,0,0:0:0:0:
320,192,161773,1,0,0:0:0:0:
448,192,161773,1,0,2:0:0:0:
448,192,161945,1,0,3:0:0:0:
64,192,162116,1,4,3:0:0:0:
192,192,162116,1,0,0:0:0:0:
192,192,162459,1,0,2:0:0:0:
64,192,162630,1,4,3:0:0:0:
448,192,162630,1,0,0:0:0:0:
64,192,162802,1,4,3:0:0:0:
448,192,162802,1,0,0:0:0:0:
320,192,163145,1,0,0:0:0:0:
448,192,163145,1,0,2:0:0:0:
64,192,163145,1,0,0:0:0:0:
192,192,163316,1,0,3:0:0:0:
320,192,163488,1,0,0:0:0:0:
448,192,163488,1,0,3:0:0:0:
320,192,163830,1,0,2:0:0:0:
64,192,164002,1,4,3:0:0:0:
448,192,164002,1,0,0:0:0:0:
64,192,164173,1,4,3:0:0:0:
448,192,164173,1,0,0:0:0:0:
64,192,164516,1,0,0:0:0:0:
192,192,164516,1,0,0:0:0:0:
448,192,164516,1,0,2:0:0:0:
320,192,164688,1,0,0:0:0:0:
192,192,164859,1,4,3:0:0:0:
64,192,164859,1,4,3:0:0:0:
320,192,165030,1,4,3:0:0:0:
192,192,165202,1,0,0:0:0:0:
448,192,165202,1,0,2:0:0:0:
320,192,165373,1,4,3:0:0:0:
192,192,165545,1,0,0:0:0:0:
448,192,165545,1,0,2:0:0:0:
64,192,165716,1,4,3:0:0:0:
320,192,165888,1,0,0:0:0:0:
448,192,165888,1,0,2:0:0:0:
192,192,165888,1,0,0:0:0:0:
320,192,166059,1,0,0:0:0:0:
192,192,166059,1,0,0:0:0:0:
448,192,166059,1,0,2:0:0:0:
64,192,166230,5,4,3:0:0:0:
192,192,166230,1,4,3:0:0:0:
448,192,166573,1,0,2:0:0:0:
320,192,166573,1,0,0:0:0:0:
192,192,166573,1,0,0:0:0:0:
320,192,166745,1,0,3:0:0:0:
64,192,166916,1,0,3:0:0:0:
448,192,167088,1,4,3:0:0:0:
192,192,167088,1,4,3:0:0:0:
64,192,167259,1,0,0:0:0:0:
192,192,167259,1,0,0:0:0:0:
320,192,167259,1,0,2:0:0:0:
320,192,167602,1,4,3:0:0:0:
448,192,167602,1,4,3:0:0:0:
64,192,167945,1,0,0:0:0:0:
192,192,167945,1,0,0:0:0:0:
320,192,167945,1,0,2:0:0:0:
192,192,168116,1,0,3:0:0:0:
448,192,168288,1,0,3:0:0:0:
64,192,168459,1,4,3:0:0:0:
320,192,168459,1,4,3:0:0:0:
192,192,168630,1,0,0:0:0:0:
320,192,168630,1,0,0:0:0:0:
448,192,168630,1,0,2:0:0:0:
192,192,168973,1,0,0:0:0:0:
320,192,168973,1,0,2:0:0:0:
320,192,169316,1,0,2:0:0:0:
192,192,169316,1,0,0:0:0:0:
64,192,169316,1,0,0:0:0:0:
320,192,169488,1,0,3:0:0:0:
64,192,169659,1,0,3:0:0:0:
320,192,169830,1,4,3:0:0:0:
448,192,169830,1,4,3:0:0:0:
448,192,170002,1,0,2:0:0:0:
320,192,170002,1,0,0:0:0:0:
192,192,170002,1,0,0:0:0:0:
64,192,170173,1,0,3:0:0:0:
192,192,170345,1,4,3:0:0:0:
448,192,170345,1,4,3:0:0:0:
64,192,170688,1,0,0:0:0:0:
320,192,170688,1,0,0:0:0:0:
448,192,170688,1,0,2:0:0:0:
448,192,170859,1,0,3:0:0:0:
320,192,171030,1,0,3:0:0:0:
64,192,171202,1,4,3:0:0:0:
192,192,171202,1,4,3:0:0:0:
192,192,171373,1,0,0:0:0:0:
320,192,171373,1,0,0:0:0:0:
448,192,171373,1,0,2:0:0:0:
64,192,171716,1,0,0:0:0:0:
320,192,171716,1,0,2:0:0:0:
192,192,171716,1,4,3:0:0:0:
64,192,172059,1,0,0:0:0:0:
320,192,172059,1,0,2:0:0:0:
192,192,172059,1,4,3:0:0:0:
192,192,172402,1,0,0:0:0:0:
320,192,172402,1,4,3:0:0:0:
448,192,172402,1,0,2:0:0:0:
192,192,172745,1,0,0:0:0:0:
320,192,172745,1,4,3:0:0:0:
448,192,172745,1,0,2:0:0:0:
64,192,173088,1,0,0:0:0:0:
320,192,173088,1,4,3:0:0:0:
448,192,173088,1,0,2:0:0:0:
64,192,173430,1,0,0:0:0:0:
320,192,173430,1,4,3:0:0:0:
448,192,173430,1,0,2:0:0:0:
64,192,173773,1,0,0:0:0:0:
448,192,173773,1,0,2:0:0:0:
192,192,173773,1,4,3:0:0:0:
64,192,174116,1,0,0:0:0:0:
192,192,174116,1,4,3:0:0:0:
448,192,174116,1,0,2:0:0:0:
64,192,174459,1,0,0:0:0:0:
192,192,174459,1,4,3:0:0:0:
320,192,174630,1,0,0:0:0:0:
448,192,174630,1,4,3:0:0:0:
64,192,174802,1,0,0:0:0:0:
192,192,174802,1,4,3:0:0:0:
320,192,174973,1,0,0:0:0:0:
448,192,174973,1,4,3:0:0:0:
64,192,175145,1,0,0:0:0:0:
320,192,175145,1,0,2:0:0:0:
192,192,175316,1,0,0:0:0:0:
448,192,175316,1,0,2:0:0:0:
64,192,175488,1,0,0:0:0:0:
320,192,175488,1,0,2:0:0:0:
192,192,175659,1,0,0:0:0:0:
448,192,175659,1,0,2:0:0:0:
64,192,175830,1,0,0:0:0:0:
192,192,175830,1,0,0:0:0:0:
320,192,175916,1,0,0:0:0:0:
448,192,175916,1,0,0:0:0:0:
64,192,176002,1,0,0:0:0:0:
192,192,176002,1,0,0:0:0:0:
320,192,176088,1,0,0:0:0:0:
448,192,176088,1,0,0:0:0:0:
64,192,176173,1,0,0:0:0:0:
192,192,176173,1,0,0:0:0:0:
320,192,176259,1,0,0:0:0:0:
64,192,176345,1,0,0:0:0:0:
448,192,176345,1,0,0:0:0:0:
192,192,176430,1,0,0:0:0:0:
320,192,176430,1,0,0:0:0:0:
64,192,176516,1,0,0:0:0:0:
448,192,176516,1,0,0:0:0:0:
192,192,176602,1,0,0:0:0:0:
320,192,176602,1,0,0:0:0:0:
64,192,176688,1,0,0:0:0:0:
448,192,176688,1,0,0:0:0:0:
192,192,176773,1,0,0:0:0:0:
320,192,176773,1,0,0:0:0:0:
64,192,176859,1,0,0:0:0:0:
448,192,176859,1,0,0:0:0:0:
192,192,176945,1,0,0:0:0:0:
320,192,176945,1,0,0:0:0:0:
64,192,177030,1,0,0:0:0:0:
448,192,177030,1,0,0:0:0:0:
192,192,177116,1,0,0:0:0:0:
320,192,177116,1,0,0:0:0:0:
64,192,178573,128,4,179945:3:0:0:0:
192,192,178573,1,0,0:0:0:0:
448,192,178573,1,0,0:0:0:0:
192,192,178745,1,0,0:0:0:0:
448,192,178916,1,0,2:0:0:0:
320,192,178916,1,0,0:0:0:0:
192,192,179088,1,0,0:0:0:0:
448,192,179259,1,0,3:0:0:0:
192,192,179430,1,4,3:0:0:0:
320,192,179430,1,4,3:0:0:0:
192,192,179602,1,0,0:0:0:0:
448,192,179602,1,0,2:0:0:0:
320,192,179602,1,0,0:0:0:0:
192,192,179945,128,4,181316:3:0:0:0:
448,192,179945,1,4,3:0:0:0:
320,192,180116,1,0,0:0:0:0:
448,192,180288,1,0,2:0:0:0:
64,192,180288,1,0,0:0:0:0:
320,192,180459,1,0,3:0:0:0:
448,192,180630,1,0,3:0:0:0:
64,192,180802,1,4,3:0:0:0:
320,192,180802,1,4,3:0:0:0:
320,192,180973,1,0,0:0:0:0:
448,192,180973,1,0,2:0:0:0:
64,192,180973,1,0,0:0:0:0:
320,192,181316,128,4,182688:3:0:0:0:
448,192,181316,1,4,3:0:0:0:
192,192,181488,1,0,0:0:0:0:
64,192,181659,1,0,0:0:0:0:
448,192,181659,1,0,2:0:0:0:
192,192,181830,1,0,3:0:0:0:
64,192,182002,1,0,3:0:0:0:
448,192,182173,1,4,3:0:0:0:
192,192,182173,1,4,3:0:0:0:
192,192,182345,1,0,0:0:0:0:
448,192,182345,1,0,2:0:0:0:
64,192,182345,1,0,0:0:0:0:
448,192,182688,128,4,184059:3:0:0:0:
192,192,182688,1,4,3:0:0:0:
192,192,182859,1,0,0:0:0:0:
64,192,183030,1,0,0:0:0:0:
320,192,183030,1,0,2:0:0:0:
192,192,183202,1,0,3:0:0:0:
64,192,183373,1,0,3:0:0:0:
192,192,183545,1,4,3:0:0:0:
320,192,183545,1,4,3:0:0:0:
192,192,183716,1,0,0:0:0:0:
320,192,183716,1,0,2:0:0:0:
64,192,183716,1,0,0:0:0:0:
64,192,184059,128,4,185430:3:0:0:0:
192,192,184059,1,0,0:0:0:0:
320,192,184230,1,0,0:0:0:0:
192,192,184402,1,0,0:0:0:0:
448,192,184402,1,0,2:0:0:0:
320,192,184573,1,0,3:0:0:0:
448,192,184745,1,0,3:0:0:0:
320,192,184916,1,4,3:0:0:0:
192,192,184916,1,4,3:0:0:0:
448,192,185088,1,0,2:0:0:0:
192,192,185088,1,0,0:0:0:0:
320,192,185088,1,0,0:0:0:0:
448,192,185430,1,4,3:0:0:0:
192,192,185430,128,4,186802:3:0:0:0:
320,192,185602,1,0,0:0:0:0:
64,192,185773,1,0,0:0:0:0:
448,192,185773,1,0,2:0:0:0:
320,192,185945,1,0,3:0:0:0:
448,192,186116,1,0,3:0:0:0:
320,192,186288,1,4,3:0:0:0:
64,192,186288,1,4,3:0:0:0:
64,192,186459,1,0,0:0:0:0:
448,192,186459,1,0,2:0:0:0:
320,192,186459,1,0,0:0:0:0:
448,192,186802,1,4,3:0:0:0:
320,192,186802,128,4,188173:3:0:0:0:
192,192,186973,1,0,0:0:0:0:
448,192,187145,1,0,2:0:0:0:
64,192,187145,1,0,0:0:0:0:
192,192,187316,1,0,3:0:0:0:
64,192,187488,1,0,3:0:0:0:
192,192,187659,1,4,3:0:0:0:
448,192,187659,1,4,3:0:0:0:
448,192,187830,1,0,2:0:0:0:
192,192,187830,1,0,0:0:0:0:
64,192,187830,1,0,0:0:0:0:
448,192,188173,128,4,189545:3:0:0:0:
64,192,188173,1,0,0:0:0:0:
192,192,188345,1,0,0:0:0:0:
320,192,188516,1,0,2:0:0:0:
64,192,188516,1,0,0:0:0:0:
192,192,188688,1,0,3:0:0:0:
64,192,188859,1,0,3:0:0:0:
320,192,189030,1,4,3:0:0:0:
192,192,189030,1,4,3:0:0:0:
64,192,189202,1,0,0:0:0:0:
320,192,189202,1,0,2:0:0:0:
192,192,189202,1,0,0:0:0:0:
64,192,189545,128,4,190916:3:0:0:0:
192,192,189545,1,0,0:0:0:0:
320,192,189716,1,0,0:0:0:0:
448,192,189888,1,0,2:0:0:0:
192,192,189888,1,0,0:0:0:0:
320,192,190059,1,0,3:0:0:0:
448,192,190230,1,0,3:0:0:0:
192,192,190402,1,4,3:0:0:0:
320,192,190402,1,4,3:0:0:0:
192,192,190573,1,0,0:0:0:0:
448,192,190573,1,0,2:0:0:0:
320,192,190573,1,0,0:0:0:0:
192,192,190916,128,4,192288:3:0:0:0:
448,192,190916,1,4,3:0:0:0:
320,192,191088,1,0,0:0:0:0:
448,192,191259,1,0,2:0:0:0:
64,192,191259,1,0,0:0:0:0:
320,192,191430,1,0,3:0:0:0:
448,192,191602,1,0,3:0:0:0:
64,192,191773,1,4,3:0:0:0:
320,192,191773,1,4,3:0:0:0:
320,192,191945,1,0,0:0:0:0:
448,192,191945,1,0,2:0:0:0:
64,192,191945,1,0,0:0:0:0:
320,192,192288,128,4,193659:3:0:0:0:
448,192,192288,1,4,3:0:0:0:
192,192,192459,1,0,0:0:0:0:
64,192,192630,1,0,0:0:0:0:
448,192,192630,1,0,2:0:0:0:
192,192,192802,1,0,3:0:0:0:
64,192,192973,1,0,3:0:0:0:
448,192,193145,1,4,3:0:0:0:
192,192,193145,1,4,3:0:0:0:
192,192,193316,1,0,0:0:0:0:
448,192,193316,1,0,2:0:0:0:
64,192,193316,1,0,0:0:0:0:
448,192,193659,128,4,195030:3:0:0:0:
192,192,193659,1,4,3:0:0:0:
192,192,193830,1,0,0:0:0:0:
64,192,194002,1,0,0:0:0:0:
320,192,194002,1,0,2:0:0:0:
192,192,194173,1,0,3:0:0:0:
64,192,194345,1,0,3:0:0:0:
192,192,194516,1,4,3:0:0:0:
320,192,194516,1,4,3:0:0:0:
192,192,194688,1,0,0:0:0:0:
320,192,194688,1,0,2:0:0:0:
64,192,194688,1,0,0:0:0:0:
64,192,195030,1,0,0:0:0:0:
192,192,195030,1,4,3:0:0:0:
320,192,195030,1,0,2:0:0:0:
320,192,195202,1,0,3:0:0:0:
64,192,195373,1,4,3:0:0:0:
192,192,195373,1,4,3:0:0:0:
320,192,195545,1,0,3:0:0:0:
64,192,195716,1,4,3:0:0:0:
192,192,195716,1,4,3:0:0:0:
320,192,195888,1,0,3:0:0:0:
64,192,196059,1,4,3:0:0:0:
192,192,196059,1,4,3:0:0:0:
320,192,196230,1,0,3:0:0:0:
64,192,196402,1,0,0:0:0:0:
320,192,196402,1,4,3:0:0:0:
448,192,196402,1,0,2:0:0:0:
192,192,196573,1,0,3:0:0:0:
448,192,196745,1,4,3:0:0:0:
320,192,196745,1,4,3:0:0:0:
192,192,196916,1,0,3:0:0:0:
320,192,197088,1,4,3:0:0:0:
448,192,197088,1,4,3:0:0:0:
192,192,197259,1,0,3:0:0:0:
320,192,197430,1,4,3:0:0:0:
448,192,197430,1,4,3:0:0:0:
192,192,197602,1,0,3:0:0:0:
64,192,197773,1,0,0:0:0:0:
320,192,197773,1,4,3:0:0:0:
448,192,197773,1,0,2:0:0:0:
64,192,197945,1,0,0:0:0:0:
320,192,197945,1,4,3:0:0:0:
192,192,198116,1,0,0:0:0:0:
448,192,198116,1,4,3:0:0:0:
64,192,198288,1,0,0:0:0:0:
320,192,198288,1,4,3:0:0:0:
192,192,198459,1,0,0:0:0:0:
448,192,198459,1,4,3:0:0:0:
64,192,198459,1,0,0:0:0:0:
64,192,198630,1,0,0:0:0:0:
320,192,198630,1,4,3:0:0:0:
192,192,198802,1,0,0:0:0:0:
448,192,198802,1,4,3:0:0:0:
64,192,198973,1,0,0:0:0:0:
320,192,198973,1,4,3:0:0:0:
448,192,198973,1,0,2:0:0:0:
320,192,199316,1,0,0:0:0:0:
448,192,199316,1,0,0:0:0:0:
64,192,199488,1,0,0:0:0:0:
192,192,199488,1,4,3:0:0:0:
320,192,199659,1,4,3:0:0:0:
448,192,199659,1,4,3:0:0:0:
64,192,199830,1,0,0:0:0:0:
192,192,199830,1,4,3:0:0:0:
448,192,199916,1,0,0:0:0:0:
320,192,199916,1,4,3:0:0:0:
64,192,200002,1,0,0:0:0:0:
192,192,200002,1,4,3:0:0:0:
448,192,200088,1,0,0:0:0:0:
320,192,200088,1,4,3:0:0:0:
192,192,200173,1,0,0:0:0:0:
320,192,200173,1,0,0:0:0:0:
64,192,200173,1,0,2:0:0:0:
64,192,200516,128,4,201716:2:0:0:0:
192,192,200516,1,4,2:0:0:0:
320,192,200516,1,4,2:0:0:0:
448,192,201716,128,4,203259:2:0:0:0:
320,192,201716,1,4,2:0:0:0:
192,192,201716,1,4,2:0:0:0:
192,192,203259,128,4,204459:2:0:0:0:
64,192,203259,1,4,2:0:0:0:
320,192,203259,1,4,2:0:0:0:
320,192,204459,128,4,206002:2:0:0:0:
448,192,204459,1,4,2:0:0:0:
64,192,204459,1,4,2:0:0:0:
64,192,206002,128,4,208745:2:0:0:0:
192,192,206002,128,4,208745:2:0:0:0:
320,192,208745,128,4,209945:2:0:0:0:
448,192,208745,128,4,210116:2:0:0:0:
64,192,210116,128,4,211488:2:0:0:0:
192,192,210116,128,4,211488:2:0:0:0:
320,192,210116,128,4,211488:2:0:0:0:
448,192,212859,1,0,2:0:0:0:
64,192,212859,128,4,214230:2:0:0:0:
320,192,213030,1,4,2:0:0:0:
448,192,213202,1,0,2:0:0:0:
320,192,213373,1,4,2:0:0:0:
448,192,213545,1,0,2:0:0:0:
320,192,213716,1,4,2:0:0:0:
448,192,213888,1,0,2:0:0:0:
320,192,214059,1,4,2:0:0:0:
448,192,214230,128,4,215602:2:0:0:0:
192,192,214230,1,0,2:0:0:0:
64,192,214402,1,4,2:0:0:0:
192,192,214573,1,0,2:0:0:0:
64,192,214745,1,4,2:0:0:0:
192,192,214916,1,0,2:0:0:0:
64,192,215088,1,4,2:0:0:0:
192,192,215259,1,0,2:0:0:0:
320,192,215430,1,4,2:0:0:0:
192,192,215602,1,0,2:0:0:0:
64,192,215602,128,4,216973:2:0:0:0:
320,192,215773,1,4,2:0:0:0:
192,192,215945,1,0,2:0:0:0:
320,192,216116,1,4,2:0:0:0:
192,192,216288,1,0,2:0:0:0:
320,192,216459,1,4,2:0:0:0:
192,192,216630,1,0,2:0:0:0:
448,192,216802,1,4,2:0:0:0:
192,192,216973,1,0,2:0:0:0:
320,192,216973,128,4,218345:2:0:0:0:
64,192,217145,1,4,2:0:0:0:
448,192,217316,1,0,2:0:0:0:
64,192,217488,1,4,2:0:0:0:
448,192,217659,1,0,2:0:0:0:
64,192,217830,1,4,2:0:0:0:
448,192,218002,1,0,2:0:0:0:
64,192,218173,1,4,2:0:0:0:
448,192,218345,1,0,2:0:0:0:
192,192,218345,128,4,219716:2:0:0:0:
64,192,218516,1,4,2:0:0:0:
320,192,218688,1,0,2:0:0:0:
64,192,218859,1,4,2:0:0:0:
320,192,219030,1,0,2:0:0:0:
64,192,219202,1,4,2:0:0:0:
320,192,219373,1,0,2:0:0:0:
64,192,219545,1,4,2:0:0:0:
320,192,219716,128,4,220916:2:0:0:0:
448,192,219888,1,4,2:0:0:0:
192,192,220059,1,0,2:0:0:0:
448,192,220230,1,4,2:0:0:0:
192,192,220402,1,0,2:0:0:0:
448,192,220573,1,4,2:0:0:0:
192,192,220745,1,0,2:0:0:0:
448,192,220916,1,0,0:0:0:0:
64,192,221088,128,0,222459:2:0:0:0:
192,192,221088,128,0,222288:2:0:0:0:
320,192,221088,128,4,222116:2:0:0:0:
448,192,221088,128,0,221945:0:0:0:0:
192,192,223488,1,0,0:0:0:0:
64,192,223488,1,0,0:0:0:0:
320,192,223488,1,4,3:0:0:0:
448,192,223488,1,0,2:0:0:0:
192,192,223830,1,4,3:0:0:0:
64,192,223830,1,4,3:0:0:0:
64,192,224002,1,0,0:0:0:0:
448,192,224173,1,0,2:0:0:0:
320,192,224173,1,0,0:0:0:0:
192,192,224173,1,0,0:0:0:0:
320,192,224345,1,0,3:0:0:0:
64,192,224516,1,0,3:0:0:0:
448,192,224688,1,4,3:0:0:0:
192,192,224688,1,4,3:0:0:0:
192,192,224859,1,0,0:0:0:0:
320,192,224859,1,0,2:0:0:0:
64,192,224859,1,0,0:0:0:0:
320,192,225202,1,4,3:0:0:0:
448,192,225202,1,4,3:0:0:0:
448,192,225373,1,0,0:0:0:0:
64,192,225545,1,0,0:0:0:0:
192,192,225545,1,0,0:0:0:0:
320,192,225545,1,0,0:0:0:0:
192,192,225716,1,0,3:0:0:0:
448,192,225888,1,0,3:0:0:0:
64,192,226059,1,4,3:0:0:0:
320,192,226059,1,4,3:0:0:0:
448,192,226230,128,0,226830:2:0:0:0:
320,192,226402,128,0,227002:2:0:0:0:
192,192,226573,128,0,227173:2:0:0:0:
64,192,226573,128,0,227173:0:0:0:0:
448,192,226916,1,0,2:0:0:0:
320,192,227088,1,0,2:0:0:0:
192,192,227259,1,0,2:0:0:0:
64,192,227259,1,0,0:0:0:0:
320,192,227430,1,4,3:0:0:0:
448,192,227430,1,4,3:0:0:0:
320,192,227602,1,0,0:0:0:0:
192,192,227602,1,0,0:0:0:0:
448,192,227602,1,0,0:0:0:0:
64,192,227773,1,0,3:0:0:0:
320,192,227945,1,4,3:0:0:0:
192,192,227945,1,4,3:0:0:0:
192,192,228116,1,0,0:0:0:0:
64,192,228288,1,0,0:0:0:0:
320,192,228288,1,0,0:0:0:0:
448,192,228288,1,0,2:0:0:0:
192,192,228459,1,0,3:0:0:0:
320,192,228630,1,0,3:0:0:0:
64,192,228802,1,4,3:0:0:0:
192,192,228802,1,4,3:0:0:0:
192,192,228973,1,0,0:0:0:0:
320,192,228973,1,0,0:0:0:0:
448,192,228973,1,0,2:0:0:0:
64,192,229316,1,4,3:0:0:0:
320,192,229316,1,4,3:0:0:0:
320,192,229488,1,0,0:0:0:0:
448,192,229659,1,0,2:0:0:0:
192,192,229659,1,0,0:0:0:0:
64,192,229659,1,0,0:0:0:0:
320,192,229830,1,0,3:0:0:0:
192,192,230002,1,0,3:0:0:0:
320,192,230173,1,4,3:0:0:0:
448,192,230173,1,4,3:0:0:0:
192,192,230345,1,0,0:0:0:0:
320,192,230345,1,0,2:0:0:0:
64,192,230345,1,0,0:0:0:0:
192,192,230688,1,4,3:0:0:0:
448,192,230688,1,4,3:0:0:0:
64,192,230859,1,0,0:0:0:0:
448,192,231030,1,0,2:0:0:0:
320,192,231030,1,0,0:0:0:0:
192,192,231030,1,0,0:0:0:0:
320,192,231202,1,0,3:0:0:0:
64,192,231373,1,0,3:0:0:0:
448,192,231545,1,4,3:0:0:0:
192,192,231545,1,4,3:0:0:0:
64,192,231716,1,0,0:0:0:0:
192,192,231716,1,0,0:0:0:0:
320,192,231716,1,0,2:0:0:0:
320,192,232059,1,4,3:0:0:0:
448,192,232059,1,4,3:0:0:0:
448,192,232230,1,0,0:0:0:0:
64,192,232402,1,0,0:0:0:0:
192,192,232402,1,0,0:0:0:0:
320,192,232402,1,0,2:0:0:0:
448,192,232573,1,0,3:0:0:0:
320,192,232745,1,0,3:0:0:0:
64,192,232916,128,0,233316:2:0:0:0:
192,192,232916,128,4,233316:2:0:0:0:
320,192,233088,128,4,233316:2:0:0:0:
448,192,233088,128,0,233316:2:0:0:0:
192,192,233430,1,0,0:0:0:0:
320,192,233430,1,4,3:0:0:0:
448,192,233602,1,0,0:0:0:0:
320,192,233773,1,0,2:0:0:0:
192,192,233773,1,0,0:0:0:0:
64,192,233773,1,0,0:0:0:0:
320,192,233945,1,0,3:0:0:0:
64,192,234116,1,0,3:0:0:0:
320,192,234288,1,4,3:0:0:0:
448,192,234288,1,4,3:0:0:0:
448,192,234459,1,0,2:0:0:0:
320,192,234459,1,0,0:0:0:0:
192,192,234459,1,0,0:0:0:0:
64,192,234630,1,0,3:0:0:0:
192,192,234802,1,4,3:0:0:0:
448,192,234802,1,4,3:0:0:0:
320,192,234802,1,0,0:0:0:0:
192,192,234973,1,0,0:0:0:0:
64,192,235145,1,0,0:0:0:0:
320,192,235145,1,0,0:0:0:0:
448,192,235145,1,0,2:0:0:0:
192,192,235316,1,0,3:0:0:0:
320,192,235488,1,0,3:0:0:0:
64,192,235659,1,4,3:0:0:0:
192,192,235659,1,4,3:0:0:0:
192,192,235830,1,0,0:0:0:0:
320,192,235830,1,0,0:0:0:0:
448,192,235830,1,0,0:0:0:0:
64,192,236173,1,4,3:0:0:0:
320,192,236173,1,4,3:0:0:0:
320,192,236345,1,0,0:0:0:0:
64,192,236516,1,0,0:0:0:0:
448,192,236516,1,0,2:0:0:0:
192,192,236516,1,0,0:0:0:0:
320,192,236688,1,0,2:0:0:0:
192,192,236859,1,0,2:0:0:0:
320,192,237030,1,4,2:0:0:0:
448,192,237030,1,4,2:0:0:0:
64,192,237202,128,0,237802:2:0:0:0:
192,192,237373,128,0,237973:2:0:0:0:
320,192,237545,128,0,238145:2:0:0:0:
448,192,237545,128,0,238145:0:0:0:0:
64,192,237888,1,0,2:0:0:0:
192,192,238059,1,0,2:0:0:0:
320,192,238230,1,0,2:0:0:0:
448,192,238230,1,0,0:0:0:0:
64,192,238402,1,0,0:0:0:0:
192,192,238402,1,4,3:0:0:0:
192,192,238573,1,0,0:0:0:0:
320,192,238573,1,0,0:0:0:0:
448,192,238573,1,0,0:0:0:0:
64,192,238916,1,4,3:0:0:0:
320,192,238916,1,4,3:0:0:0:
448,192,239088,1,0,0:0:0:0:
320,192,239259,1,0,0:0:0:0:
64,192,239259,1,0,0:0:0:0:
192,192,239259,1,0,0:0:0:0:
448,192,239545,1,0,3:0:0:0:
320,192,239545,1,0,3:0:0:0:
192,192,239773,1,4,3:0:0:0:
64,192,239773,1,4,3:0:0:0:
64,192,239945,1,0,0:0:0:0:
192,192,239945,1,0,0:0:0:0:
448,192,239945,1,0,2:0:0:0:
64,192,240288,1,4,3:0:0:0:
192,192,240288,1,4,3:0:0:0:
448,192,240288,1,4,3:0:0:0:
320,192,240459,1,0,3:0:0:0:
64,192,240630,1,4,3:0:0:0:
192,192,240630,1,4,3:0:0:0:
320,192,240802,1,0,3:0:0:0:
64,192,240973,1,4,3:0:0:0:
192,192,240973,1,4,3:0:0:0:
320,192,241145,1,0,3:0:0:0:
64,192,241316,1,4,3:0:0:0:
192,192,241316,1,4,3:0:0:0:
320,192,241488,1,0,3:0:0:0:
64,192,241659,1,0,0:0:0:0:
320,192,241659,1,4,3:0:0:0:
448,192,241659,1,0,2:0:0:0:
192,192,241830,1,0,3:0:0:0:
448,192,242002,1,4,3:0:0:0:
320,192,242002,1,4,3:0:0:0:
192,192,242173,1,0,3:0:0:0:
320,192,242345,1,4,3:0:0:0:
448,192,242345,1,4,3:0:0:0:
192,192,242516,1,0,3:0:0:0:
320,192,242688,1,4,3:0:0:0:
448,192,242688,1,4,3:0:0:0:
192,192,242859,1,0,3:0:0:0:
64,192,243030,1,0,0:0:0:0:
320,192,243030,1,4,3:0:0:0:
448,192,243030,1,0,2:0:0:0:
64,192,243202,1,0,0:0:0:0:
320,192,243202,1,4,3:0:0:0:
192,192,243373,1,0,0:0:0:0:
448,192,243373,1,4,3:0:0:0:
64,192,243545,1,0,0:0:0:0:
320,192,243545,1,4,3:0:0:0:
192,192,243716,1,0,0:0:0:0:
448,192,243716,1,4,3:0:0:0:
320,192,243716,1,0,0:0:0:0:
64,192,243888,1,0,0:0:0:0:
320,192,243888,1,4,3:0:0:0:
192,192,244059,1,0,0:0:0:0:
448,192,244059,1,4,3:0:0:0:
64,192,244230,1,0,0:0:0:0:
320,192,244230,1,4,3:0:0:0:
448,192,244230,1,0,2:0:0:0:
320,192,244573,1,4,3:0:0:0:
448,192,244573,1,4,3:0:0:0:
64,192,244745,1,0,0:0:0:0:
192,192,244745,1,4,3:0:0:0:
320,192,244916,1,4,3:0:0:0:
448,192,244916,1,4,3:0:0:0:
64,192,245088,1,0,0:0:0:0:
192,192,245088,1,4,3:0:0:0:
448,192,245173,1,0,0:0:0:0:
320,192,245173,1,4,3:0:0:0:
64,192,245259,1,0,0:0:0:0:
192,192,245259,1,4,3:0:0:0:
448,192,245345,1,0,0:0:0:0:
320,192,245345,1,4,3:0:0:0:
192,192,245430,1,0,0:0:0:0:
320,192,245430,1,0,0:0:0:0:
64,192,245430,1,0,2:0:0:0:
64,192,245773,128,4,246288:2:0:0:0:
320,192,245773,128,4,246288:2:0:0:0:
448,192,245773,1,4,2:0:0:0:
192,192,245773,1,4,2:0:0:0:
192,192,246288,128,4,246802:2:0:0:0:
448,192,246288,1,4,2:0:0:0:
320,192,246802,128,4,247145:2:0:0:0:
448,192,246802,1,4,2:0:0:0:
64,192,246802,1,4,2:0:0:0:
192,192,247145,128,4,247830:2:0:0:0:
448,192,247145,128,4,247830:2:0:0:0:
64,192,247830,128,4,248516:2:0:0:0:
320,192,247830,1,4,2:0:0:0:
448,192,248516,128,4,249373:2:0:0:0:
320,192,248516,128,4,249373:2:0:0:0:
192,192,248516,1,4,2:0:0:0:
192,192,249373,128,4,249716:2:0:0:0:
64,192,249373,1,4,2:0:0:0:
64,192,249716,128,4,249888:2:0:0:0:
320,192,249888,128,4,250345:2:0:0:0:
448,192,249888,1,4,2:0:0:0:
192,192,250402,1,4,2:0:0:0:
64,192,250402,1,0,0:0:0:0:
448,192,250488,128,4,251002:2:0:0:0:
192,192,251002,1,4,2:0:0:0:
64,192,251002,128,4,253230:2:0:0:0:
320,192,251002,128,4,253230:2:0:0:0:
192,192,253230,1,4,2:0:0:0:
448,192,253230,128,4,253659:2:0:0:0:
192,192,253659,128,4,255145:2:0:0:0:
64,192,253659,128,4,255145:2:0:0:0:
320,192,253659,1,4,2:0:0:0:
448,192,255202,1,4,2:0:0:0:
320,192,255288,1,4,2:0:0:0:
192,192,255288,1,4,2:0:0:0:
64,192,255373,128,4,256745:2:0:0:0:
448,192,256745,128,4,257259:2:0:0:0:
320,192,256745,1,4,2:0:0:0:
192,192,256745,1,4,2:0:0:0:
320,192,257259,128,4,257773:2:0:0:0:
192,192,257259,1,4,2:0:0:0:
64,192,257259,1,4,2:0:0:0:
192,192,257773,128,4,258802:2:0:0:0:
64,192,257773,1,4,2:0:0:0:
320,192,258802,128,4,259488:2:0:0:0:
448,192,258802,128,4,259488:2:0:0:0:
64,192,258802,1,4,2:0:0:0:
64,192,259488,128,4,260345:2:0:0:0:
192,192,259488,1,4,2:0:0:0:
192,192,260345,128,4,260630:2:0:0:0:
320,192,260345,128,4,260630:2:0:0:0:
448,192,260345,128,4,260630:2:0:0:0:
64,192,260688,1,4,2:0:0:0:
320,192,260773,1,4,2:0:0:0:
192,192,260773,128,4,261373:2:0:0:0:
448,192,261373,128,4,262230:2:0:0:0:
320,192,261373,1,4,2:0:0:0:
192,192,262230,1,4,3:0:0:0:
320,192,262230,1,4,3:0:0:0:
64,192,262230,128,0,264116:0:0:0:0:
448,192,262402,1,0,0:0:0:0:
192,192,262573,1,4,3:0:0:0:
320,192,262573,1,4,3:0:0:0:
448,192,262745,1,0,3:0:0:0:
320,192,262916,1,4,3:0:0:0:
448,192,262916,1,4,3:0:0:0:
192,192,263088,1,0,0:0:0:0:
320,192,263259,1,4,3:0:0:0:
448,192,263259,1,4,3:0:0:0:
448,192,263430,1,0,3:0:0:0:
192,192,263602,1,4,3:0:0:0:
320,192,263602,1,4,3:0:0:0:
192,192,263773,1,0,3:0:0:0:
320,192,263945,1,4,3:0:0:0:
448,192,263945,1,4,3:0:0:0:
192,192,264116,128,0,264973:0:0:0:0:
320,192,264288,1,4,3:0:0:0:
448,192,264288,1,4,3:0:0:0:
64,192,264459,1,0,3:0:0:0:
320,192,264630,1,4,3:0:0:0:
448,192,264630,1,4,3:0:0:0:
64,192,264802,1,0,3:0:0:0:
320,192,264973,1,0,0:0:0:0:
448,192,264973,128,0,267373:2:0:0:0:
64,192,265145,1,4,3:0:0:0:
192,192,265145,1,4,3:0:0:0:
192,192,265316,1,4,3:0:0:0:
64,192,265316,1,4,3:0:0:0:
64,192,265488,1,4,3:0:0:0:
192,192,265488,1,4,3:0:0:0:
192,192,265659,1,0,0:0:0:0:
320,192,265659,1,0,2:0:0:0:
64,192,265659,1,0,0:0:0:0:
64,192,265830,1,4,3:0:0:0:
192,192,265830,1,4,3:0:0:0:
64,192,266002,1,4,3:0:0:0:
192,192,266002,1,4,3:0:0:0:
192,192,266173,1,0,0:0:0:0:
320,192,266173,1,0,2:0:0:0:
64,192,266173,1,0,0:0:0:0:
320,192,266516,1,4,3:0:0:0:
64,192,266516,1,0,0:0:0:0:
192,192,266688,1,4,3:0:0:0:
64,192,266859,1,4,3:0:0:0:
320,192,267030,1,4,3:0:0:0:
64,192,267116,1,4,3:0:0:0:
192,192,267202,1,4,3:0:0:0:
320,192,267288,1,4,3:0:0:0:
64,192,267373,1,0,0:0:0:0:
192,192,267373,1,0,0:0:0:0:
64,192,267716,1,0,0:0:0:0:
192,192,267716,1,0,0:0:0:0:
320,192,267716,1,0,0:0:0:0:
320,192,267888,1,0,0:0:0:0:
192,192,267888,1,0,0:0:0:0:
64,192,268059,1,0,0:0:0:0:
448,192,268059,1,0,0:0:0:0:
192,192,268230,1,0,0:0:0:0:
448,192,268230,1,0,0:0:0:0:
192,192,268402,1,0,0:0:0:0:
320,192,268402,1,0,0:0:0:0:
320,192,268573,1,0,0:0:0:0:
64,192,268573,1,0,0:0:0:0:
64,192,268745,1,0,0:0:0:0:
448,192,268745,1,0,0:0:0:0:
192,192,268916,1,0,0:0:0:0:
320,192,268916,1,0,0:0:0:0:
192,192,269088,1,0,0:0:0:0:
320,192,269088,1,0,0:0:0:0:
448,192,269088,1,0,0:0:0:0:
320,192,269259,1,0,0:0:0:0:
192,192,269259,1,0,0:0:0:0:
448,192,269430,1,0,0:0:0:0:
64,192,269430,1,0,0:0:0:0:
64,192,269602,1,0,0:0:0:0:
320,192,269602,1,0,0:0:0:0:
192,192,269773,1,0,0:0:0:0:
320,192,269773,1,0,0:0:0:0:
448,192,269945,1,0,0:0:0:0:
192,192,269945,1,0,0:0:0:0:
64,192,270116,1,0,0:0:0:0:
448,192,270116,1,0,0:0:0:0:
320,192,270288,1,0,0:0:0:0:
192,192,270288,1,0,0:0:0:0:
192,192,270459,1,0,0:0:0:0:
320,192,270459,1,0,0:0:0:0:
64,192,270459,1,0,0:0:0:0:
64,192,270630,1,0,0:0:0:0:
448,192,270630,1,0,0:0:0:0:
192,192,270802,1,0,0:0:0:0:
320,192,270802,1,0,0:0:0:0:
192,192,270973,1,0,0:0:0:0:
448,192,270973,1,0,0:0:0:0:
448,192,271145,1,0,0:0:0:0:
64,192,271145,1,0,0:0:0:0:
64,192,271316,1,0,0:0:0:0:
320,192,271316,1,0,0:0:0:0:
320,192,271488,1,0,0:0:0:0:
192,192,271488,1,0,0:0:0:0:
64,192,271659,1,0,0:0:0:0:
448,192,271659,1,0,0:0:0:0:
192,192,271830,1,0,0:0:0:0:
320,192,271830,128,0,272088:0:0:0:0:
448,192,271830,128,0,272088:0:0:0:0:
64,192,272088,128,0,272345:0:0:0:0:
192,192,272088,128,0,272345:0:0:0:0:
320,192,272345,128,0,272602:0:0:0:0:
448,192,272345,128,0,272602:0:0:0:0:
192,192,272602,1,0,0:0:0:0:
64,192,272602,1,0,0:0:0:0:
64,192,272859,1,0,0:0:0:0:
192,192,272859,1,0,0:0:0:0:
320,192,272859,1,0,0:0:0:0:
448,192,273030,1,0,0:0:0:0:
64,192,273202,1,0,0:0:0:0:
192,192,273202,1,0,0:0:0:0:
320,192,273202,1,0,0:0:0:0:
320,192,273373,1,0,0:0:0:0:
192,192,273373,1,0,0:0:0:0:
64,192,273545,1,0,0:0:0:0:
448,192,273545,1,0,0:0:0:0:
192,192,273716,1,0,0:0:0:0:
448,192,273716,1,0,0:0:0:0:
192,192,273888,1,0,0:0:0:0:
320,192,273888,1,0,0:0:0:0:
320,192,274059,1,0,0:0:0:0:
64,192,274059,1,0,0:0:0:0:
64,192,274230,1,0,0:0:0:0:
448,192,274230,1,0,0:0:0:0:
192,192,274402,1,0,0:0:0:0:
320,192,274402,1,0,0:0:0:0:
192,192,274573,1,0,0:0:0:0:
320,192,274573,1,0,0:0:0:0:
448,192,274573,1,0,0:0:0:0:
320,192,274745,1,0,0:0:0:0:
192,192,274745,1,0,0:0:0:0:
448,192,274916,1,0,0:0:0:0:
64,192,274916,1,0,0:0:0:0:
64,192,275088,1,0,0:0:0:0:
320,192,275088,1,0,0:0:0:0:
192,192,275259,1,0,0:0:0:0:
320,192,275259,1,0,0:0:0:0:
448,192,275430,1,0,0:0:0:0:
192,192,275430,1,0,0:0:0:0:
64,192,275602,1,0,0:0:0:0:
448,192,275602,1,0,0:0:0:0:
320,192,275773,1,0,0:0:0:0:
192,192,275773,1,0,0:0:0:0:
192,192,275945,1,0,0:0:0:0:
320,192,275945,1,0,0:0:0:0:
64,192,275945,1,0,0:0:0:0:
64,192,276116,1,0,0:0:0:0:
448,192,276116,1,0,0:0:0:0:
192,192,276288,1,0,0:0:0:0:
320,192,276288,1,0,0:0:0:0:
192,192,276459,1,0,0:0:0:0:
448,192,276459,1,0,0:0:0:0:
448,192,276630,1,0,0:0:0:0:
64,192,276630,1,0,0:0:0:0:
64,192,276802,1,0,0:0:0:0:
320,192,276802,1,0,0:0:0:0:
320,192,276973,1,0,0:0:0:0:
192,192,276973,1,0,0:0:0:0:
64,192,277145,1,0,0:0:0:0:
448,192,277145,1,0,0:0:0:0:
448,192,277316,1,0,0:0:0:0:
320,192,277316,1,0,0:0:0:0:
192,192,277316,1,0,0:0:0:0:
64,192,277430,1,0,0:0:0:0:
320,192,277659,1,0,0:0:0:0:
64,192,277659,1,0,0:0:0:0:
192,192,277830,128,0,277945:0:0:0:0:
448,192,277830,128,0,277945:0:0:0:0:
448,192,278088,1,0,0:0:0:0:
192,192,278088,1,0,0:0:0:0:
320,192,278345,1,0,0:0:0:0:
448,192,278516,1,0,0:0:0:0:
320,192,278688,1,0,0:0:0:0:
192,192,278688,1,0,0:0:0:0:
64,192,278688,1,0,0:0:0:0:
192,192,278859,1,0,0:0:0:0:
320,192,278859,1,0,0:0:0:0:
448,192,279030,1,0,0:0:0:0:
64,192,279030,1,0,0:0:0:0:
448,192,279202,1,0,0:0:0:0:
192,192,279202,1,0,0:0:0:0:
320,192,279373,1,0,0:0:0:0:
192,192,279373,1,0,0:0:0:0:
64,192,279545,1,0,0:0:0:0:
320,192,279545,1,0,0:0:0:0:
448,192,279716,1,0,0:0:0:0:
64,192,279716,1,0,0:0:0:0:
320,192,279888,1,0,0:0:0:0:
192,192,279888,1,0,0:0:0:0:
448,192,280059,1,0,0:0:0:0:
320,192,280059,1,0,0:0:0:0:
192,192,280059,1,0,0:0:0:0:
192,192,280230,1,0,0:0:0:0:
320,192,280230,1,0,0:0:0:0:
64,192,280402,1,0,0:0:0:0:
448,192,280402,1,0,0:0:0:0:
320,192,280573,1,0,0:0:0:0:
64,192,280573,1,0,0:0:0:0:
320,192,280745,1,0,0:0:0:0:
192,192,280745,1,0,0:0:0:0:
192,192,280916,1,0,0:0:0:0:
448,192,280916,1,0,0:0:0:0:
448,192,281088,1,0,0:0:0:0:
64,192,281088,1,0,0:0:0:0:
192,192,281259,1,0,0:0:0:0:
320,192,281259,1,0,0:0:0:0:
64,192,281430,1,0,0:0:0:0:
320,192,281430,1,0,0:0:0:0:
192,192,281430,1,0,0:0:0:0:
448,192,281602,1,0,0:0:0:0:
64,192,281602,1,0,0:0:0:0:
320,192,281773,1,0,0:0:0:0:
192,192,281773,1,0,0:0:0:0:
448,192,281945,1,0,0:0:0:0:
192,192,281945,1,0,0:0:0:0:
64,192,282116,1,0,0:0:0:0:
448,192,282116,1,0,0:0:0:0:
320,192,282288,1,0,0:0:0:0:
64,192,282288,1,0,0:0:0:0:
192,192,282459,1,0,0:0:0:0:
320,192,282459,1,0,0:0:0:0:
448,192,282630,1,0,0:0:0:0:
64,192,282630,1,0,0:0:0:0:
192,192,282802,1,0,0:0:0:0:
320,192,282802,1,0,0:0:0:0:
64,192,282802,128,0,283059:0:0:0:0:
192,192,283059,1,0,0:0:0:0:
320,192,283059,1,0,0:0:0:0:
448,192,283316,128,0,283573:0:0:0:0:
192,192,283316,1,0,0:0:0:0:
320,192,283316,1,0,0:0:0:0:
320,192,283573,1,0,0:0:0:0:
192,192,283573,1,0,0:0:0:0:
320,192,283830,128,0,284002:0:0:0:0:
448,192,283830,128,0,284002:0:0:0:0:
320,192,284059,1,0,0:0:0:0:
448,192,284059,1,0,0:0:0:0:
64,192,284173,1,0,0:0:0:0:
192,192,284173,1,0,0:0:0:0:
320,192,284173,1,0,0:0:0:0:
320,192,284345,1,0,0:0:0:0:
192,192,284345,1,0,0:0:0:0:
64,192,284516,1,0,0:0:0:0:
448,192,284516,1,0,0:0:0:0:
192,192,284688,1,0,0:0:0:0:
448,192,284688,1,0,0:0:0:0:
192,192,284859,1,0,0:0:0:0:
320,192,284859,1,0,0:0:0:0:
320,192,285030,1,0,0:0:0:0:
64,192,285030,1,0,0:0:0:0:
64,192,285202,1,0,0:0:0:0:
448,192,285202,1,0,0:0:0:0:
192,192,285373,1,0,0:0:0:0:
320,192,285373,1,0,0:0:0:0:
192,192,285545,1,0,0:0:0:0:
320,192,285545,1,0,0:0:0:0:
448,192,285545,1,0,0:0:0:0:
320,192,285716,1,0,0:0:0:0:
192,192,285716,1,0,0:0:0:0:
448,192,285888,1,0,0:0:0:0:
64,192,285888,1,0,0:0:0:0:
64,192,286059,1,0,0:0:0:0:
320,192,286059,1,0,0:0:0:0:
192,192,286230,1,0,0:0:0:0:
320,192,286230,1,0,0:0:0:0:
448,192,286402,1,0,0:0:0:0:
192,192,286402,1,0,0:0:0:0:
64,192,286573,1,0,0:0:0:0:
448,192,286573,1,0,0:0:0:0:
320,192,286745,1,0,0:0:0:0:
192,192,286745,1,0,0:0:0:0:
192,192,286916,1,0,0:0:0:0:
320,192,286916,1,0,0:0:0:0:
64,192,286916,1,0,0:0:0:0:
448,192,286916,128,0,287173:0:0:0:0:
192,192,287173,1,0,0:0:0:0:
320,192,287173,1,0,0:0:0:0:
64,192,287430,1,0,0:0:0:0:
192,192,287430,1,0,0:0:0:0:
320,192,287688,1,0,0:0:0:0:
448,192,287688,1,0,0:0:0:0:
192,192,288116,128,0,289488:0:0:0:0:
320,192,288116,128,0,289316:0:0:0:0:
64,192,288116,128,0,289659:0:0:0:0:
448,192,288373,128,0,289145:0:0:0:0:
