osu file format v14

[General]
AudioFilename: audio.mp3
AudioLeadIn: 0
PreviewTime: 177202
Countdown: 0
SampleSet: Normal
StackLeniency: 0.7
Mode: 3
LetterboxInBreaks: 0
SpecialStyle: 0
WidescreenStoryboard: 1

[Editor]
DistanceSpacing: 0.8
BeatDivisor: 4
GridSize: 32
TimelineZoom: 1

[Metadata]
Title:Colorful (Asterisk DnB Remix)
TitleUnicode:カラフル。(Asterisk DnB Remix)
Artist:Sawai Miku
ArtistUnicode:沢井美空
Creator:AetherKeys
Version:"Eriri" NM
Source:冴えない彼女の育てかた
Tags:Saenai heroine no sodatekata asterisk dnb remix
BeatmapID:987142
BeatmapSetID:460269

[Difficulty]
HPDrainRate:6
CircleSize:4
OverallDifficulty:7
ApproachRate:5
SliderMultiplier:1.4
SliderTickRate:1

[Events]
//Background and Video events
0,0,"saenai.jpg",0,0
//Break Periods
//Storyboard Layer 0 (Background)
//Storyboard Layer 1 (Fail)
//Storyboard Layer 2 (Pass)
//Storyboard Layer 3 (Foreground)
//Storyboard Sound Samples

[TimingPoints]
288,342.857142857143,4,1,0,5,1,0

[HitObjects]
192,192,288,5,0,0:0:0:0:
320,192,630,1,0,0:0:0:0:
448,192,630,1,0,0:0:0:0:
192,192,1145,1,0,0:0:0:0:
64,192,1316,1,0,0:0:0:0:
320,192,1316,1,0,0:0:0:0:
320,192,1659,1,0,0:0:0:0:
192,192,2002,1,0,0:0:0:0:
64,192,2002,1,0,0:0:0:0:
320,192,2516,1,0,0:0:0:0:
192,192,2688,1,0,0:0:0:0:
448,192,2688,1,0,0:0:0:0:
64,192,3030,1,0,0:0:0:0:
192,192,3373,1,0,0:0:0:0:
320,192,3373,1,0,0:0:0:0:
192,192,3888,1,0,0:0:0:0:
64,192,4059,1,0,0:0:0:0:
320,192,4059,1,0,0:0:0:0:
448,192,4402,1,0,0:0:0:0:
320,192,4745,1,0,0:0:0:0:
192,192,4745,1,0,0:0:0:0:
320,192,5259,1,0,0:0:0:0:
192,192,5430,1,0,0:0:0:0:
448,192,5430,1,0,0:0:0:0:
192,192,5773,1,0,0:0:0:0:
320,192,6116,1,0,0:0:0:0:
64,192,6116,1,0,0:0:0:0:
192,192,6630,1,0,0:0:0:0:
320,192,6802,1,0,0:0:0:0:
448,192,6802,1,0,0:0:0:0:
320,192,7145,1,0,0:0:0:0:
448,192,7488,1,0,0:0:0:0:
192,192,7488,1,0,0:0:0:0:
320,192,8002,1,0,0:0:0:0:
64,192,8173,1,0,0:0:0:0:
192,192,8173,1,0,0:0:0:0:
192,192,8516,1,0,0:0:0:0:
320,192,8859,1,0,0:0:0:0:
448,192,8859,1,0,0:0:0:0:
192,192,9373,1,0,0:0:0:0:
64,192,9545,1,0,0:0:0:0:
320,192,9545,1,0,0:0:0:0:
320,192,9888,1,0,0:0:0:0:
192,192,10230,1,0,0:0:0:0:
64,192,10230,1,0,0:0:0:0:
320,192,10745,1,0,0:0:0:0:
192,192,10916,1,0,0:0:0:0:
448,192,10916,1,0,0:0:0:0:
64,192,11259,1,0,0:0:0:0:
192,192,11602,1,0,0:0:0:0:
320,192,11602,1,0,0:0:0:0:
192,192,12116,1,0,0:0:0:0:
64,192,12288,1,0,0:0:0:0:
320,192,12288,1,0,0:0:0:0:
448,192,12630,1,0,0:0:0:0:
320,192,12973,1,0,0:0:0:0:
192,192,12973,1,0,0:0:0:0:
320,192,13488,1,0,0:0:0:0:
192,192,13659,1,0,0:0:0:0:
448,192,13659,1,0,0:0:0:0:
192,192,14002,1,0,0:0:0:0:
320,192,14345,1,0,0:0:0:0:
64,192,14345,1,0,0:0:0:0:
192,192,14859,1,0,0:0:0:0:
320,192,15030,1,0,0:0:0:0:
448,192,15030,1,0,0:0:0:0:
320,192,15373,1,0,0:0:0:0:
448,192,15716,1,0,0:0:0:0:
192,192,15716,1,0,0:0:0:0:
320,192,16230,1,0,0:0:0:0:
64,192,16402,1,0,0:0:0:0:
192,192,16402,1,0,0:0:0:0:
320,192,16745,1,0,0:0:0:0:
192,192,17088,1,0,0:0:0:0:
64,192,17088,1,0,0:0:0:0:
448,192,17345,1,0,0:0:0:0:
64,192,17688,1,0,0:0:0:0:
192,192,17688,1,0,0:0:0:0:
192,192,18116,1,0,0:0:0:0:
320,192,18459,1,0,0:0:0:0:
448,192,18459,1,0,0:0:0:0:
64,192,18802,1,0,0:0:0:0:
320,192,19145,1,0,0:0:0:0:
448,192,19145,1,0,0:0:0:0:
64,192,19488,1,0,0:0:0:0:
320,192,19659,1,0,0:0:0:0:
192,192,19830,1,0,0:0:0:0:
64,192,20002,1,0,0:0:0:0:
448,192,20173,1,0,0:0:0:0:
320,192,20345,1,0,0:0:0:0:
192,192,20516,1,0,0:0:0:0:
64,192,20688,1,0,0:0:0:0:
448,192,21030,1,0,0:0:0:0:
320,192,21202,1,0,0:0:0:0:
192,192,21373,1,0,0:0:0:0:
64,192,21545,1,0,0:0:0:0:
192,192,21630,1,0,0:0:0:0:
64,192,21716,1,0,0:0:0:0:
192,192,21802,1,0,0:0:0:0:
320,192,21888,1,0,0:0:0:0:
448,192,21888,1,0,0:0:0:0:
192,192,22230,1,0,0:0:0:0:
448,192,22573,1,0,0:0:0:0:
320,192,22573,1,0,0:0:0:0:
192,192,23088,1,0,0:0:0:0:
64,192,23259,1,0,0:0:0:0:
320,192,23259,128,0,23602:0:0:0:0:
448,192,23602,1,0,0:0:0:0:
64,192,23945,1,0,0:0:0:0:
192,192,23945,1,0,0:0:0:0:
320,192,24459,1,0,0:0:0:0:
448,192,24630,1,0,0:0:0:0:
192,192,24630,1,0,0:0:0:0:
64,192,24973,1,0,0:0:0:0:
320,192,25316,1,0,0:0:0:0:
192,192,25316,1,0,0:0:0:0:
192,192,25830,1,0,0:0:0:0:
64,192,26002,1,0,0:0:0:0:
320,192,26002,128,0,26345:0:0:0:0:
448,192,26345,1,0,0:0:0:0:
192,192,26688,1,0,0:0:0:0:
320,192,26688,1,0,0:0:0:0:
320,192,27202,1,0,0:0:0:0:
448,192,27373,1,0,0:0:0:0:
192,192,27373,1,0,0:0:0:0:
192,192,27716,1,0,0:0:0:0:
64,192,28059,1,0,0:0:0:0:
320,192,28059,1,0,0:0:0:0:
192,192,28573,1,0,0:0:0:0:
320,192,28745,1,0,0:0:0:0:
64,192,28745,128,0,29088:0:0:0:0:
320,192,29088,1,0,0:0:0:0:
192,192,29430,1,0,0:0:0:0:
448,192,29430,1,0,0:0:0:0:
320,192,29945,1,0,0:0:0:0:
192,192,30116,1,0,0:0:0:0:
64,192,30116,1,0,0:0:0:0:
192,192,30459,1,0,0:0:0:0:
320,192,30802,1,0,0:0:0:0:
448,192,30802,1,0,0:0:0:0:
192,192,31316,1,0,0:0:0:0:
64,192,31488,1,0,0:0:0:0:
192,192,31573,1,0,0:0:0:0:
320,192,31745,1,0,0:0:0:0:
448,192,31830,1,0,0:0:0:0:
192,192,32173,1,0,0:0:0:0:
64,192,32173,1,0,0:0:0:0:
320,192,32688,1,0,0:0:0:0:
192,192,32859,1,0,0:0:0:0:
448,192,32859,1,0,0:0:0:0:
64,192,33202,1,0,0:0:0:0:
192,192,33545,1,0,0:0:0:0:
320,192,33545,1,0,0:0:0:0:
192,192,34059,1,0,0:0:0:0:
64,192,34230,1,0,0:0:0:0:
320,192,34230,128,0,34573:0:0:0:0:
448,192,34573,1,0,0:0:0:0:
320,192,34916,1,0,0:0:0:0:
192,192,34916,1,0,0:0:0:0:
320,192,35430,1,0,0:0:0:0:
192,192,35602,1,0,0:0:0:0:
448,192,35602,1,0,0:0:0:0:
192,192,35945,1,0,0:0:0:0:
320,192,36288,1,0,0:0:0:0:
64,192,36288,1,0,0:0:0:0:
192,192,36802,1,0,0:0:0:0:
320,192,36973,1,0,0:0:0:0:
448,192,36973,128,0,37316:0:0:0:0:
320,192,37316,1,0,0:0:0:0:
448,192,37659,1,0,0:0:0:0:
192,192,37659,1,0,0:0:0:0:
320,192,38173,1,0,0:0:0:0:
64,192,38345,1,0,0:0:0:0:
192,192,38345,1,0,0:0:0:0:
192,192,38688,1,0,0:0:0:0:
448,192,39030,1,0,0:0:0:0:
320,192,39030,1,0,0:0:0:0:
64,192,39288,1,0,0:0:0:0:
320,192,39630,1,0,0:0:0:0:
448,192,39630,1,0,0:0:0:0:
320,192,40059,1,0,0:0:0:0:
64,192,40402,1,0,0:0:0:0:
192,192,40402,1,0,0:0:0:0:
448,192,40745,1,0,0:0:0:0:
64,192,41088,1,0,0:0:0:0:
192,192,41088,1,0,0:0:0:0:
448,192,41430,1,0,0:0:0:0:
192,192,41602,1,0,0:0:0:0:
320,192,41773,1,0,0:0:0:0:
448,192,41945,1,0,0:0:0:0:
64,192,42116,1,0,0:0:0:0:
192,192,42288,1,0,0:0:0:0:
320,192,42459,1,0,0:0:0:0:
448,192,42630,1,0,0:0:0:0:
64,192,42973,1,0,0:0:0:0:
192,192,43145,1,0,0:0:0:0:
320,192,43316,1,0,0:0:0:0:
448,192,43488,1,0,0:0:0:0:
320,192,43573,1,0,0:0:0:0:
448,192,43659,1,0,0:0:0:0:
320,192,43745,1,0,0:0:0:0:
64,192,43830,1,0,0:0:0:0:
192,192,43830,1,0,0:0:0:0:
192,192,44173,1,0,0:0:0:0:
320,192,44516,1,0,0:0:0:0:
448,192,44516,1,0,0:0:0:0:
192,192,45030,1,0,0:0:0:0:
64,192,45202,1,0,0:0:0:0:
320,192,45202,1,0,0:0:0:0:
320,192,45545,1,0,0:0:0:0:
192,192,45888,1,0,0:0:0:0:
64,192,45888,1,0,0:0:0:0:
320,192,46402,1,0,0:0:0:0:
192,192,46573,1,0,0:0:0:0:
448,192,46573,1,0,0:0:0:0:
64,192,46916,1,0,0:0:0:0:
192,192,47259,1,0,0:0:0:0:
320,192,47259,1,0,0:0:0:0:
192,192,47773,1,0,0:0:0:0:
64,192,47945,1,0,0:0:0:0:
320,192,47945,1,0,0:0:0:0:
448,192,48288,1,0,0:0:0:0:
320,192,48630,1,0,0:0:0:0:
192,192,48630,1,0,0:0:0:0:
320,192,49145,1,0,0:0:0:0:
192,192,49316,1,0,0:0:0:0:
448,192,49316,1,0,0:0:0:0:
192,192,49659,1,0,0:0:0:0:
320,192,50002,1,0,0:0:0:0:
64,192,50002,1,0,0:0:0:0:
192,192,50516,1,0,0:0:0:0:
320,192,50688,1,0,0:0:0:0:
448,192,50688,1,0,0:0:0:0:
320,192,51030,1,0,0:0:0:0:
448,192,51373,1,0,0:0:0:0:
192,192,51373,1,0,0:0:0:0:
320,192,51888,1,0,0:0:0:0:
64,192,52059,1,0,0:0:0:0:
192,192,52059,1,0,0:0:0:0:
320,192,52402,1,0,0:0:0:0:
192,192,52745,1,0,0:0:0:0:
64,192,52745,1,0,0:0:0:0:
448,192,52745,1,0,0:0:0:0:
448,192,53259,1,0,0:0:0:0:
64,192,53430,1,0,0:0:0:0:
320,192,53430,1,0,0:0:0:0:
192,192,53602,1,0,0:0:0:0:
320,192,53773,1,0,0:0:0:0:
64,192,53945,1,0,0:0:0:0:
192,192,54116,1,0,0:0:0:0:
64,192,54288,1,0,0:0:0:0:
320,192,54459,1,0,0:0:0:0:
64,192,54630,1,0,0:0:0:0:
320,192,54802,1,0,0:0:0:0:
448,192,54802,1,0,0:0:0:0:
192,192,55145,1,0,0:0:0:0:
448,192,55488,1,0,0:0:0:0:
320,192,55488,1,0,0:0:0:0:
192,192,56002,1,0,0:0:0:0:
320,192,56173,1,0,0:0:0:0:
64,192,56173,1,0,0:0:0:0:
320,192,56516,1,0,0:0:0:0:
64,192,56859,1,0,0:0:0:0:
192,192,56859,1,0,0:0:0:0:
320,192,57373,1,0,0:0:0:0:
448,192,57545,1,0,0:0:0:0:
192,192,57545,1,0,0:0:0:0:
64,192,57888,1,0,0:0:0:0:
320,192,58230,1,0,0:0:0:0:
192,192,58230,1,0,0:0:0:0:
192,192,58745,1,0,0:0:0:0:
320,192,58916,1,0,0:0:0:0:
64,192,58916,1,0,0:0:0:0:
320,192,59259,1,0,0:0:0:0:
448,192,59259,1,0,0:0:0:0:
64,192,59430,1,0,0:0:0:0:
192,192,59430,1,0,0:0:0:0:
320,192,59773,1,0,0:0:0:0:
192,192,59773,1,0,0:0:0:0:
64,192,60116,1,0,0:0:0:0:
448,192,60116,1,0,0:0:0:0:
320,192,60288,1,0,0:0:0:0:
192,192,60459,1,0,0:0:0:0:
320,192,60630,1,0,0:0:0:0:
448,192,60630,1,0,0:0:0:0:
320,192,60973,1,0,0:0:0:0:
448,192,60973,1,0,0:0:0:0:
320,192,61316,1,0,0:0:0:0:
448,192,61316,1,0,0:0:0:0:
64,192,61488,1,0,0:0:0:0:
448,192,61659,1,0,0:0:0:0:
320,192,61830,1,0,0:0:0:0:
64,192,62002,1,0,0:0:0:0:
192,192,62002,1,0,0:0:0:0:
64,192,62345,1,0,0:0:0:0:
192,192,62345,1,0,0:0:0:0:
448,192,62516,1,0,0:0:0:0:
192,192,62688,1,0,0:0:0:0:
448,192,62859,1,0,0:0:0:0:
320,192,62945,1,0,0:0:0:0:
192,192,63030,1,0,0:0:0:0:
64,192,63030,1,0,0:0:0:0:
320,192,63202,1,0,0:0:0:0:
448,192,63373,1,0,0:0:0:0:
448,192,63545,1,0,0:0:0:0:
192,192,63716,1,0,0:0:0:0:
320,192,63716,1,0,0:0:0:0:
64,192,63888,1,0,0:0:0:0:
64,192,64059,1,0,0:0:0:0:
192,192,64230,1,0,0:0:0:0:
320,192,64230,1,0,0:0:0:0:
448,192,64402,1,0,0:0:0:0:
64,192,64573,1,0,0:0:0:0:
192,192,65773,1,0,0:0:0:0:
320,192,65773,1,0,0:0:0:0:
448,192,66116,1,0,0:0:0:0:
192,192,66630,1,0,0:0:0:0:
64,192,66630,1,0,0:0:0:0:
320,192,66802,1,0,0:0:0:0:
448,192,66802,1,0,0:0:0:0:
192,192,67145,1,0,0:0:0:0:
64,192,67488,1,0,0:0:0:0:
320,192,68002,1,0,0:0:0:0:
448,192,68002,1,0,0:0:0:0:
64,192,68173,1,0,0:0:0:0:
192,192,68173,1,0,0:0:0:0:
320,192,68516,1,0,0:0:0:0:
192,192,68859,1,0,0:0:0:0:
320,192,69373,1,0,0:0:0:0:
448,192,69373,1,0,0:0:0:0:
320,192,69545,1,0,0:0:0:0:
448,192,69545,1,0,0:0:0:0:
192,192,69888,1,0,0:0:0:0:
320,192,70230,1,0,0:0:0:0:
64,192,70745,1,0,0:0:0:0:
192,192,70745,1,0,0:0:0:0:
64,192,70916,1,0,0:0:0:0:
192,192,70916,1,0,0:0:0:0:
320,192,71259,1,0,0:0:0:0:
448,192,71602,1,0,0:0:0:0:
64,192,72116,1,0,0:0:0:0:
320,192,72116,1,0,0:0:0:0:
64,192,72288,1,0,0:0:0:0:
320,192,72288,1,0,0:0:0:0:
192,192,72630,1,0,0:0:0:0:
64,192,72973,1,0,0:0:0:0:
192,192,73488,1,0,0:0:0:0:
448,192,73488,1,0,0:0:0:0:
192,192,73659,1,0,0:0:0:0:
448,192,73659,1,0,0:0:0:0:
320,192,74002,1,0,0:0:0:0:
64,192,74345,1,0,0:0:0:0:
448,192,74345,1,0,0:0:0:0:
192,192,74859,1,0,0:0:0:0:
320,192,74859,1,0,0:0:0:0:
192,192,75030,1,0,0:0:0:0:
320,192,75030,1,0,0:0:0:0:
64,192,75373,1,0,0:0:0:0:
320,192,75716,1,0,0:0:0:0:
448,192,75716,1,0,0:0:0:0:
64,192,76059,1,0,0:0:0:0:
192,192,76059,1,0,0:0:0:0:
64,192,76402,1,0,0:0:0:0:
192,192,76402,1,0,0:0:0:0:
448,192,76745,1,0,0:0:0:0:
448,192,76916,1,0,0:0:0:0:
192,192,77088,1,0,0:0:0:0:
320,192,77430,1,0,0:0:0:0:
448,192,77430,1,0,0:0:0:0:
192,192,77945,1,0,0:0:0:0:
64,192,78116,1,0,0:0:0:0:
320,192,78116,1,0,0:0:0:0:
320,192,78459,1,0,0:0:0:0:
192,192,78802,1,0,0:0:0:0:
64,192,78802,1,0,0:0:0:0:
320,192,79316,1,0,0:0:0:0:
192,192,79488,1,0,0:0:0:0:
448,192,79488,1,0,0:0:0:0:
64,192,79830,1,0,0:0:0:0:
192,192,80173,1,0,0:0:0:0:
320,192,80173,1,0,0:0:0:0:
192,192,80688,1,0,0:0:0:0:
64,192,80859,1,0,0:0:0:0:
320,192,80859,1,0,0:0:0:0:
448,192,81202,1,0,0:0:0:0:
320,192,81545,1,0,0:0:0:0:
192,192,81545,1,0,0:0:0:0:
320,192,82059,1,0,0:0:0:0:
192,192,82230,1,0,0:0:0:0:
448,192,82230,1,0,0:0:0:0:
320,192,82573,1,0,0:0:0:0:
64,192,82916,1,0,0:0:0:0:
192,192,82916,1,0,0:0:0:0:
448,192,83173,1,0,0:0:0:0:
192,192,83516,1,0,0:0:0:0:
64,192,83516,1,0,0:0:0:0:
192,192,83945,1,0,0:0:0:0:
448,192,84288,1,0,0:0:0:0:
320,192,84288,1,0,0:0:0:0:
64,192,84630,1,0,0:0:0:0:
448,192,84973,1,0,0:0:0:0:
320,192,84973,1,0,0:0:0:0:
64,192,85316,1,0,0:0:0:0:
320,192,85488,1,0,0:0:0:0:
192,192,85659,1,0,0:0:0:0:
64,192,85830,1,0,0:0:0:0:
448,192,86002,1,0,0:0:0:0:
320,192,86173,1,0,0:0:0:0:
192,192,86345,1,0,0:0:0:0:
64,192,86516,1,0,0:0:0:0:
448,192,86688,1,0,0:0:0:0:
320,192,86859,1,0,0:0:0:0:
192,192,87030,1,0,0:0:0:0:
64,192,87202,1,0,0:0:0:0:
448,192,87373,1,0,0:0:0:0:
320,192,87545,1,0,0:0:0:0:
192,192,87716,1,0,0:0:0:0:
64,192,87888,1,0,0:0:0:0:
192,192,89430,1,0,0:0:0:0:
448,192,89773,1,0,0:0:0:0:
320,192,89773,1,0,0:0:0:0:
192,192,90288,1,0,0:0:0:0:
64,192,90459,1,0,0:0:0:0:
320,192,90459,128,0,90802:0:0:0:0:
448,192,90802,1,0,0:0:0:0:
64,192,91145,1,0,0:0:0:0:
192,192,91145,1,0,0:0:0:0:
320,192,91659,1,0,0:0:0:0:
448,192,91830,1,0,0:0:0:0:
320,192,92002,1,0,0:0:0:0:
64,192,92173,1,0,0:0:0:0:
64,192,92516,1,0,0:0:0:0:
192,192,92688,1,0,0:0:0:0:
448,192,92859,1,0,0:0:0:0:
192,192,93030,1,0,0:0:0:0:
64,192,93202,1,0,0:0:0:0:
320,192,93202,128,0,93545:0:0:0:0:
448,192,93545,1,0,0:0:0:0:
192,192,93888,1,0,0:0:0:0:
320,192,93888,1,0,0:0:0:0:
320,192,94402,1,0,0:0:0:0:
448,192,94573,1,0,0:0:0:0:
192,192,94573,1,0,0:0:0:0:
192,192,94916,1,0,0:0:0:0:
64,192,95259,1,0,0:0:0:0:
320,192,95259,1,0,0:0:0:0:
192,192,95773,1,0,0:0:0:0:
320,192,95945,1,0,0:0:0:0:
64,192,95945,128,0,96288:0:0:0:0:
320,192,96288,1,0,0:0:0:0:
192,192,96630,1,0,0:0:0:0:
448,192,96630,1,0,0:0:0:0:
320,192,97145,1,0,0:0:0:0:
192,192,97316,1,0,0:0:0:0:
64,192,97316,1,0,0:0:0:0:
192,192,97659,1,0,0:0:0:0:
320,192,98002,1,0,0:0:0:0:
448,192,98002,1,0,0:0:0:0:
192,192,98516,1,0,0:0:0:0:
64,192,98688,1,0,0:0:0:0:
192,192,98773,1,0,0:0:0:0:
320,192,98945,1,0,0:0:0:0:
448,192,99030,1,0,0:0:0:0:
192,192,99373,1,0,0:0:0:0:
64,192,99373,1,0,0:0:0:0:
320,192,99888,1,0,0:0:0:0:
192,192,100059,1,0,0:0:0:0:
448,192,100059,1,0,0:0:0:0:
64,192,100402,1,0,0:0:0:0:
192,192,100745,1,0,0:0:0:0:
320,192,100745,1,0,0:0:0:0:
192,192,101259,1,0,0:0:0:0:
64,192,101430,1,0,0:0:0:0:
320,192,101430,128,0,101773:0:0:0:0:
448,192,101773,1,0,0:0:0:0:
320,192,102116,1,0,0:0:0:0:
192,192,102116,1,0,0:0:0:0:
320,192,102630,1,0,0:0:0:0:
448,192,102802,1,0,0:0:0:0:
320,192,102973,1,0,0:0:0:0:
192,192,103145,1,0,0:0:0:0:
64,192,103488,1,0,0:0:0:0:
192,192,103659,1,0,0:0:0:0:
320,192,103830,1,0,0:0:0:0:
192,192,104002,1,0,0:0:0:0:
320,192,104173,1,0,0:0:0:0:
448,192,104173,128,0,104516:0:0:0:0:
320,192,104516,1,0,0:0:0:0:
448,192,104859,1,0,0:0:0:0:
192,192,104859,1,0,0:0:0:0:
320,192,105373,1,0,0:0:0:0:
64,192,105545,1,0,0:0:0:0:
192,192,105545,1,0,0:0:0:0:
320,192,105888,1,0,0:0:0:0:
192,192,106230,1,0,0:0:0:0:
64,192,106230,1,0,0:0:0:0:
448,192,106488,1,0,0:0:0:0:
64,192,106830,1,0,0:0:0:0:
192,192,106830,1,0,0:0:0:0:
192,192,107259,1,0,0:0:0:0:
320,192,107602,1,0,0:0:0:0:
448,192,107602,1,0,0:0:0:0:
64,192,107945,1,0,0:0:0:0:
320,192,108288,1,0,0:0:0:0:
448,192,108288,1,0,0:0:0:0:
64,192,108630,1,0,0:0:0:0:
320,192,108802,1,0,0:0:0:0:
192,192,108973,1,0,0:0:0:0:
64,192,109145,1,0,0:0:0:0:
448,192,109316,1,0,0:0:0:0:
320,192,109488,1,0,0:0:0:0:
192,192,109659,1,0,0:0:0:0:
64,192,109830,1,0,0:0:0:0:
448,192,110173,1,0,0:0:0:0:
320,192,110345,1,0,0:0:0:0:
192,192,110516,1,0,0:0:0:0:
64,192,110688,1,0,0:0:0:0:
192,192,110773,1,0,0:0:0:0:
64,192,110859,1,0,0:0:0:0:
192,192,110945,1,0,0:0:0:0:
320,192,111030,1,0,0:0:0:0:
448,192,111030,1,0,0:0:0:0:
64,192,111373,128,0,111888:0:0:0:0:
192,192,111888,128,0,112402:0:0:0:0:
320,192,112402,128,0,113430:0:0:0:0:
448,192,113430,128,0,114116:0:0:0:0:
192,192,114116,128,0,114973:0:0:0:0:
64,192,114973,128,0,115488:0:0:0:0:
448,192,115488,128,0,116088:0:0:0:0:
192,192,116088,128,0,116516:0:0:0:0:
320,192,116516,128,0,118830:0:0:0:0:
64,192,118830,128,0,119259:0:0:0:0:
192,192,119259,128,0,120973:0:0:0:0:
448,192,120973,128,0,122345:0:0:0:0:
64,192,122345,128,0,122859:0:0:0:0:
192,192,122859,128,0,123288:0:0:0:0:
320,192,123288,128,0,124402:0:0:0:0:
64,192,124402,128,0,125088:0:0:0:0:
192,192,124402,128,0,125088:0:0:0:0:
448,192,125088,128,0,125945:0:0:0:0:
192,192,125945,128,0,126288:0:0:0:0:
320,192,125945,128,0,126288:0:0:0:0:
64,192,126288,128,0,126973:0:0:0:0:
192,192,126973,128,0,127830:0:0:0:0:
320,192,127830,128,0,129802:0:0:0:0:
64,192,129888,128,0,130402:0:0:0:0:
320,192,130402,128,0,132973:0:0:0:0:
448,192,130402,128,0,132973:0:0:0:0:
192,192,133316,1,0,0:0:0:0:
320,192,133659,1,0,0:0:0:0:
448,192,133659,1,0,0:0:0:0:
192,192,134173,1,0,0:0:0:0:
64,192,134345,1,0,0:0:0:0:
320,192,134345,1,0,0:0:0:0:
320,192,134688,1,0,0:0:0:0:
192,192,135030,1,0,0:0:0:0:
64,192,135030,1,0,0:0:0:0:
320,192,135545,1,0,0:0:0:0:
192,192,135716,1,0,0:0:0:0:
448,192,135716,1,0,0:0:0:0:
64,192,136059,1,0,0:0:0:0:
192,192,136402,1,0,0:0:0:0:
320,192,136402,1,0,0:0:0:0:
192,192,136916,1,0,0:0:0:0:
64,192,137088,1,0,0:0:0:0:
320,192,137088,1,0,0:0:0:0:
448,192,137430,1,0,0:0:0:0:
320,192,137773,1,0,0:0:0:0:
192,192,137773,1,0,0:0:0:0:
320,192,138288,1,0,0:0:0:0:
192,192,138459,1,0,0:0:0:0:
448,192,138459,1,0,0:0:0:0:
192,192,138802,1,0,0:0:0:0:
320,192,139145,1,0,0:0:0:0:
64,192,139145,1,0,0:0:0:0:
192,192,139659,1,0,0:0:0:0:
320,192,139830,1,0,0:0:0:0:
448,192,139830,1,0,0:0:0:0:
320,192,140173,1,0,0:0:0:0:
448,192,140516,1,0,0:0:0:0:
192,192,140516,1,0,0:0:0:0:
320,192,141030,1,0,0:0:0:0:
64,192,141202,1,0,0:0:0:0:
192,192,141202,1,0,0:0:0:0:
320,192,141545,1,0,0:0:0:0:
192,192,141888,1,0,0:0:0:0:
64,192,141888,1,0,0:0:0:0:
448,192,141888,1,0,0:0:0:0:
448,192,142402,1,0,0:0:0:0:
64,192,142573,1,0,0:0:0:0:
320,192,142573,1,0,0:0:0:0:
192,192,142745,1,0,0:0:0:0:
320,192,142916,1,0,0:0:0:0:
64,192,143088,1,0,0:0:0:0:
192,192,143259,1,0,0:0:0:0:
64,192,143430,1,0,0:0:0:0:
320,192,143602,1,0,0:0:0:0:
64,192,143773,1,0,0:0:0:0:
320,192,143945,1,0,0:0:0:0:
448,192,143945,1,0,0:0:0:0:
192,192,144288,1,0,0:0:0:0:
448,192,144630,1,0,0:0:0:0:
320,192,144630,1,0,0:0:0:0:
192,192,145145,1,0,0:0:0:0:
320,192,145316,1,0,0:0:0:0:
64,192,145316,1,0,0:0:0:0:
320,192,145659,1,0,0:0:0:0:
64,192,146002,1,0,0:0:0:0:
192,192,146002,1,0,0:0:0:0:
320,192,146516,1,0,0:0:0:0:
448,192,146688,1,0,0:0:0:0:
192,192,146688,1,0,0:0:0:0:
64,192,147030,1,0,0:0:0:0:
320,192,147373,1,0,0:0:0:0:
192,192,147373,1,0,0:0:0:0:
192,192,147888,1,0,0:0:0:0:
320,192,148059,1,0,0:0:0:0:
64,192,148059,1,0,0:0:0:0:
320,192,148402,1,0,0:0:0:0:
448,192,148402,1,0,0:0:0:0:
64,192,148573,1,0,0:0:0:0:
192,192,148573,1,0,0:0:0:0:
320,192,148916,1,0,0:0:0:0:
192,192,148916,1,0,0:0:0:0:
64,192,149259,1,0,0:0:0:0:
448,192,149259,1,0,0:0:0:0:
320,192,149430,1,0,0:0:0:0:
192,192,149602,1,0,0:0:0:0:
320,192,149773,1,0,0:0:0:0:
448,192,149773,1,0,0:0:0:0:
320,192,150116,1,0,0:0:0:0:
448,192,150116,1,0,0:0:0:0:
320,192,150459,1,0,0:0:0:0:
448,192,150459,1,0,0:0:0:0:
64,192,150630,1,0,0:0:0:0:
448,192,150802,1,0,0:0:0:0:
320,192,150973,1,0,0:0:0:0:
64,192,151145,1,0,0:0:0:0:
192,192,151145,1,0,0:0:0:0:
64,192,151488,1,0,0:0:0:0:
192,192,151488,1,0,0:0:0:0:
448,192,151659,1,0,0:0:0:0:
192,192,151830,1,0,0:0:0:0:
448,192,152002,1,0,0:0:0:0:
320,192,152088,1,0,0:0:0:0:
192,192,152173,1,0,0:0:0:0:
64,192,152173,1,0,0:0:0:0:
320,192,152345,1,0,0:0:0:0:
448,192,152516,1,0,0:0:0:0:
448,192,152688,1,0,0:0:0:0:
192,192,152859,1,0,0:0:0:0:
320,192,152859,1,0,0:0:0:0:
64,192,153030,1,0,0:0:0:0:
64,192,153202,1,0,0:0:0:0:
192,192,153373,1,0,0:0:0:0:
320,192,153373,1,0,0:0:0:0:
448,192,153545,1,0,0:0:0:0:
64,192,153716,1,0,0:0:0:0:
192,192,154916,1,0,0:0:0:0:
320,192,154916,1,0,0:0:0:0:
448,192,155259,1,0,0:0:0:0:
192,192,155773,1,0,0:0:0:0:
64,192,155773,1,0,0:0:0:0:
320,192,155945,1,0,0:0:0:0:
448,192,155945,1,0,0:0:0:0:
192,192,156288,1,0,0:0:0:0:
64,192,156630,1,0,0:0:0:0:
320,192,157145,1,0,0:0:0:0:
448,192,157145,1,0,0:0:0:0:
64,192,157316,1,0,0:0:0:0:
192,192,157316,1,0,0:0:0:0:
320,192,157659,1,0,0:0:0:0:
192,192,158002,1,0,0:0:0:0:
320,192,158516,1,0,0:0:0:0:
448,192,158516,1,0,0:0:0:0:
320,192,158688,1,0,0:0:0:0:
448,192,158688,1,0,0:0:0:0:
192,192,159030,1,0,0:0:0:0:
320,192,159373,1,0,0:0:0:0:
64,192,159888,1,0,0:0:0:0:
192,192,159888,1,0,0:0:0:0:
64,192,160059,1,0,0:0:0:0:
192,192,160059,1,0,0:0:0:0:
320,192,160402,1,0,0:0:0:0:
448,192,160745,1,0,0:0:0:0:
64,192,161259,1,0,0:0:0:0:
320,192,161259,1,0,0:0:0:0:
64,192,161430,1,0,0:0:0:0:
320,192,161430,1,0,0:0:0:0:
192,192,161773,1,0,0:0:0:0:
64,192,162116,1,0,0:0:0:0:
192,192,162630,1,0,0:0:0:0:
448,192,162630,1,0,0:0:0:0:
192,192,162802,1,0,0:0:0:0:
448,192,162802,1,0,0:0:0:0:
320,192,163145,1,0,0:0:0:0:
64,192,163488,1,0,0:0:0:0:
448,192,163488,1,0,0:0:0:0:
192,192,164002,1,0,0:0:0:0:
320,192,164002,1,0,0:0:0:0:
192,192,164173,1,0,0:0:0:0:
320,192,164173,1,0,0:0:0:0:
64,192,164516,1,0,0:0:0:0:
320,192,164859,1,0,0:0:0:0:
448,192,164859,1,0,0:0:0:0:
64,192,165202,1,0,0:0:0:0:
192,192,165202,1,0,0:0:0:0:
64,192,165545,1,0,0:0:0:0:
192,192,165545,1,0,0:0:0:0:
448,192,165888,1,0,0:0:0:0:
448,192,166059,1,0,0:0:0:0:
192,192,166230,1,0,0:0:0:0:
320,192,166573,1,0,0:0:0:0:
448,192,166573,1,0,0:0:0:0:
192,192,167088,1,0,0:0:0:0:
64,192,167259,1,0,0:0:0:0:
320,192,167259,1,0,0:0:0:0:
320,192,167602,1,0,0:0:0:0:
192,192,167945,1,0,0:0:0:0:
64,192,167945,1,0,0:0:0:0:
320,192,168459,1,0,0:0:0:0:
192,192,168630,1,0,0:0:0:0:
448,192,168630,1,0,0:0:0:0:
64,192,168973,1,0,0:0:0:0:
192,192,169316,1,0,0:0:0:0:
320,192,169316,1,0,0:0:0:0:
192,192,169830,1,0,0:0:0:0:
64,192,170002,1,0,0:0:0:0:
320,192,170002,1,0,0:0:0:0:
448,192,170345,1,0,0:0:0:0:
320,192,170688,1,0,0:0:0:0:
192,192,170688,1,0,0:0:0:0:
320,192,171202,1,0,0:0:0:0:
192,192,171373,1,0,0:0:0:0:
448,192,171373,1,0,0:0:0:0:
320,192,171716,1,0,0:0:0:0:
64,192,172059,1,0,0:0:0:0:
192,192,172059,1,0,0:0:0:0:
448,192,172316,1,0,0:0:0:0:
192,192,172659,1,0,0:0:0:0:
64,192,172659,1,0,0:0:0:0:
192,192,173088,1,0,0:0:0:0:
448,192,173430,1,0,0:0:0:0:
320,192,173430,1,0,0:0:0:0:
64,192,173773,1,0,0:0:0:0:
448,192,174116,1,0,0:0:0:0:
320,192,174116,1,0,0:0:0:0:
64,192,174459,1,0,0:0:0:0:
320,192,174630,1,0,0:0:0:0:
192,192,174802,1,0,0:0:0:0:
64,192,174973,1,0,0:0:0:0:
448,192,175145,1,0,0:0:0:0:
320,192,175316,1,0,0:0:0:0:
192,192,175488,1,0,0:0:0:0:
64,192,175659,1,0,0:0:0:0:
448,192,175830,1,0,0:0:0:0:
320,192,176002,1,0,0:0:0:0:
192,192,176173,1,0,0:0:0:0:
64,192,176345,1,0,0:0:0:0:
448,192,176516,1,0,0:0:0:0:
320,192,176688,1,0,0:0:0:0:
192,192,176859,1,0,0:0:0:0:
64,192,177030,1,0,0:0:0:0:
192,192,178573,1,0,0:0:0:0:
320,192,178916,1,0,0:0:0:0:
448,192,178916,1,0,0:0:0:0:
192,192,179430,1,0,0:0:0:0:
320,192,179602,128,0,179945:0:0:0:0:
64,192,179602,1,0,0:0:0:0:
448,192,179945,1,0,0:0:0:0:
192,192,180288,1,0,0:0:0:0:
64,192,180288,1,0,0:0:0:0:
320,192,180802,1,0,0:0:0:0:
448,192,180973,1,0,0:0:0:0:
320,192,181145,1,0,0:0:0:0:
64,192,181316,1,0,0:0:0:0:
64,192,181659,1,0,0:0:0:0:
192,192,181830,1,0,0:0:0:0:
448,192,182002,1,0,0:0:0:0:
192,192,182173,1,0,0:0:0:0:
320,192,182345,128,0,182688:0:0:0:0:
64,192,182345,1,0,0:0:0:0:
448,192,182688,1,0,0:0:0:0:
320,192,183030,1,0,0:0:0:0:
192,192,183030,1,0,0:0:0:0:
320,192,183545,1,0,0:0:0:0:
192,192,183716,1,0,0:0:0:0:
448,192,183716,1,0,0:0:0:0:
192,192,184059,1,0,0:0:0:0:
320,192,184402,1,0,0:0:0:0:
64,192,184402,1,0,0:0:0:0:
192,192,184916,1,0,0:0:0:0:
64,192,185088,128,0,185430:0:0:0:0:
320,192,185088,1,0,0:0:0:0:
320,192,185430,1,0,0:0:0:0:
448,192,185773,1,0,0:0:0:0:
192,192,185773,1,0,0:0:0:0:
320,192,186288,1,0,0:0:0:0:
64,192,186459,1,0,0:0:0:0:
192,192,186459,1,0,0:0:0:0:
192,192,186802,1,0,0:0:0:0:
448,192,187145,1,0,0:0:0:0:
320,192,187145,1,0,0:0:0:0:
192,192,187659,1,0,0:0:0:0:
64,192,187830,1,0,0:0:0:0:
192,192,187916,1,0,0:0:0:0:
320,192,188088,1,0,0:0:0:0:
448,192,188173,1,0,0:0:0:0:
64,192,188516,1,0,0:0:0:0:
192,192,188516,1,0,0:0:0:0:
320,192,189030,1,0,0:0:0:0:
448,192,189202,1,0,0:0:0:0:
192,192,189202,1,0,0:0:0:0:
64,192,189545,1,0,0:0:0:0:
320,192,189888,1,0,0:0:0:0:
192,192,189888,1,0,0:0:0:0:
192,192,190402,1,0,0:0:0:0:
320,192,190573,128,0,190916:0:0:0:0:
64,192,190573,1,0,0:0:0:0:
448,192,190916,1,0,0:0:0:0:
192,192,191259,1,0,0:0:0:0:
320,192,191259,1,0,0:0:0:0:
320,192,191773,1,0,0:0:0:0:
448,192,191945,1,0,0:0:0:0:
320,192,192116,1,0,0:0:0:0:
192,192,192288,1,0,0:0:0:0:
64,192,192630,1,0,0:0:0:0:
192,192,192802,1,0,0:0:0:0:
320,192,192973,1,0,0:0:0:0:
192,192,193145,1,0,0:0:0:0:
448,192,193316,128,0,193659:0:0:0:0:
320,192,193316,1,0,0:0:0:0:
320,192,193659,1,0,0:0:0:0:
192,192,194002,1,0,0:0:0:0:
448,192,194002,1,0,0:0:0:0:
320,192,194516,1,0,0:0:0:0:
192,192,194688,1,0,0:0:0:0:
64,192,194688,1,0,0:0:0:0:
320,192,195030,1,0,0:0:0:0:
64,192,195373,1,0,0:0:0:0:
192,192,195373,1,0,0:0:0:0:
448,192,195630,1,0,0:0:0:0:
192,192,195973,1,0,0:0:0:0:
64,192,195973,1,0,0:0:0:0:
192,192,196402,1,0,0:0:0:0:
448,192,196745,1,0,0:0:0:0:
320,192,196745,1,0,0:0:0:0:
64,192,197088,1,0,0:0:0:0:
448,192,197430,1,0,0:0:0:0:
320,192,197430,1,0,0:0:0:0:
64,192,197773,1,0,0:0:0:0:
320,192,197945,1,0,0:0:0:0:
192,192,198116,1,0,0:0:0:0:
64,192,198288,1,0,0:0:0:0:
448,192,198459,1,0,0:0:0:0:
320,192,198630,1,0,0:0:0:0:
192,192,198802,1,0,0:0:0:0:
64,192,198973,1,0,0:0:0:0:
448,192,199316,1,0,0:0:0:0:
320,192,199488,1,0,0:0:0:0:
192,192,199659,1,0,0:0:0:0:
64,192,199830,1,0,0:0:0:0:
192,192,199916,1,0,0:0:0:0:
64,192,200002,1,0,0:0:0:0:
192,192,200088,1,0,0:0:0:0:
448,192,200173,1,0,0:0:0:0:
320,192,200173,1,0,0:0:0:0:
64,192,200516,128,0,201716:0:0:0:0:
192,192,201716,128,0,203259:0:0:0:0:
448,192,203259,128,0,204459:0:0:0:0:
320,192,204459,128,0,206002:0:0:0:0:
64,192,206002,128,0,208745:0:0:0:0:
192,192,206002,128,0,208745:0:0:0:0:
320,192,208745,128,0,210116:0:0:0:0:
448,192,208745,128,0,210116:0:0:0:0:
192,192,210116,128,0,211488:0:0:0:0:
64,192,212859,1,0,0:0:0:0:
448,192,213030,1,0,0:0:0:0:
64,192,213202,1,0,0:0:0:0:
448,192,213373,1,0,0:0:0:0:
64,192,213545,1,0,0:0:0:0:
448,192,213716,1,0,0:0:0:0:
64,192,213888,1,0,0:0:0:0:
448,192,214059,1,0,0:0:0:0:
320,192,214230,1,0,0:0:0:0:
192,192,214402,1,0,0:0:0:0:
320,192,214573,1,0,0:0:0:0:
192,192,214745,1,0,0:0:0:0:
320,192,214916,1,0,0:0:0:0:
192,192,215088,1,0,0:0:0:0:
320,192,215259,1,0,0:0:0:0:
192,192,215430,1,0,0:0:0:0:
320,192,215602,1,0,0:0:0:0:
448,192,215773,1,0,0:0:0:0:
320,192,215945,1,0,0:0:0:0:
192,192,216116,1,0,0:0:0:0:
64,192,216288,1,0,0:0:0:0:
320,192,216459,1,0,0:0:0:0:
192,192,216630,1,0,0:0:0:0:
64,192,216802,1,0,0:0:0:0:
448,192,216973,1,0,0:0:0:0:
64,192,217145,1,0,0:0:0:0:
448,192,217316,1,0,0:0:0:0:
64,192,217488,1,0,0:0:0:0:
448,192,217659,1,0,0:0:0:0:
64,192,217830,1,0,0:0:0:0:
448,192,218002,1,0,0:0:0:0:
64,192,218173,1,0,0:0:0:0:
192,192,218345,1,0,0:0:0:0:
320,192,218516,1,0,0:0:0:0:
192,192,218688,1,0,0:0:0:0:
320,192,218859,1,0,0:0:0:0:
192,192,219030,1,0,0:0:0:0:
320,192,219202,1,0,0:0:0:0:
192,192,219373,1,0,0:0:0:0:
320,192,219545,1,0,0:0:0:0:
448,192,219716,1,0,0:0:0:0:
192,192,219888,1,0,0:0:0:0:
448,192,220059,1,0,0:0:0:0:
192,192,220230,1,0,0:0:0:0:
448,192,220402,1,0,0:0:0:0:
192,192,220573,1,0,0:0:0:0:
448,192,220745,1,0,0:0:0:0:
192,192,220916,1,0,0:0:0:0:
320,192,221088,1,0,0:0:0:0:
64,192,221259,1,0,0:0:0:0:
320,192,221430,1,0,0:0:0:0:
64,192,221602,1,0,0:0:0:0:
320,192,221773,1,0,0:0:0:0:
64,192,221945,1,0,0:0:0:0:
320,192,222116,1,0,0:0:0:0:
64,192,222288,1,0,0:0:0:0:
320,192,223488,1,0,0:0:0:0:
448,192,223488,1,0,0:0:0:0:
64,192,223488,1,0,0:0:0:0:
192,192,223830,1,0,0:0:0:0:
320,192,224173,1,0,0:0:0:0:
448,192,224173,1,0,0:0:0:0:
192,192,224688,1,0,0:0:0:0:
320,192,224859,128,0,225202:0:0:0:0:
64,192,224859,1,0,0:0:0:0:
448,192,225202,1,0,0:0:0:0:
192,192,225545,1,0,0:0:0:0:
64,192,225545,1,0,0:0:0:0:
320,192,226059,1,0,0:0:0:0:
448,192,226230,1,0,0:0:0:0:
320,192,226402,1,0,0:0:0:0:
64,192,226573,1,0,0:0:0:0:
64,192,226916,1,0,0:0:0:0:
192,192,227088,1,0,0:0:0:0:
448,192,227259,1,0,0:0:0:0:
192,192,227430,1,0,0:0:0:0:
320,192,227602,128,0,227945:0:0:0:0:
64,192,227602,1,0,0:0:0:0:
448,192,227945,1,0,0:0:0:0:
320,192,228288,1,0,0:0:0:0:
192,192,228288,1,0,0:0:0:0:
320,192,228802,1,0,0:0:0:0:
192,192,228973,1,0,0:0:0:0:
448,192,228973,1,0,0:0:0:0:
192,192,229316,1,0,0:0:0:0:
320,192,229659,1,0,0:0:0:0:
64,192,229659,1,0,0:0:0:0:
192,192,230173,1,0,0:0:0:0:
64,192,230345,128,0,230688:0:0:0:0:
320,192,230345,1,0,0:0:0:0:
320,192,230688,1,0,0:0:0:0:
448,192,231030,1,0,0:0:0:0:
192,192,231030,1,0,0:0:0:0:
320,192,231545,1,0,0:0:0:0:
64,192,231716,1,0,0:0:0:0:
192,192,231716,1,0,0:0:0:0:
192,192,232059,1,0,0:0:0:0:
448,192,232402,1,0,0:0:0:0:
320,192,232402,1,0,0:0:0:0:
192,192,232916,1,0,0:0:0:0:
64,192,233088,1,0,0:0:0:0:
192,192,233173,1,0,0:0:0:0:
320,192,233345,1,0,0:0:0:0:
448,192,233430,1,0,0:0:0:0:
64,192,233773,1,0,0:0:0:0:
192,192,233773,1,0,0:0:0:0:
320,192,234288,1,0,0:0:0:0:
448,192,234459,1,0,0:0:0:0:
192,192,234459,1,0,0:0:0:0:
64,192,234802,1,0,0:0:0:0:
320,192,235145,1,0,0:0:0:0:
192,192,235145,1,0,0:0:0:0:
192,192,235659,1,0,0:0:0:0:
320,192,235830,128,0,236173:0:0:0:0:
64,192,235830,1,0,0:0:0:0:
448,192,236173,1,0,0:0:0:0:
192,192,236516,1,0,0:0:0:0:
320,192,236516,1,0,0:0:0:0:
320,192,237030,1,0,0:0:0:0:
448,192,237202,1,0,0:0:0:0:
320,192,237373,1,0,0:0:0:0:
192,192,237545,1,0,0:0:0:0:
64,192,237888,1,0,0:0:0:0:
192,192,238059,1,0,0:0:0:0:
320,192,238230,1,0,0:0:0:0:
192,192,238402,1,0,0:0:0:0:
448,192,238573,128,0,238916:0:0:0:0:
320,192,238573,1,0,0:0:0:0:
320,192,238916,1,0,0:0:0:0:
192,192,239259,1,0,0:0:0:0:
448,192,239259,1,0,0:0:0:0:
320,192,239773,1,0,0:0:0:0:
192,192,239945,1,0,0:0:0:0:
64,192,239945,1,0,0:0:0:0:
320,192,240288,1,0,0:0:0:0:
64,192,240630,1,0,0:0:0:0:
192,192,240630,1,0,0:0:0:0:
448,192,240888,1,0,0:0:0:0:
192,192,241230,1,0,0:0:0:0:
64,192,241230,1,0,0:0:0:0:
192,192,241659,1,0,0:0:0:0:
448,192,242002,1,0,0:0:0:0:
320,192,242002,1,0,0:0:0:0:
64,192,242345,1,0,0:0:0:0:
448,192,242688,1,0,0:0:0:0:
320,192,242688,1,0,0:0:0:0:
64,192,243030,1,0,0:0:0:0:
320,192,243202,1,0,0:0:0:0:
192,192,243373,1,0,0:0:0:0:
64,192,243545,1,0,0:0:0:0:
448,192,243716,1,0,0:0:0:0:
320,192,243888,1,0,0:0:0:0:
192,192,244059,1,0,0:0:0:0:
64,192,244230,1,0,0:0:0:0:
448,192,244573,1,0,0:0:0:0:
320,192,244745,1,0,0:0:0:0:
192,192,244916,1,0,0:0:0:0:
64,192,245088,1,0,0:0:0:0:
192,192,245173,1,0,0:0:0:0:
64,192,245259,1,0,0:0:0:0:
192,192,245345,1,0,0:0:0:0:
448,192,245430,1,0,0:0:0:0:
320,192,245430,1,0,0:0:0:0:
64,192,245773,128,0,246288:0:0:0:0:
192,192,246288,128,0,246802:0:0:0:0:
320,192,246802,128,0,247830:0:0:0:0:
448,192,247830,128,0,248516:0:0:0:0:
192,192,248516,128,0,249373:0:0:0:0:
64,192,249373,128,0,249888:0:0:0:0:
448,192,249888,128,0,250488:0:0:0:0:
192,192,250488,128,0,250916:0:0:0:0:
320,192,250916,128,0,253230:0:0:0:0:
64,192,253230,128,0,253659:0:0:0:0:
192,192,253659,128,0,255373:0:0:0:0:
448,192,255373,128,0,256745:0:0:0:0:
64,192,256745,128,0,257259:0:0:0:0:
192,192,257259,128,0,257688:0:0:0:0:
320,192,257688,128,0,258802:0:0:0:0:
64,192,258802,128,0,259488:0:0:0:0:
192,192,258802,128,0,259488:0:0:0:0:
448,192,259488,128,0,260345:0:0:0:0:
192,192,260345,128,0,260688:0:0:0:0:
320,192,260345,128,0,260688:0:0:0:0:
64,192,260688,128,0,261373:0:0:0:0:
192,192,261373,128,0,262230:0:0:0:0:
320,192,262230,128,0,264202:0:0:0:0:
64,192,264288,128,0,264802:0:0:0:0:
320,192,264802,128,0,267373:0:0:0:0:
448,192,264802,128,0,267373:0:0:0:0:
64,192,267716,1,0,0:0:0:0:
192,192,267888,1,0,0:0:0:0:
320,192,268059,1,0,0:0:0:0:
448,192,268230,1,0,0:0:0:0:
192,192,268402,1,0,0:0:0:0:
320,192,268573,1,0,0:0:0:0:
64,192,268745,1,0,0:0:0:0:
448,192,268916,1,0,0:0:0:0:
192,192,269088,1,0,0:0:0:0:
320,192,269259,1,0,0:0:0:0:
448,192,269430,1,0,0:0:0:0:
64,192,269602,1,0,0:0:0:0:
320,192,269773,1,0,0:0:0:0:
192,192,269945,1,0,0:0:0:0:
320,192,270116,1,0,0:0:0:0:
448,192,270288,1,0,0:0:0:0:
320,192,270459,1,0,0:0:0:0:
192,192,270630,1,0,0:0:0:0:
64,192,270802,1,0,0:0:0:0:
320,192,270973,1,0,0:0:0:0:
64,192,271145,1,0,0:0:0:0:
192,192,271316,1,0,0:0:0:0:
448,192,271488,1,0,0:0:0:0:
320,192,271659,1,0,0:0:0:0:
64,192,271830,1,0,0:0:0:0:
192,192,271830,1,0,0:0:0:0:
320,192,272002,1,0,0:0:0:0:
448,192,272345,1,0,0:0:0:0:
448,192,272602,1,0,0:0:0:0:
320,192,272859,1,0,0:0:0:0:
320,192,273116,1,0,0:0:0:0:
64,192,273202,1,0,0:0:0:0:
192,192,273373,1,0,0:0:0:0:
448,192,273545,1,0,0:0:0:0:
320,192,273716,1,0,0:0:0:0:
192,192,273888,1,0,0:0:0:0:
320,192,274059,1,0,0:0:0:0:
64,192,274230,1,0,0:0:0:0:
192,192,274402,1,0,0:0:0:0:
448,192,274573,1,0,0:0:0:0:
320,192,274745,1,0,0:0:0:0:
64,192,274916,1,0,0:0:0:0:
192,192,275088,1,0,0:0:0:0:
320,192,275259,1,0,0:0:0:0:
192,192,275430,1,0,0:0:0:0:
448,192,275602,1,0,0:0:0:0:
320,192,275773,1,0,0:0:0:0:
192,192,275945,1,0,0:0:0:0:
64,192,276116,1,0,0:0:0:0:
192,192,276288,1,0,0:0:0:0:
448,192,276459,1,0,0:0:0:0:
320,192,276630,1,0,0:0:0:0:
448,192,276802,1,0,0:0:0:0:
320,192,276973,1,0,0:0:0:0:
64,192,277145,1,0,0:0:0:0:
192,192,277145,1,0,0:0:0:0:
448,192,277402,1,0,0:0:0:0:
192,192,277830,1,0,0:0:0:0:
320,192,277830,1,0,0:0:0:0:
64,192,278088,1,0,0:0:0:0:
192,192,278259,1,0,0:0:0:0:
320,192,278430,1,0,0:0:0:0:
64,192,278688,1,0,0:0:0:0:
192,192,278859,1,0,0:0:0:0:
448,192,279030,1,0,0:0:0:0:
320,192,279202,1,0,0:0:0:0:
192,192,279373,1,0,0:0:0:0:
320,192,279545,1,0,0:0:0:0:
64,192,279716,1,0,0:0:0:0:
192,192,279888,1,0,0:0:0:0:
448,192,280059,1,0,0:0:0:0:
320,192,280230,1,0,0:0:0:0:
64,192,280402,1,0,0:0:0:0:
192,192,280573,1,0,0:0:0:0:
320,192,280745,1,0,0:0:0:0:
192,192,280916,1,0,0:0:0:0:
448,192,281088,1,0,0:0:0:0:
320,192,281259,1,0,0:0:0:0:
192,192,281430,1,0,0:0:0:0:
320,192,281602,1,0,0:0:0:0:
192,192,281773,1,0,0:0:0:0:
64,192,281945,1,0,0:0:0:0:
448,192,282116,1,0,0:0:0:0:
64,192,282288,1,0,0:0:0:0:
192,192,282459,1,0,0:0:0:0:
320,192,282630,1,0,0:0:0:0:
448,192,282802,1,0,0:0:0:0:
448,192,283059,1,0,0:0:0:0:
320,192,283230,1,0,0:0:0:0:
320,192,283488,1,0,0:0:0:0:
192,192,283830,1,0,0:0:0:0:
192,192,284088,1,0,0:0:0:0:
448,192,284173,1,0,0:0:0:0:
320,192,284345,1,0,0:0:0:0:
192,192,284516,1,0,0:0:0:0:
64,192,284688,1,0,0:0:0:0:
320,192,284859,1,0,0:0:0:0:
192,192,285030,1,0,0:0:0:0:
448,192,285202,1,0,0:0:0:0:
320,192,285373,1,0,0:0:0:0:
64,192,285545,1,0,0:0:0:0:
192,192,285716,1,0,0:0:0:0:
320,192,285888,1,0,0:0:0:0:
448,192,286059,1,0,0:0:0:0:
192,192,286230,1,0,0:0:0:0:
320,192,286402,1,0,0:0:0:0:
64,192,286573,1,0,0:0:0:0:
192,192,286745,1,0,0:0:0:0:
448,192,286916,1,0,0:0:0:0:
448,192,287173,1,0,0:0:0:0:
320,192,287345,1,0,0:0:0:0:
64,192,288116,1,0,0:0:0:0:
320,192,288288,1,0,0:0:0:0:
192,192,288373,1,0,0:0:0:0:
64,192,288630,1,0,0:0:0:0:
192,192,288802,1,0,0:0:0:0:
448,192,288973,1,0,0:0:0:0:
320,192,289145,1,0,0:0:0:0:
64,192,289316,1,0,0:0:0:0:
192,192,289488,1,0,0:0:0:0:
