osu file format v14

[General]
AudioFilename: audio.mp3
AudioLeadIn: 0
PreviewTime: 89685
Countdown: 0
SampleSet: Soft
StackLeniency: 0.7
Mode: 0
LetterboxInBreaks: 0
WidescreenStoryboard: 1

[Editor]
Bookmarks: 157799,183373
DistanceSpacing: 0.8
BeatDivisor: 4
GridSize: 4
TimelineZoom: 1

[Metadata]
Title:Girl Next Door
TitleUnicode:Girl Next Door
Artist:Saving Jane
ArtistUnicode:Saving Jane
Creator:MkGuh
Version:Normal
Source:
Tags:simlish the sims 2 pets expansion pet dog cat pop rock teen old ost soundtrack station
BeatmapID:1600685
BeatmapSetID:750370

[Difficulty]
HPDrainRate:2.5
CircleSize:4
OverallDifficulty:4
ApproachRate:4.5
SliderMultiplier:1.2
SliderTickRate:2

[Events]
//Background and Video events
0,0,"SimMemories1920x1080.jpg",0,0
//Break Periods
2,57426,59900
2,134439,141785
//Storyboard Layer 0 (Background)
//Storyboard Layer 1 (Fail)
//Storyboard Layer 2 (Pass)
//Storyboard Layer 3 (Foreground)
//Storyboard Sound Samples

[TimingPoints]
8046,491.803278688525,4,2,0,57,1,0
8046,-100,4,2,0,57,0,0
15423,-100,4,2,0,57,0,0
15914,-100,4,2,0,57,0,0
31652,-100,4,2,0,67,0,0
41488,-100,4,2,0,77,0,1
54521,-100,4,2,0,87,0,1
55013,-100,4,2,0,67,0,0
57226,-100,4,2,0,57,0,0
61160,-100,4,2,0,67,0,0
65095,-100,4,2,0,63,0,0
90668,-100,4,2,0,77,0,1
98291,-100,4,2,0,37,0,1
98537,-100,4,2,0,70,0,1
99029,-100,4,2,0,77,0,1
103947,-100,4,2,0,87,0,1
104439,-100,4,2,0,77,0,0
112308,-100,4,2,0,77,0,0
114029,-100,4,2,0,77,0,0
115505,-100,4,2,0,87,0,0
116242,-100,4,2,0,77,0,0
122390,-100,4,2,0,47,0,0
124111,-100,4,2,0,77,0,0
130013,-100,4,2,0,67,0,0
131857,-100,4,2,0,5,0,0
133455,-100,4,2,0,35,0,0
134439,491.803278688525,4,2,0,35,1,0
143045,-100,4,2,0,65,0,0
144029,-100,4,2,0,77,0,1
156078,-100,4,2,0,77,0,0
184111,-100,4,2,0,60,0,0
186324,-100,4,2,0,50,0,0
187553,-100,4,2,0,40,0,0
189520,-100,4,2,0,30,0,0

[Colours]
Combo1 : 128,128,0
Combo2 : 128,64,64
Combo3 : 255,128,64
Combo4 : 0,128,192

[HitObjects]
60,136,8045,6,0,P|116:152|184:132,1,120,2|0,0:0|1:0,0:0:0:0:
256,84,9029,1,2,0:0:0:0:
328,148,9521,1,0,1:0:0:0:
420,120,10013,2,0,P|416:180|420:240,1,120,2|0,0:0|1:0,0:0:0:0:
356,312,10996,2,0,P|304:320|232:320,1,120,2|0,0:0|1:0,0:0:0:0:
148,280,11980,6,0,P|148:148|360:108,1,360,2|0,0:0|1:0,0:0:0:0:
327,189,13947,2,0,P|263:157|277:275,1,240,2|2,0:0|0:0,0:0:0:0:
342,325,15423,2,0,L|476:313,1,120,4|0,0:0|0:0,0:0:0:0:
429,223,16406,5,0,1:0:0:0:
429,223,16652,1,0,0:0:0:0:
429,223,16898,2,0,P|449:168|416:105,1,120,2|0,0:0|1:0,0:0:0:0:
354,49,17882,1,2,0:0:0:0:
273,100,18373,2,0,L|223:133,2,60,0|0|2,1:0|0:0|0:0,0:0:0:0:
309,188,19357,1,0,1:0:0:0:
229,241,19849,6,0,P|172:262|109:232,1,120,2|0,0:0|1:0,0:0:0:0:
48,176,20832,1,2,0:0:0:0:
78,85,21324,1,0,1:0:0:0:
175,72,21816,2,0,L|312:94,2,120,2|0|2,0:0|1:0|0:0,0:0:0:0:
166,167,23291,2,0,P|231:204|283:195,1,120,0|2,1:0|0:0,0:0:0:0:
358,153,24275,5,0,1:0:0:0:
387,190,24521,1,0,0:0:0:0:
410,231,24767,2,0,P|421:301|402:351,1,120,2|0,0:0|1:0,0:0:0:0:
327,287,25750,1,2,0:0:0:0:
231,295,26242,2,0,P|188:290|155:300,2,60,0|0|2,1:0|0:0|0:0,0:0:0:0:
256,202,27226,2,0,P|282:188|312:184,1,60,0|2,1:0|0:3,0:0:0:0:
359,176,27718,6,0,P|333:122|336:62,2,120,2|0|2,0:0|1:0|0:0,0:0:0:0:
403,261,29193,1,0,1:0:0:0:
309,281,29685,2,0,P|265:322|206:332,1,120,2|0,0:0|1:0,0:0:0:0:
218,236,30668,2,0,P|149:211|119:177,1,120,2|0,0:0|1:0,0:0:0:0:
203,129,31652,5,4,0:0:0:0:
270,61,32144,1,0,1:0:0:0:
351,112,32636,1,2,0:0:0:0:
427,54,33127,1,0,1:0:0:0:
466,141,33619,2,0,P|464:213|428:264,1,120,2|0,0:0|1:0,0:0:0:0:
344,261,34603,2,0,P|293:244|227:267,1,120,2|0,0:0|1:0,0:0:0:0:
155,322,35586,5,2,0:0:0:0:
72,272,36078,1,0,1:0:0:0:
87,177,36570,1,2,0:0:0:0:
180,155,37062,2,0,P|222:140|257:146,1,60,0|2,1:0|0:3,0:0:0:0:
283,150,37554,2,0,L|420:163,2,120,2|0|0,0:0|1:0|0:0,0:0:0:0:
273,245,39029,2,0,P|315:307|355:318,1,120,0|4,1:0|0:0,0:0:0:0:
99,58,41488,5,4,0:0:0:0:
39,133,41980,1,0,1:0:0:0:
112,195,42472,2,0,P|126:263|122:320,1,120,2|0,0:0|1:0,0:0:0:0:
219,310,43455,1,2,0:0:0:0:
268,227,43947,1,0,1:0:0:0:
350,276,44439,6,0,P|412:284|428:278,2,60,2|0|0,0:0|0:0|1:0,0:0:0:0:
356,180,45423,2,0,P|374:143|433:81,1,120,2|0,0:0|1:0,0:0:0:0:
350,28,46406,2,0,P|293:33|232:23,1,120,2|0,0:0|1:0,0:0:0:0:
172,99,47390,2,0,P|203:131|229:213,1,120,2|0,0:0|1:0,0:0:0:0:
188,288,48373,2,0,P|130:302|108:299,1,60,2|4,0:0|0:3,0:0:0:0:
82,298,48865,2,0,P|47:276|30:250,1,60,0|4,1:0|0:0,0:0:0:0:
15,217,49357,5,4,0:0:0:0:
68,134,49849,2,0,P|92:44|131:22,1,120,0|2,1:0|0:0,0:0:0:0:
162,111,50832,1,0,1:0:0:0:
243,60,51324,2,0,P|285:67|381:83,1,120,2|0,0:0|1:0,0:0:0:0:
429,147,52308,6,0,P|445:198|447:218,2,60,2|0|0,0:0|0:0|1:0,0:0:0:0:
346,196,53291,2,0,P|263:218|232:233,1,120,2|0,0:0|1:0,0:0:0:0:
163,300,54275,2,0,P|96:287|84:280,1,60,0|0,0:0|1:0,0:0:0:0:
68,259,54767,1,0,1:0:0:0:
256,192,55013,12,0,57226,0:0:0:0:
184,100,61160,6,0,P|256:54|328:100,2,180,4|2|0,0:0|0:0|1:0,0:0:0:0:
140,188,63127,2,0,P|256:214|372:188,1,240,2|0,0:0|0:0,0:0:0:0:
428,109,64603,2,0,P|376:107|361:99,1,60,12|0,2:0|1:0,0:0:0:0:
335,69,65095,5,0,0:0:0:0:
257,124,65586,2,0,P|205:145|189:146,1,60,0|0,1:0|0:0,0:0:0:0:
154,155,66078,2,0,P|133:211|144:274,1,120,2|0,0:0|1:0,0:0:0:0:
213,333,67062,1,2,0:0:0:0:
280,265,67554,2,0,P|325:247|346:249,1,60,0|0,1:0|0:0,0:0:0:0:
383,254,68046,2,0,P|389:195|357:128,1,120,0|0,0:0|1:0,0:0:0:0:
323,54,69029,1,2,0:0:0:0:
245,110,69521,6,0,P|201:125|187:126,2,60,0|0|2,1:0|0:0|0:0,0:0:0:0:
307,183,70505,1,0,1:0:0:0:
307,183,70750,1,2,0:0:0:0:
307,183,70996,2,0,P|290:251|252:297,2,120,2|0|0,0:0|1:0|0:0,0:0:0:0:
394,143,72472,2,0,P|351:97|279:89,1,120,0|2,1:0|0:0,0:0:0:0:
228,18,73455,6,0,P|196:67|195:80,1,60,0|0,1:0|0:0,0:0:0:0:
187,114,73947,2,0,P|189:183|196:248,1,120,2|0,0:0|1:0,0:0:0:0:
270,292,74931,1,2,0:0:0:0:
338,224,75423,2,0,P|384:217|418:218,2,60,0|0|2,1:0|0:0|0:0,0:0:0:0:
281,146,76406,1,0,1:0:0:0:
238,124,76652,1,2,0:3:0:0:
191,128,76898,6,0,P|115:158|60:160,1,120,2|0,0:0|1:0,0:0:0:0:
37,248,77882,1,2,0:0:0:0:
128,293,78373,1,0,1:0:0:0:
128,293,78619,1,0,0:0:0:0:
128,293,78865,2,0,P|196:294|272:297,1,120,2|0,0:0|1:0,0:0:0:0:
315,227,79849,2,0,P|374:233|444:228,1,120,2|0,0:0|1:0,0:0:0:0:
450,134,80832,5,4,0:0:0:0:
365,88,81324,1,0,1:0:0:0:
272,113,81816,1,2,0:0:0:0:
193,58,82307,1,0,1:0:0:0:
149,79,82554,1,0,0:0:0:0:
107,101,82799,2,0,P|109:173|145:224,1,120,2|0,0:0|1:0,0:0:0:0:
200,286,83783,2,0,P|251:269|317:292,1,120,2|0,0:0|1:0,0:0:0:0:
401,323,84766,5,2,0:0:0:0:
461,248,85258,1,0,1:0:0:0:
429,157,85750,1,2,0:0:0:0:
344,112,86242,2,0,P|302:97|267:103,1,60,0|0,1:0|0:0,0:0:0:0:
240,110,86734,2,0,L|113:148,2,120,2|0|0,0:0|1:0|0:0,0:0:0:0:
220,204,88209,5,4,0:0:0:0:
211,299,88701,1,4,0:0:0:0:
297,340,89193,1,4,0:0:0:0:
389,312,89685,5,0,1:0:0:0:
411,218,90177,1,0,1:0:0:0:
369,126,90668,2,0,P|415:52|454:45,2,120,4|0|2,0:0|1:0|0:0,0:0:0:0:
278,92,92144,2,0,P|270:137|275:159,1,60,0|2,1:0|0:0,0:0:0:0:
275,198,92636,2,0,P|240:247|176:244,1,120,0|0,0:0|1:0,0:0:0:0:
92,221,93619,6,0,L|27:199,2,60,2|0|0,0:0|0:0|1:0,0:0:0:0:
119,313,94603,2,0,L|253:350,1,120,2|0,0:0|1:0,0:0:0:0:
325,314,95586,2,0,P|345:261|337:197,1,120,2|0,0:0|1:0,0:0:0:0:
304,108,96570,1,2,0:0:0:0:
223,159,97062,1,0,1:0:0:0:
177,175,97308,1,0,0:0:0:0:
130,161,97554,6,0,P|80:171|52:183,1,60,2|2,0:0|0:0,0:0:0:0:
32,202,98046,2,0,P|33:239|43:280,1,60,0|4,1:0|0:0,0:0:0:0:
50,307,98537,1,4,0:0:0:0:
142,344,99029,2,0,B|283:343|305:190,1,240,4|0,1:2|1:0,0:0:0:0:
244,123,100505,1,2,0:0:0:0:
306,50,100996,1,0,1:0:0:0:
393,90,101488,6,0,P|398:35|397:7,2,60,2|0|0,0:0|0:0|1:0,0:0:0:0:
450,166,102472,2,0,P|440:225|443:296,1,120,2|0,0:0|1:0,0:0:0:0:
346,274,103455,2,0,P|287:281|274:280,1,60,2|0,0:0|0:0,0:0:0:0:
238,278,103947,6,0,P|205:256|184:222,1,60,0|0,1:0|1:0,0:0:0:0:
164,200,104439,2,0,P|177:104|255:66,2,180,4|2|0,0:0|0:0|1:0,0:0:0:0:
71,227,106406,2,0,P|118:282|253:215,1,240,4|2,0:0|0:0,0:0:0:0:
312,149,107882,5,0,1:0:0:0:
353,172,108127,1,0,0:0:0:0:
381,210,108373,2,0,P|458:222|509:218,2,120,2|0|4,0:0|1:0|0:3,0:0:0:0:
306,162,109849,1,0,1:0:0:0:
260,175,110095,1,2,0:0:0:0:
213,187,110341,1,4,0:0:0:0:
117,181,110832,2,0,P|99:229|89:248,2,60,0|2|0,1:0|0:0|0:0,0:0:0:0:
96,87,111816,1,0,1:0:0:0:
256,192,112308,12,0,115259,0:0:0:0:
427,52,116242,6,0,P|418:103|315:180,1,180,4|2,0:0|0:0,0:0:0:0:
240,229,117472,1,0,0:0:0:0:
148,198,117964,2,0,P|139:147|139:78,1,120,2|0,0:0|0:0,0:0:0:0:
228,44,118947,2,0,P|290:43|350:34,1,120,2|0,0:0|0:0,0:0:0:0:
420,97,119931,5,2,0:0:0:0:
443,190,120423,1,0,0:0:0:0:
371,253,120914,1,2,0:0:0:0:
276,244,121406,2,0,L|209:217,2,60,2|0|2,0:0|1:0|0:0,0:0:0:0:
339,171,122390,2,0,P|332:111|349:37,1,120,0|2,0:0|0:0,0:0:0:0:
107,149,124111,6,0,P|59:211|85:310,1,180,4|2,0:0|0:0,0:0:0:0:
169,340,125341,1,2,0:0:0:0:
220,258,125832,2,0,P|286:248|352:237,1,120,2|0,0:0|0:0,0:0:0:0:
434,243,126816,2,0,P|444:182|452:114,1,120,2|2,0:0|0:0,0:0:0:0:
362,97,127800,2,0,P|273:120|133:43,1,240,2|2,0:0|0:0,0:0:0:0:
63,109,129275,2,0,L|44:176,2,60,0|0|0,0:0|1:0|1:0,0:0:0:0:
256,192,130013,12,0,131980,0:0:0:0:
404,209,133455,6,0,P|415:146|417:140,2,60,2|0|0,0:0|0:0|0:0,0:0:0:0:
0,342,143045,6,0,P|100:335|128:336,1,120,2|0,0:0|0:0,0:0:0:0:
167,343,143783,1,0,0:0:0:0:
213,356,144029,2,0,P|183:276|225:171,1,180,4|0,0:0|1:0,0:0:0:0:
264,109,145258,2,0,P|308:93|383:88,1,120,2|0,0:0|1:0,0:0:0:0:
475,102,146242,1,2,0:0:0:0:
499,195,146734,1,0,1:0:0:0:
412,236,147225,6,0,L|486:331,2,120,2|0|2,0:0|1:0|0:0,0:0:0:0:
384,143,148701,2,0,P|327:210|405:340,1,240,0|0,1:0|1:0,0:0:0:0:
470,288,150176,1,0,0:0:0:0:
496,195,150668,5,0,1:0:0:0:
481,149,150914,1,2,0:0:0:0:
452,110,151160,2,0,P|406:93|332:90,1,120,0|0,0:0|1:0,0:0:0:0:
252,137,152143,2,0,P|204:210|95:229,1,180,4|2,0:0|0:0,0:0:0:0:
53,162,153373,1,2,0:0:0:0:
95,75,153865,2,0,P|142:71|239:62,1,120,2|0,0:0|0:0,0:0:0:0:
262,69,154602,1,0,1:0:0:0:
309,52,154848,2,0,P|326:120|339:177,1,120,2|2,0:0|0:0,0:0:0:0:
356,212,155586,1,0,1:0:0:0:
369,262,155832,6,0,P|319:320|211:294,1,180,6|0,0:0|1:0,0:0:0:0:
180,286,156816,2,0,P|213:186|27:53,1,360,2|2,0:0|0:0,0:0:0:0:
42,146,158783,2,0,P|50:223|-11:317,2,180,2|0|2,0:0|1:0|0:0,0:0:0:0:
121,87,160750,2,0,P|185:78|257:68,2,120,2|2|2,0:0|0:0|0:0,0:0:0:0:
51,153,162225,5,0,0:0:0:0:
28,195,162471,2,0,P|22:242|29:266,1,60,0|0,1:0|0:0,0:0:0:0:
55,290,162963,2,0,L|121:282,1,60,4|0,0:3|0:0,0:0:0:0:
156,307,163455,2,0,P|186:294|234:224,1,120,0|4,1:0|0:0,0:0:0:0:
328,204,164439,6,0,L|392:197,2,60,0|2|0,1:0|0:0|0:0,0:0:0:0:
243,157,165422,1,0,1:0:0:0:
295,76,165914,1,2,0:0:0:0:
200,59,166406,2,0,L|162:0,2,60,0|2|0,1:0|0:0|0:0,0:0:0:0:
116,107,167389,5,0,1:0:0:0:
132,152,167635,1,0,0:0:0:0:
165,186,167881,2,0,P|204:240|205:301,1,120,2|0,0:0|1:0,0:0:0:0:
211,339,168619,1,0,0:0:0:0:
251,365,168865,2,0,P|341:373|385:347,1,120,2|0,0:0|1:0,0:0:0:0:
404,274,169848,2,0,P|403:213|441:155,2,120,2|0|8,0:0|0:0|0:3,0:0:0:0:
359,292,171078,1,8,0:3:0:0:
311,301,171324,1,8,0:3:0:0:
248,227,171816,6,0,P|224:147|80:124,2,240,4|2|2,0:0|0:0|0:0,0:0:0:0:
233,321,174275,1,0,1:0:0:0:
324,349,174766,2,0,P|365:310|385:246,1,120,2|0,0:0|1:0,0:0:0:0:
407,157,175750,1,2,0:0:0:0:
345,84,176242,2,0,L|273:89,2,60,0|0|4,1:0|0:0|0:3,0:0:0:0:
313,174,177225,5,0,1:0:0:0:
217,169,177717,2,0,P|160:180|82:175,1,120,2|0,0:0|1:0,0:0:0:0:
45,258,178701,2,0,P|55:308|63:325,1,60,8|0,0:3|1:0,0:0:0:0:
97,344,179193,2,0,P|148:352|172:348,1,60,0|0,1:0|0:0,0:0:0:0:
200,334,179684,6,0,P|235:269|280:259,1,120,4|0,0:0|1:0,0:0:0:0:
323,267,180422,1,0,0:0:0:0:
369,278,180668,2,0,P|431:273|465:225,1,120,2|0,0:0|1:0,0:0:0:0:
446,135,181652,2,0,L|413:15,2,120,2|0|2,0:0|1:0|0:0,0:0:0:0:
351,149,183127,1,0,1:0:0:0:
278,211,183619,1,2,0:0:0:0:
183,192,184111,6,0,P|125:209|62:180,2,120,0|2|0,1:0|0:0|1:0,0:0:0:0:
228,107,185586,2,0,P|306:74|366:75,1,120,2|0,0:0|1:0,0:0:0:0:
434,93,186570,1,2,0:0:0:0:
432,188,187061,2,0,P|423:224|427:268,2,60,0|0|4,1:0|0:0|0:0,0:0:0:0:
256,192,188045,12,6,191488,0:0:0:0:
