osu file format v14

[General]
AudioFilename: audio.mp3
AudioLeadIn: 0
PreviewTime: 89685
Countdown: 0
SampleSet: Soft
StackLeniency: 0.3
Mode: 0
LetterboxInBreaks: 0
WidescreenStoryboard: 0

[Editor]
Bookmarks: 183373
DistanceSpacing: 1
BeatDivisor: 4
GridSize: 4
TimelineZoom: 1

[Metadata]
Title:Girl Next Door
TitleUnicode:Girl Next Door
Artist:Saving Jane
ArtistUnicode:Saving Jane
Creator:MkGuh
Version:Insane
Source:
Tags:simlish the sims 2 pets expansion pet dog cat pop rock teen old ost soundtrack station
BeatmapID:1580173
BeatmapSetID:750370

[Difficulty]
HPDrainRate:6
CircleSize:4.2
OverallDifficulty:7.6
ApproachRate:8
SliderMultiplier:2.5
SliderTickRate:2

[Events]
//Background and Video events
0,0,"SimMemories1920x1080.jpg",0,0
//Break Periods
2,57426,60410
2,134439,142295
//Storyboard Layer 0 (Background)
//Storyboard Layer 1 (Fail)
//Storyboard Layer 2 (Pass)
//Storyboard Layer 3 (Foreground)
//Storyboard Sound Samples

[TimingPoints]
8046,491.803278688525,4,2,0,57,1,0
31652,-100,4,2,0,67,0,0
40505,-100,4,2,0,47,0,0
41242,-100,4,2,0,57,0,0
41488,-90.9090909090909,4,2,0,77,0,1
54521,-90.9090909090909,4,2,0,87,0,1
55013,-133.333333333333,4,2,0,67,0,0
57226,-133.333333333333,4,2,0,57,0,0
61160,-100,4,2,0,67,0,0
65095,-100,4,2,0,63,0,0
90668,-90.9090909090909,4,2,0,77,0,1
98291,-90.9090909090909,4,2,0,37,0,1
98537,-90.9090909090909,4,2,0,70,0,1
99029,-90.9090909090909,4,2,0,77,0,1
103947,-90.9090909090909,4,2,0,87,0,1
104439,-100,4,2,0,77,0,0
112308,-151.515151515152,4,2,0,77,0,0
114029,-100,4,2,0,77,0,0
115505,-90.9090909090909,4,2,0,87,0,0
116242,-111.111111111111,4,2,0,77,0,0
122390,-142.857142857143,4,2,0,47,0,0
124111,-111.111111111111,4,2,0,77,0,0
130013,-166.666666666666,4,2,0,67,0,0
131857,-166.666666666666,4,2,0,5,0,0
133455,-166.666666666666,4,2,0,35,0,0
134439,491.803278688525,4,2,0,35,1,0
143045,-100,4,2,0,65,0,0
144029,-90.9090909090909,4,2,0,77,0,1
156078,-100,4,2,0,77,0,0
184111,-100,4,2,0,60,0,0
186324,-100,4,2,0,50,0,0
187553,-100,4,2,0,40,0,0
189520,-100,4,2,0,30,0,0

[Colours]
Combo1 : 128,128,0
Combo2 : 128,64,64
Combo3 : 255,128,64
Combo4 : 0,128,192

[HitObjects]
130,366,8045,6,0,B|72:375|29:326|48:258|48:258|72:170,1,250,2|0,0:0|1:0,0:0:0:0:
115,51,8783,1,0,0:0:0:0:
212,128,9029,1,2,0:0:0:0:
333,96,9275,1,0,0:0:0:0:
369,215,9521,2,0,B|399:268|369:328|305:347|246:308|245:249,1,250,0|2,1:0|0:0,0:0:0:0:
159,12,10505,5,0,1:0:0:0:
266,75,10750,1,0,0:0:0:0:
159,140,10996,1,2,0:0:0:0:
266,204,11242,1,0,0:0:0:0:
153,258,11488,2,0,L|64:346,1,125,0|0,1:0|0:0,0:0:0:0:
0,146,11980,6,0,B|-19:79|56:32|115:89|115:89|166:136,1,250,2|0,0:0|1:0,0:0:0:0:
256,48,12718,1,0,0:0:0:0:
346,135,12964,2,0,B|397:89|397:89|456:32|531:79|512:146,1,250,2|0,0:0|1:0,0:0:0:0:
452,256,13701,1,0,0:0:0:0:
367,347,13947,6,0,B|315:287|259:324|255:338|250:351|190:384|141:337,1,250,2|0,0:0|1:0,0:0:0:0:
175,216,14685,1,2,0:0:0:0:
48,241,14931,1,2,0:0:0:0:
95,121,15177,1,0,0:0:0:0:
254,264,15423,1,4,0:0:0:0:
311,142,15668,1,0,0:0:0:0:
226,49,15914,5,0,0:0:0:0:
154,155,16160,2,0,L|187:338,1,125,2|0,0:0|1:0,0:0:0:0:
176,278,16529,1,0,0:0:0:0:
176,278,16652,1,0,0:0:0:0:
335,285,16898,2,0,L|358:162,1,125,2|0,0:0|0:0,0:0:0:0:
357,162,17267,1,0,0:0:0:0:
357,162,17390,1,0,1:0:0:0:
287,66,17636,1,0,0:0:0:0:
209,163,17882,2,0,B|119:206|24:159,1,187.5,2|0,0:0|0:0,0:0:0:0:
4,136,18373,5,0,1:0:0:0:
32,12,18619,1,0,0:0:0:0:
128,92,18865,2,0,L|261:64,1,125,2|0,0:0|0:0,0:0:0:0:
296,54,19234,1,0,0:0:0:0:
296,54,19357,1,0,1:0:0:0:
418,113,19603,1,0,0:0:0:0:
316,208,19849,6,0,B|268:252|304:292|344:332|300:384,1,187.5,2|0,0:0|0:0,0:0:0:0:
272,372,20341,1,0,1:0:0:0:
161,322,20586,1,0,0:0:0:0:
48,264,20832,2,0,B|72:208|72:208|136:184,1,125,2|0,0:0|0:0,0:0:0:0:
164,176,21201,1,0,0:0:0:0:
196,168,21324,1,0,1:0:0:0:
256,52,21570,5,0,0:0:0:0:
316,164,21816,2,0,B|381:185|406:152|429:119|495:138,1,187.5,2|0,0:0|0:0,0:0:0:0:
493,168,22308,1,0,1:0:0:0:
407,266,22554,1,0,0:0:0:0:
350,88,22800,1,2,0:0:0:0:
238,221,23046,1,0,0:0:0:0:
130,30,23291,2,0,P|181:51|199:124,1,125,0|0,1:0|0:0,0:0:0:0:
135,278,23783,1,2,0:0:0:0:
40,193,24029,6,0,B|39:144|80:106|139:112,1,125,0|0,0:0|1:0,0:0:0:0:
118,111,24398,1,0,0:0:0:0:
118,111,24521,1,0,0:0:0:0:
255,168,24767,1,2,0:0:0:0:
389,119,25013,1,0,0:0:0:0:
389,119,25136,1,0,0:0:0:0:
389,119,25259,1,0,1:0:0:0:
389,260,25505,1,0,0:0:0:0:
222,232,25750,6,0,B|170:201|134:236|101:267|34:225,1,187.5,2|0,0:0|0:0,0:0:0:0:
34,196,26242,2,0,B|62:157|64:116|32:81,1,125,0|0,1:0|0:0,0:0:0:0:
152,26,26734,2,0,B|204:57|240:22|273:-9|340:33,1,187.5,2|0,0:0|0:0,0:0:0:0:
374,45,27226,1,0,1:3:0:0:
390,175,27472,1,2,0:3:0:0:
226,157,27718,6,0,B|219:206|248:247|248:247|211:291|229:347,1,187.5,2|0,0:0|0:0,0:0:0:0:
258,359,28209,1,0,1:0:0:0:
392,340,28455,1,0,0:0:0:0:
476,248,28701,2,0,P|496:184|480:120,1,125,2|0,0:0|0:0,0:0:0:0:
472,84,29070,1,0,0:0:0:0:
456,40,29193,2,0,P|400:56|332:44,1,125,0|0,1:0|0:0,0:0:0:0:
206,28,29685,6,0,B|267:26|326:56|359:118|317:199,1,250,2|0,0:0|1:0,0:0:0:0:
247,303,30423,1,2,0:0:0:0:
247,303,30546,1,0,0:0:0:0:
247,303,30668,1,0,0:0:0:0:
217,134,30914,1,0,0:0:0:0:
105,257,31159,1,0,1:0:0:0:
57,88,31406,1,0,0:0:0:0:
306,141,31652,5,4,0:0:0:0:
416,48,31898,1,0,0:0:0:0:
306,141,32144,2,0,P|273:227|317:289,1,125,0|0,1:0|0:0,0:0:0:0:
427,342,32636,2,0,P|460:256|416:194,1,125,2|0,0:0|0:0,0:0:0:0:
402,129,33127,1,0,1:0:0:0:
402,129,33373,1,0,0:0:0:0:
152,292,33619,5,2,0:0:0:0:
256,360,33865,1,0,0:0:0:0:
360,292,34111,1,0,1:0:0:0:
320,172,34357,1,0,0:0:0:0:
196,172,34603,1,2,0:0:0:0:
320,172,34849,2,0,P|380:164|416:92,1,125,0|0,0:0|1:0,0:0:0:0:
302,31,35341,1,0,0:0:0:0:
164,172,35586,6,0,L|187:301,1,125,2|0,0:0|0:0,0:0:0:0:
405,334,36078,2,0,L|382:205,1,125,0|0,1:0|0:0,0:0:0:0:
357,61,36570,1,2,0:0:0:0:
255,190,36816,1,0,0:0:0:0:
108,66,37062,2,0,P|154:43|236:81,1,125,0|2,1:0|0:3,0:0:0:0:
330,155,37554,6,0,B|346:232|291:265|291:265|231:302|248:384,1,250,2|0,0:0|1:0,0:0:0:0:
378,347,38291,2,0,B|365:275|295:263|295:263|232:253|217:176,1,250,2|0,0:0|1:0,0:0:0:0:
257,45,39029,1,0,1:0:0:0:
113,362,39521,1,4,0:0:0:0:
13,138,40505,6,0,L|146:120,1,125,2|0,0:0|0:0,0:0:0:0:
136,121,40996,1,2,0:0:0:0:
136,121,41242,1,0,0:0:0:0:
180,322,41488,2,0,B|231:214|372:255,1,206.250006294251,4|0,0:0|0:0,0:0:0:0:
398,258,41980,1,0,1:0:0:0:
291,369,42226,2,0,B|232:392|164:373|104:308|137:215,1,275.000008392334,2|0,0:0|0:0,0:0:0:0:
256,132,42964,1,0,1:0:0:0:
347,250,43209,1,2,0:0:0:0:
456,137,43455,1,0,0:0:0:0:
347,250,43701,2,0,B|287:314|163:286,1,137.500004196167,2|0,0:0|1:0,0:0:0:0:
121,199,44193,1,0,0:0:0:0:
191,80,44439,6,0,B|242:34|258:116|316:64,2,137.500004196167,2|0|0,0:0|0:0|1:0,0:0:0:0:
256,201,45177,2,0,L|352:318,1,137.500004196167,2|0,0:0|0:0,0:0:0:0:
256,201,45668,2,0,L|151:333,1,137.500004196167,2|0,0:0|1:0,0:0:0:0:
104,167,46160,2,0,B|205:48|205:48|344:72,1,275.000008392334,2|0,0:0|0:0,0:0:0:0:
104,167,46898,1,0,1:0:0:0:
124,302,47144,1,2,0:0:0:0:
254,344,47390,1,0,0:0:0:0:
384,299,47636,1,0,0:0:0:0:
422,132,47882,2,0,B|330:133|303:223,1,137.500004196167,0|0,1:0|0:0,0:0:0:0:
123,306,48373,5,2,0:0:0:0:
44,204,48619,1,4,0:3:0:0:
204,203,48865,1,0,1:0:0:0:
124,91,49111,1,0,0:0:0:0:
267,90,49357,2,0,B|351:89|375:135|375:135|346:191|348:246,1,206.250006294251,4|0,0:0|0:0,0:0:0:0:
351,263,49849,1,0,1:0:0:0:
150,278,50095,2,0,B|116:201|151:138|151:138|229:142|285:67,1,275.000008392334,2|0,0:0|0:0,0:0:0:0:
386,19,50832,1,0,1:0:0:0:
509,71,51078,1,2,0:0:0:0:
509,208,51324,1,0,0:0:0:0:
385,278,51570,2,0,B|254:274|222:173|255:84,1,275.000008392334,2|0,0:0|0:0,0:0:0:0:
160,193,52308,6,0,L|67:297,2,137.500004196167,2|0|0,0:0|0:0|1:0,0:0:0:0:
352,193,53046,2,0,L|445:297,2,137.500004196167,2|0|2,0:0|0:0|0:0,0:0:0:0:
257,292,53783,1,0,1:0:0:0:
141,102,54029,1,0,0:0:0:0:
374,101,54275,1,0,0:0:0:0:
137,282,54521,1,0,1:0:0:0:
257,33,54767,1,0,1:0:0:0:
373,283,55013,1,4,0:0:0:0:
256,192,55136,12,2,57226,0:0:0:0:
189,28,61160,6,0,B|160:85|160:85|122:156|204:218|256:156,1,250,4|0,0:0|1:0,0:0:0:0:
323,28,61898,2,0,B|352:84|352:84|390:156|308:218|255:156,1,250,2|0,0:0|0:0,0:0:0:0:
323,28,62636,1,0,1:0:0:0:
190,28,62882,1,0,0:0:0:0:
118,176,63127,2,0,B|143:240|228:240|256:158|256:158|281:240|367:240|391:177,2,375,2|2|12,0:0|0:0|2:0,0:0:0:0:
256,39,64849,1,0,1:0:0:0:
256,158,65095,5,0,0:0:0:0:
206,271,65341,2,0,B|217:316|289:316|304:274,1,125,2|0,0:0|1:0,0:0:0:0:
111,240,65832,1,0,0:0:0:0:
172,170,66078,1,2,0:0:0:0:
152,143,66201,1,0,0:0:0:0:
134,117,66324,1,0,0:0:0:0:
255,42,66570,1,0,1:0:0:0:
255,42,66816,1,0,0:0:0:0:
384,116,67062,2,0,L|348:243,1,125,2|0,0:0|0:0,0:0:0:0:
255,42,67554,5,0,1:0:0:0:
256,165,67800,1,0,0:0:0:0:
142,114,68046,1,2,0:0:0:0:
142,114,68168,1,0,0:0:0:0:
142,114,68291,1,0,0:0:0:0:
141,252,68537,1,0,1:0:0:0:
15,192,68783,1,4,0:0:0:0:
142,114,69029,2,0,B|217:106|262:187,1,125,2|0,0:0|0:0,0:0:0:0:
361,110,69521,5,0,1:0:0:0:
314,226,69767,1,0,0:0:0:0:
437,204,70013,2,0,B|451:243|486:257,2,62.5,2|0|0,0:0|0:0|0:0,0:0:0:0:
403,331,70505,1,0,1:0:0:0:
271,282,70750,5,2,0:0:0:0:
140,345,70996,2,0,B|92:328|73:295|72:252|100:214|100:214|149:231|200:201,1,250,2|0,0:0|1:0,0:0:0:0:
173,30,71734,2,0,B|118:76|139:144,1,125,2|0,0:0|0:0,0:0:0:0:
293,210,72226,1,0,0:0:0:0:
293,210,72472,2,0,B|295:140|218:107,1,125,0|0,1:0|0:0,0:0:0:0:
230,316,72964,1,0,0:0:0:0:
382,199,73209,6,0,B|380:269|457:302,1,125,2|0,0:0|1:0,0:0:0:0:
382,199,73701,1,0,0:0:0:0:
277,274,73947,1,2,0:0:0:0:
277,274,74070,1,0,0:0:0:0:
277,274,74193,1,0,0:0:0:0:
272,149,74439,1,0,1:0:0:0:
155,194,74685,1,0,0:0:0:0:
191,74,74931,6,0,B|245:27|332:59,1,125,2|0,0:0|0:0,0:0:0:0:
99,41,75423,1,0,1:0:0:0:
41,151,75668,1,0,0:0:0:0:
163,177,75914,1,2,0:0:0:0:
163,177,76037,1,0,0:0:0:0:
163,177,76160,1,0,0:0:0:0:
160,307,76406,1,0,1:0:0:0:
285,250,76652,1,2,0:3:0:0:
370,345,76898,6,0,B|463:286|409:180,1,187.5,2|0,0:0|0:0,0:0:0:0:
410,182,77390,2,0,B|338:158|331:79,1,125,0|0,1:0|0:0,0:0:0:0:
256,222,77882,1,2,0:0:0:0:
101,183,78127,1,0,0:0:0:0:
101,183,78250,1,0,0:0:0:0:
101,183,78373,2,0,B|173:159|180:80,1,125,0|0,1:0|0:0,0:0:0:0:
154,297,78865,5,2,0:0:0:0:
256,34,79357,1,0,1:0:0:0:
376,68,79603,1,0,0:0:0:0:
401,99,79726,1,0,0:0:0:0:
425,128,79849,1,2,0:0:0:0:
318,193,80095,1,0,0:0:0:0:
426,255,80341,1,0,1:0:0:0:
374,368,80586,1,0,0:0:0:0:
306,94,80832,6,0,B|211:110|203:221|227:271|304:298,1,250,4|0,0:0|1:0,0:0:0:0:
274,284,81570,2,0,L|141:315,1,125,0|2,0:0|0:0,0:0:0:0:
71,216,82062,1,0,0:0:0:0:
196,214,82308,1,0,1:0:0:0:
148,98,82554,2,0,B|300:163|400:20,1,250,2|0,0:0|0:0,0:0:0:0:
374,51,83291,2,0,B|306:110|365:201,1,125,0|0,1:0|0:0,0:0:0:0:
466,325,83783,2,0,B|447:236|349:240,1,125,2|0,0:0|0:0,0:0:0:0:
185,248,84275,2,0,B|258:283|316:213,1,125,0|2,1:0|0:0,0:0:0:0:
111,98,84767,5,2,0:0:0:0:
33,195,85013,1,0,0:0:0:0:
82,309,85259,1,0,1:0:0:0:
174,224,85505,1,0,0:0:0:0:
256,317,85750,1,2,0:0:0:0:
256,317,85873,1,0,0:0:0:0:
256,317,85996,1,0,0:0:0:0:
342,226,86242,2,0,B|412:157|497:170,1,125,0|0,1:0|0:0,0:0:0:0:
257,152,86734,6,0,B|227:34|96:35|50:95,1,250,2|0,0:0|1:0,0:0:0:0:
257,152,87472,2,0,B|287:34|417:35|464:95,1,250,2|0,0:0|0:0,0:0:0:0:
256,313,88209,1,4,0:0:0:0:
148,194,88455,1,0,0:0:0:0:
334,90,88701,5,4,0:0:0:0:
253,300,88947,1,0,0:0:0:0:
180,57,89193,5,4,0:0:0:0:
253,321,89439,1,0,0:0:0:0:
424,151,89685,6,0,B|389:70|291:88,1,125,0|0,1:0|0:0,0:0:0:0:
361,296,90177,1,0,1:0:0:0:
405,305,90299,1,0,1:0:0:0:
456,298,90422,1,0,1:0:0:0:
492,265,90545,1,0,1:0:0:0:
510,221,90668,2,0,B|357:291|255:190,1,275.000008392334,4|0,0:0|1:0,0:0:0:0:
378,250,91406,2,0,B|426:192|395:102,1,137.500004196167,2|0,0:0|0:0,0:0:0:0:
221,55,91898,1,2,0:0:0:0:
131,159,92144,1,0,1:0:0:0:
247,266,92390,2,0,B|323:298|386:244,1,137.500004196167,2|0,0:0|0:0,0:0:0:0:
140,328,92882,2,0,B|64:296|1:350,1,137.500004196167,2|0,0:0|1:0,0:0:0:0:
140,328,93373,1,0,0:0:0:0:
48,225,93619,5,2,0:0:0:0:
70,90,93865,1,0,0:0:0:0:
184,188,94111,1,0,1:0:0:0:
215,50,94357,2,0,L|360:66,1,137.500004196167,2|0,0:0|0:0,0:0:0:0:
477,224,94849,2,0,L|332:208,1,137.500004196167,2|0,0:0|1:0,0:0:0:0:
215,50,95341,2,0,L|226:328,1,275.000008392334,2|0,0:0|0:0,0:0:0:0:
225,324,96078,1,0,1:0:0:0:
356,358,96324,2,0,L|377:203,2,137.500004196167,2|0|2,0:0|0:0|0:0,0:0:0:0:
43,242,97062,5,0,1:0:0:0:
45,98,97308,1,0,0:0:0:0:
205,18,97554,1,2,0:0:0:0:
363,60,97800,1,2,0:0:0:0:
199,210,98046,1,0,1:0:0:0:
375,266,98291,1,4,0:0:0:0:
147,133,98537,2,0,B|49:178|75:278|75:278|104:309,1,206.250006294251,4|0,0:0|0:0,0:0:0:0:
152,354,99029,1,4,1:2:0:0:
147,133,99275,6,0,B|166:82|216:68|259:88|259:88|286:50|336:43|381:75,1,275.000008392334,2|0,0:0|0:0,0:0:0:0:
225,164,100013,1,0,1:0:0:0:
330,309,100259,1,2,0:0:0:0:
447,217,100505,1,0,0:0:0:0:
324,131,100750,2,0,B|348:42|427:37,2,137.500004196167,2|0|0,0:0|1:0|0:0,0:0:0:0:
188,242,101488,1,2,0:0:0:0:
326,242,101734,1,0,0:0:0:0:
188,131,101980,2,0,B|164:42|85:37,2,137.500004196167,0|0|2,1:0|0:0|0:0,0:0:0:0:
83,139,102718,1,0,0:0:0:0:
256,85,102964,5,0,1:0:0:0:
360,192,103209,1,0,0:0:0:0:
256,299,103455,1,2,0:0:0:0:
152,192,103700,1,0,0:0:0:0:
339,321,103947,5,0,1:0:0:0:
307,359,104070,1,0,1:0:0:0:
257,372,104193,1,0,1:0:0:0:
205,359,104316,1,0,1:0:0:0:
173,321,104439,2,0,B|124:310|116:228|184:204|184:204|144:181|143:139|165:111,1,250,4|0,0:0|1:0,0:0:0:0:
358,125,105177,2,0,B|370:144|365:185|330:204|330:204|398:228|390:310|341:321,1,250,2|0,0:0|0:0,0:0:0:0:
257,138,105914,1,0,1:0:0:0:
256,249,106160,1,0,0:0:0:0:
67,135,106406,6,0,B|35:79|82:19|82:19|158:13|191:63,1,250,4|0,0:0|1:0,0:0:0:0:
321,63,107144,2,0,B|354:13|430:19|430:19|477:79|445:135,1,250,2|0,0:0|0:0,0:0:0:0:
257,138,107882,1,0,1:0:0:0:
151,295,108127,2,0,B|175:273|227:269|256:323|256:323|280:270|330:273|360:291,1,250,2|0,0:0|0:0,0:0:0:0:
165,193,108865,1,0,1:0:0:0:
165,193,109111,2,0,B|139:129|103:171|75:107,1,125,2|4,0:0|0:3,0:0:0:0:
256,137,109603,2,0,B|234:89|280:63|256:15,1,125,4|0,0:3|1:0,0:0:0:0:
347,193,110095,2,0,B|373:129|409:171|437:107,1,125,2|4,0:0|0:0,0:0:0:0:
323,299,110586,5,0,0:0:0:0:
256,137,110832,1,0,1:0:0:0:
191,301,111078,2,0,B|135:336|60:311|27:253|57:174,2,250,2|2|0,0:0|0:0|0:0,0:0:0:0:
323,299,112308,6,0,B|352:374|421:365|421:365|474:310|442:246,2,247.49999924469,2|2|0,0:0|0:0|1:0,0:0:0:0:
203,173,114029,2,0,B|225:140|256:132|285:140|308:170,1,125,2|0,0:0|0:0,0:0:0:0:
146,59,114521,5,2,0:0:0:0:
256,228,114767,1,0,1:0:0:0:
362,61,115013,1,2,0:0:0:0:
134,192,115259,1,0,0:0:0:0:
378,192,115505,1,0,1:0:0:0:
256,8,115750,1,0,1:0:0:0:
256,260,115996,1,0,0:0:0:0:
256,278,116119,1,0,0:0:0:0:
256,297,116242,6,0,B|198:329|139:294,1,112.499996566773,4|0,0:0|0:0,0:0:0:0:
148,186,116734,1,0,1:0:0:0:
256,297,116980,2,0,B|314:329|373:294,1,112.499996566773,2|0,0:0|0:0,0:0:0:0:
353,122,117472,2,0,B|300:166|314:245,1,112.499996566773,0|0,0:0|1:0,0:0:0:0:
449,326,117964,1,0,0:0:0:0:
472,303,118086,1,0,0:0:0:0:
484,270,118209,2,0,B|453:203|393:200,1,112.499996566773,2|0,0:0|0:0,0:0:0:0:
437,93,118701,1,0,1:0:0:0:
401,200,118947,2,0,B|362:266|294:267,1,112.499996566773,2|0,0:0|0:0,0:0:0:0:
292,154,119439,2,0,B|209:165|147:106,1,112.499996566773,0|0,0:0|1:0,0:0:0:0:
330,50,119931,6,0,B|400:42|443:91|457:169|386:212,2,224.999993133545,2|2|0,0:0|0:0|0:0,0:0:0:0:
255,133,121160,1,0,0:0:0:0:
172,56,121406,2,0,B|109:51|102:136,1,112.499996566773,2|0,0:0|1:0,0:0:0:0:
99,240,121898,2,0,B|162:245|169:160,1,112.499996566773,2|2,0:0|0:0,0:0:0:0:
168,168,122390,6,0,L|238:328,2,174.999994659424
146,349,123619,1,0,1:0:0:0:
272,187,123865,1,0,0:0:0:0:
99,275,124111,6,0,B|37:269|-3:208|18:138|85:112,1,224.999993133545,4|0,0:0|1:0,0:0:0:0:
80,115,124849,2,0,B|110:59|179:64|206:81,1,112.499996566773,2|0,0:0|0:0,0:0:0:0:
297,113,125341,2,0,B|267:169|198:164|171:147,1,112.499996566773,2|0,0:0|1:0,0:0:0:0:
325,27,125832,1,0,0:0:0:0:
357,38,125955,1,0,0:0:0:0:
383,58,126078,2,0,B|409:124|356:197,1,112.499996566773,2|0,0:0|0:0,0:0:0:0:
441,256,126570,1,0,1:0:0:0:
329,269,126816,2,0,B|286:210|181:214|161:309|184:345,2,224.999993133545,2|2|0,0:0|0:0|0:0,0:0:0:0:
178,330,128046,6,0,B|93:233|173:98,1,224.999993133545,2|0,0:0|1:0,0:0:0:0:
229,209,128783,2,0,B|286:247|351:204,1,112.499996566773,2|0,0:0|0:0,0:0:0:0:
422,144,129275,1,2,0:0:0:0:
342,68,129521,1,0,1:0:0:0:
323,49,129644,1,0,1:0:0:0:
304,30,129767,1,0,1:0:0:0:
169,96,130013,6,0,B|81:88|30:197|30:197|74:319|174:299,1,374.999988555909,4|2,0:0|0:0,0:0:0:0:
257,349,131488,2,0,B|323:319|355:391|419:338,1,149.999995422363,2|0,0:0|0:0,0:0:0:0:
235,77,133455,6,0,B|256:45|256:45|277:76,2,74.9999977111817,2|0|0,0:0|0:0|0:0,0:0:0:0:
255,262,143045,6,0,B|227:125|45:117,1,250,2|0,0:0|0:0,0:0:0:0:
73,119,143783,1,0,0:0:0:0:
255,262,144029,2,0,B|321:313|385:261,1,137.500004196167,4|0,0:0|0:0,0:0:0:0:
494,185,144520,1,0,0:0:0:0:
361,148,144766,1,0,1:0:0:0:
434,0,145012,6,0,B|480:62|436:134,1,137.500004196167,2|0,0:0|0:0,0:0:0:0:
323,53,145504,1,2,0:0:0:0:
255,172,145750,1,0,1:0:0:0:
139,96,145996,2,0,B|98:162|138:225,2,137.500004196167,2|0|0,0:0|0:0|0:0,0:0:0:0:
255,253,146734,1,0,1:0:0:0:
255,253,146979,1,0,0:0:0:0:
332,131,147225,6,0,B|406:177|482:122,2,137.500004196167,2|0|0,0:0|0:0|1:0,0:0:0:0:
219,50,147963,2,0,B|153:15|63:70|53:157|107:213,1,275.000008392334,2|0,0:0|0:0,0:0:0:0:
191,316,148701,1,0,1:0:0:0:
255,194,148947,1,0,0:0:0:0:
313,318,149193,1,0,0:0:0:0:
407,209,149439,2,0,B|459:157|449:70|359:15|293:50,2,275.000008392334,2|0|0,0:0|0:0|0:0,0:0:0:0:
407,209,150668,1,0,1:0:0:0:
257,117,150914,6,0,B|214:188|120:192,1,137.500004196167,2|0,0:0|0:0,0:0:0:0:
258,267,151406,1,4,0:3:0:0:
161,277,151652,2,0,B|92:278|50:347,1,137.500004196167,0|0,1:0|0:0,0:0:0:0:
292,168,152143,2,0,B|350:192|362:277|362:277|432:248|507:304,1,275.000008392334,4|0,0:0|1:0,0:0:0:0:
292,168,152881,2,0,B|243:227|171:168|171:168|162:259|74:248,2,275.000008392334,2|2|2,0:0|0:0|0:0,0:0:0:0:
64,163,154111,2,0,B|-15:191|2:293,1,137.500004196167,2|0,0:0|0:0,0:0:0:0:
146,273,154602,1,0,1:0:0:0:
64,163,154848,2,0,B|72:72|-8:52,1,137.500004196167,2|0,0:0|0:0,0:0:0:0:
199,88,155340,2,0,B|191:179|271:199,1,137.500004196167,2|0,0:0|1:0,0:0:0:0:
122,263,155832,1,0,0:0:0:0:
122,263,155955,1,0,0:0:0:0:
122,263,156078,6,0,B|48:287|47:377,1,125,4|0,0:0|0:0,0:0:0:0:
55,177,156570,1,0,1:0:0:0:
122,263,156816,2,0,L|249:263,1,125,2|0,0:0|0:0,0:0:0:0:
387,179,157307,2,0,L|262:179,1,125,0|0,0:0|1:0,0:0:0:0:
422,280,157799,2,0,B|482:246|517:182|478:105|417:84,1,250,2|0,0:0|0:0,0:0:0:0:
288,99,158537,1,0,1:0:0:0:
202,8,158783,2,0,B|147:47|169:133,1,125,2|0,0:0|0:0,0:0:0:0:
193,282,159275,2,0,B|248:243|226:157,1,125,2|0,0:0|1:0,0:0:0:0:
74,279,159766,2,0,B|142:267|184:324|184:324|257:291|310:329,1,250,2|0,0:0|0:0,0:0:0:0:
387,231,160504,1,0,1:0:0:0:
267,194,160750,6,0,B|193:219|124:178|116:85|150:38,2,250,2|2|2,0:0|0:0|0:0,0:0:0:0:
254,318,161979,1,0,0:0:0:0:
156,252,162225,1,0,0:0:0:0:
346,193,162471,1,0,1:0:0:0:
178,123,162717,1,0,0:0:0:0:
320,51,162963,1,4,0:3:0:0:
256,193,163209,2,0,L|256:259,2,62.5,0|0|0,0:0|0:0|1:0,0:0:0:0:
324,328,163701,1,4,0:0:0:0:
186,327,163947,6,0,B|162:258|92:265|92:265|100:194|48:151,1,250,4|0,0:0|1:0,0:0:0:0:
182,186,164684,2,0,B|240:195|279:122|279:122|342:179|398:145,2,250,2|2|0,0:0|0:0|0:0,0:0:0:0:
278,266,165914,1,0,0:0:0:0:
387,326,166160,2,0,P|442:337|487:281,1,125,0|0,0:0|1:0,0:0:0:0:
399,199,166652,2,0,B|427:131|371:42|270:57|233:119,1,250,2|2,0:0|0:0,0:0:0:0:
128,63,167389,5,0,1:0:0:0:
71,174,167635,2,0,B|112:212|154:192|154:192|110:259|168:325|221:297,1,250,2|2,0:0|0:0,0:0:0:0:
256,185,168373,1,0,1:0:0:0:
256,185,168619,1,0,0:0:0:0:
441,174,168865,2,0,B|399:212|357:192|357:192|402:259|344:325|291:297,1,250,2|0,0:0|1:0,0:0:0:0:
355,109,169602,6,0,B|326:47|256:24|185:45|151:106,1,250,2|4,0:0|1:2,0:0:0:0:
256,158,170340,2,0,L|256:297,1,125
146,192,170832,1,8,0:3:0:0:
255,366,171078,1,8,0:3:0:0:
368,191,171324,1,8,0:3:0:0:
145,302,171570,1,4,0:3:0:0:
473,248,171816,6,0,B|435:178|367:193|367:193|397:126|350:75,1,250,4|0,0:0|1:0,0:0:0:0:
256,162,172553,1,0,0:0:0:0:
157,80,172799,2,0,B|115:126|145:193|145:193|77:178|39:248,1,250,2|0,0:0|1:0,0:0:0:0:
153,314,173537,2,0,B|184:286|239:291|256:339|256:339|274:291|329:287|359:317,1,250,2|0,0:0|0:0,0:0:0:0:
477,266,174275,1,0,1:0:0:0:
429,146,174520,2,0,L|474:16,2,125,2|0|0,0:0|0:0|0:0,0:0:0:0:
315,197,175258,6,0,B|279:134|324:69,1,125,0|2,1:0|0:0,0:0:0:0:
256,255,175750,1,0,0:0:0:0:
194,78,175996,1,2,0:0:0:0:
194,78,176242,2,0,B|230:135|197:197,1,125,0|0,1:0|0:0,0:0:0:0:
115,292,176734,1,4,0:3:0:0:
75,173,176979,1,4,0:3:0:0:
196,197,177225,5,0,1:0:0:0:
249,308,177471,2,0,B|328:359|422:294|396:203|354:171,1,250,2|0,0:0|0:0,0:0:0:0:
256,31,178209,1,0,1:0:0:0:
256,31,178455,1,0,0:0:0:0:
136,192,178701,1,8,0:3:0:0:
365,91,178947,1,0,1:0:0:0:
142,90,179193,1,0,1:0:0:0:
148,100,179316,1,0,0:0:0:0:
154,110,179439,1,0,0:0:0:0:
355,193,179684,5,4,0:0:0:0:
424,297,179930,1,0,0:0:0:0:
322,370,180176,1,0,1:0:0:0:
247,269,180422,1,0,0:0:0:0:
128,309,180668,2,0,B|57:344|-19:278|3:188|74:161,1,250,2|0,0:0|1:0,0:0:0:0:
162,242,181406,2,0,B|165:197|205:176|255:199|255:199|306:173|348:198|347:242,1,250,2|0,0:0|0:0,0:0:0:0:
447,166,182143,2,0,B|506:187|528:277|452:343|381:308,1,250,0|2,1:0|0:0,0:0:0:0:
322,200,182881,1,0,0:0:0:0:
255,306,183127,1,0,1:0:0:0:
189,199,183373,1,2,0:0:0:0:
256,317,183619,1,0,0:0:0:0:
339,54,184111,6,0,L|255:148,2,125,0|0|2,1:0|0:0|0:0,0:0:0:0:
434,134,184848,1,0,0:0:0:0:
351,227,185094,1,0,1:0:0:0:
255,147,185340,2,0,B|217:89|148:102|148:102|109:43|38:61,1,250,2|0,0:0|0:0,0:0:0:0:
0,178,186078,1,0,1:0:0:0:
21,303,186324,2,0,B|146:346|194:253|177:174,1,250,2|2,0:0|0:0,0:0:0:0:
256,58,187061,1,0,1:0:0:0:
336,180,187307,1,4,0:3:0:0:
178,181,187553,1,4,0:0:0:0:
256,192,188045,12,6,191488,0:0:0:0:
