osu file format v14

[General]
AudioFilename: Savate Genetics - Promise (Nightstep).mp3
AudioLeadIn: 0
PreviewTime: 46236
Countdown: 0
SampleSet: None
StackLeniency: 0.7
Mode: 0
LetterboxInBreaks: 1
WidescreenStoryboard: 1

[Editor]
DistanceSpacing: 1
BeatDivisor: 4
GridSize: 32
TimelineZoom: 1.6

[Metadata]
Title:Promise (Nightstep)
TitleUnicode:Promise (Nightstep)
Artist:Savate Genetics
ArtistUnicode:Savate Genetics
Creator:DygnitarZ
Version:v6
Source:
Tags:
BeatmapID:1005257
BeatmapSetID:349918

[Difficulty]
HPDrainRate:8
CircleSize:4
OverallDifficulty:8.4
ApproachRate:9
SliderMultiplier:1.50000000596046
SliderTickRate:1

[Events]
//Background and Video events
0,0,"c5d197eaed51657b9c94e0dedb99fe4d.jpg",0,0
//Break Periods
2,77845,87928
//Storyboard Layer 0 (Background)
//Storyboard Layer 1 (Fail)
//Storyboard Layer 2 (Pass)
//Storyboard Layer 3 (Foreground)
//Storyboard Sound Samples

[TimingPoints]
160,329.543582138738,4,2,0,100,1,0
18618,329.779048037815,4,2,0,100,1,0
21668,-83.3333333333333,4,2,0,100,0,0
22492,-76.9230769230769,4,2,0,100,0,0
22821,-100,4,2,0,100,0,0
23453,-76.9230769230769,4,2,0,100,0,0
23515,-76.9230769230769,4,2,0,100,0,0
25767,-76.9230769230769,4,2,0,100,0,0
29088,-90.9090909090909,4,2,0,100,0,0
35711,-200,4,3,0,100,0,0
36370,-76.9230769230769,4,3,0,100,0,0
36979,-71.4285714285714,4,3,0,100,0,0
37168,-100,4,3,0,100,0,0
37371,-142.857142857143,4,3,0,100,0,0
37580,-166.666666666667,4,3,0,100,0,0
37662,-200,4,3,0,100,0,0
38074,-200,4,3,0,100,0,0
38294,-90.0900900900901,4,3,0,100,0,0
39723,-90.909090909091,4,3,0,100,0,0
40960,-181.818181818181,4,3,0,100,0,0
41702,-90.9090909090909,4,3,0,100,0,0
42279,-62.5,4,3,0,100,0,0
43268,-90.9090909090909,4,3,0,100,0,0
43647,-133.333333333333,4,3,0,100,0,0
44917,-83.3333333333333,4,3,0,100,0,0
45659,-66.6666666666667,4,3,0,100,0,0
46190,-142.857142857143,4,3,0,100,0,0
46965,-66.6666666666667,4,3,0,100,0,0
48463,-50,4,3,0,100,0,0
48521,-200,4,3,0,100,0,0
50155,-100,4,3,0,100,0,0
51595,-200,4,3,0,100,0,0
52173,-66.6666666666667,4,3,0,100,0,0
52886,-125,4,3,0,100,0,0
53808,-66.6666666666667,4,3,0,100,0,0
54151,-133.333333333333,4,3,0,100,0,0
55553,-200,4,3,0,100,0,0
56212,1319.11619215126,4,3,0,100,1,0
56212,-200,4,3,0,100,0,0
56871,329.779048037815,4,3,0,100,1,0
60745,-62.5,4,3,0,100,0,0
61405,-200,4,3,0,100,0,0
61487,1319.11619215126,4,3,0,100,1,0
62146,329.779048037815,4,3,0,100,1,0
62146,-200,4,3,0,100,0,0
62723,-66.6666666666667,4,3,0,100,0,0
63465,-133.333333333333,4,3,0,100,0,0
64372,-125,4,3,0,100,0,0
66103,-50,4,3,0,100,0,0
66762,-133.333333333333,4,3,0,100,0,0
67422,-200,4,3,0,100,0,0
68082,-66.6666666666667,4,3,0,100,0,0
68906,-100,4,3,0,100,0,0
70060,-133.333333333333,4,3,0,100,0,0
72698,-200,4,3,0,100,0,0
73358,-66.6666666666667,4,3,0,100,0,0
73688,-133.333333333333,4,3,0,100,0,0
75007,-66.6666666666667,4,3,0,100,0,0
75337,-133.333333333333,4,3,0,100,0,0
88332,-111.111111111111,4,3,0,100,0,0

[HitObjects]
0,256,10705,5,0,0:0:0:0:
96,224,10870,1,0,0:0:0:0:
160,128,11034,1,0,0:0:0:0:
256,96,11199,1,0,0:0:0:0:
352,32,11364,2,0,B|384:32|384:32|448:0,3,74.9999952316285
416,288,12023,2,0,B|416:320|416:320|384:384,1,74.9999952316285
256,128,12353,2,0,B|256:96|256:96|224:32,1,74.9999952316285
96,288,12682,2,0,B|96:320|96:320|128:384,1,74.9999952316285
256,224,13012,1,0,0:0:0:0:
384,128,13176,2,0,B|416:96|416:32,2,74.9999952316285
416,288,13672,1,0,0:0:0:0:
128,208,14001,1,0,0:0:0:0:
16,112,14165,1,0,0:0:0:0:
128,208,14330,2,0,B|224:288,1,112.500000447034
288,320,14661,1,0,0:0:0:0:
416,256,14826,1,0,0:0:0:0:
256,224,14991,1,0,0:0:0:0:
448,160,15155,1,0,0:0:0:0:
224,96,15320,1,0,0:0:0:0:
352,144,15649,1,0,0:0:0:0:
64,112,15978,2,0,B|48:144|48:144|-16:176,1,75.000000298023
0,224,16225,1,0,0:0:0:0:
32,280,16307,2,0,B|58:315|58:315|96:328,1,75.000000298023
256,352,16638,1,0,0:0:0:0:
448,352,16803,1,0,0:0:0:0:
192,336,16968,1,0,0:0:0:0:
512,336,17132,1,0,0:0:0:0:
256,232,17296,2,0,B|224:184|176:168|176:168|192:88,1,149.999990463257
464,96,17955,1,0,0:0:0:0:
352,288,18286,2,0,B|352:320|352:320|384:368,1,74.9999952316285
160,80,18618,2,0,B|128:64|128:64|64:96|0:64,2,150.000000596046
256,352,19607,1,0,0:0:0:0:
32,120,19937,1,0,0:0:0:0:
32,267,20101,1,0,0:0:0:0:
12,79,20266,1,0,0:0:0:0:
12,309,20431,1,0,0:0:0:0:
32,37,20596,1,0,0:0:0:0:
32,350,20925,1,0,0:0:0:0:
368,32,21255,1,0,0:0:0:0:
480,192,21420,1,0,0:0:0:0:
368,352,21584,1,0,0:0:0:0:
256,192,21749,1,0,0:0:0:0:
256,192,21832,1,0,0:0:0:0:
256,192,21914,1,0,0:0:0:0:
144,32,22079,1,0,0:0:0:0:
32,192,22244,1,0,0:0:0:0:
144,352,22408,1,0,0:0:0:0:
256,192,22573,2,0,B|273:160|273:160|344:112,1,97.4999959242343
387,122,22822,1,0,0:0:0:0:
452,130,22905,2,0,B|489:178|489:178|508:210,2,75.000000298023
32,352,23562,1,0,0:0:0:0:
160,320,23727,1,0,0:0:0:0:
64,224,23891,1,0,0:0:0:0:
320,256,24221,1,0,0:0:0:0:
192,128,24554,1,0,0:0:0:0:
384,192,24883,1,0,0:0:0:0:
128,192,25213,1,0,0:0:0:0:
400,80,25378,1,0,0:0:0:0:
128,320,25543,1,0,0:0:0:0:
256,16,25708,1,0,0:0:0:0:
256,368,25873,1,0,0:0:0:0:
256,16,26202,1,0,0:0:0:0:
128,288,26528,2,0,B|112:352|112:352|64:400,1,97.4999893379217
352,96,26858,2,0,B|352:32|352:32|368:0,1,97.4999893379217
96,96,27187,2,0,B|31:95|31:95|0:80,1,97.4999893379217
416,288,27517,2,0,B|479:287|479:287|512:304,1,97.4999893379217
192,192,27846,1,0,0:0:0:0:
352,192,28176,1,0,0:0:0:0:
32,192,28505,1,0,0:0:0:0:
256,64,28835,1,0,0:0:0:0:
256,320,29000,1,0,0:0:0:0:
448,192,29170,2,0,B|480:160|480:160|480:96|506:44,1,164.999994544983
448,192,29830,2,0,B|455:147|455:147|417:95|405:24,1,165.000005691051
224,32,30483,1,0,0:0:0:0:
32,96,30648,1,0,0:0:0:0:
256,160,30812,1,0,0:0:0:0:
0,224,30977,1,0,0:0:0:0:
288,288,31142,2,0,B|352:304|384:272|432:288|464:304,1,165.000005691052
200,112,35766,6,0,L|176:112,11,12.5000000496705
272,152,36426,1,0,0:0:0:0:
192,192,36590,1,0,0:0:0:0:
296,248,36755,1,0,0:0:0:0:
160,288,36920,1,0,0:0:0:0:
336,344,37085,2,0,L|408:344,1,52.4999986064433
368,288,37250,2,0,L|416:288,1,37.5000001490115
392,232,37415,2,0,L|424:232,1,26.2499993032216
416,176,37580,2,0,L|448:176,1,26.2499993032216
456,120,37745,2,0,L|432:56,1,50.000000198682
352,32,38074,2,0,L|339:32,5,12.5000000496705
256,32,38404,1,0,0:0:0:0:
224,48,38514,1,0,0:0:0:0:
192,64,38624,1,0,0:0:0:0:
224,80,38734,1,0,0:0:0:0:
256,96,38844,1,0,0:0:0:0:
288,112,38954,1,0,0:0:0:0:
240,128,39064,1,0,0:0:0:0:
192,144,39174,1,0,0:0:0:0:
144,160,39284,1,0,0:0:0:0:
208,176,39394,1,0,0:0:0:0:
272,192,39504,1,0,0:0:0:0:
336,208,39613,1,0,0:0:0:0:
400,240,39723,2,0,P|432:304|432:352,1,82.5000028455256
400,160,40053,2,0,B|416:96|448:64,1,82.5000028455256
304,112,40383,2,0,B|271:83|256:32,3,82.5000028455256
64,176,41042,2,0,B|32:240|32:272,1,82.5000028455256
112,64,41702,2,0,B|64:72|64:72|-16:136,1,123.750004268288
192,144,42032,2,0,B|216:96|216:96|288:40,1,123.750004268288
324,36,42362,1,0,0:0:0:0:
376,44,42444,1,0,0:0:0:0:
420,76,42526,2,0,L|420:136,2,59.9999961853028
256,240,42856,2,0,L|256:300,1,59.9999961853028
400,336,43021,2,0,L|432:284,2,59.9999961853028
48,60,43351,2,0,B|80:44|80:44|152:44,1,82.4999972724915
416,128,43681,2,0,L|428:200,1,56.2499964237214
400,352,44010,2,0,L|368:288,1,56.2499964237214
256,160,44340,2,0,L|268:232,1,56.2499964237214
160,336,44669,2,0,L|128:272,1,56.2499964237214
128,64,45000,1,0,0:0:0:0:
384,64,45165,1,0,0:0:0:0:
384,256,45330,1,0,0:0:0:0:
208,208,45494,1,0,0:0:0:0:
256,96,45659,2,0,B|352:96|488:136,1,225.000009477138
336,320,46319,2,0,B|256:352|224:352,1,104.999997212887
80,136,46978,2,0,L|-16:168,1,56.2499985694885
80,248,47143,2,0,L|-16:216,1,56.2499985694885
208,120,47308,2,0,L|154:137,1,56.2499985694885
208,264,47473,2,0,L|154:246,1,56.2499985694885
304,104,47638,1,0,0:0:0:0:
352,280,47803,1,0,0:0:0:0:
400,88,47968,1,0,0:0:0:0:
448,296,48133,1,0,0:0:0:0:
496,72,48298,1,0,0:0:0:0:
256,192,48463,1,0,0:0:0:0:
48,64,48627,2,0,L|48:24,1,37.5000001490115
48,144,48957,1,0,0:0:0:0:
65,216,49122,1,0,0:0:0:0:
109,277,49287,1,0,0:0:0:0:
171,317,49452,1,0,0:0:0:0:
244,333,49617,1,0,0:0:0:0:
318,320,49782,1,0,0:0:0:0:
381,281,49947,1,0,0:0:0:0:
426,222,50111,1,0,0:0:0:0:
456,156,50276,2,0,B|460:124|488:80,1,75.000000298023
80,48,50606,2,0,B|48:48|-16:80,1,75.000000298023
256,320,50936,2,0,B|288:320|336:288,1,75.000000298023
464,48,51266,2,0,B|416:32|384:32,1,75.000000298023
128,224,51595,2,0,B|96:240|96:240|48:256,1,75.000000298023
256,144,52255,2,0,L|256:80,1,56.2499985694885
272,224,52420,2,0,L|272:288,1,56.2499985694885
340,124,52585,2,0,L|340:60,1,56.2499985694885
356,252,52750,2,0,L|356:316,1,56.2499985694885
432,160,52915,2,0,L|462:160,4,30.0000001192092
176,112,53409,1,0,0:0:0:0:
127,138,53491,1,0,0:0:0:0:
108,192,53573,1,0,0:0:0:0:
127,246,53656,1,0,0:0:0:0:
176,273,53738,1,0,0:0:0:0:
48,288,53904,2,0,B|32:248|32:248|32:176,1,112.500004738569
416,80,54234,2,0,L|480:112,1,56.2500023692846
464,304,54563,2,0,L|400:256,1,56.2500023692846
288,64,54893,2,0,L|352:96,1,56.2500023692846
336,320,55222,2,0,L|272:272,1,56.2500023692846
96,176,55553,1,0,0:0:0:0:
192,48,55718,1,0,0:0:0:0:
256,192,55883,1,0,0:0:0:0:
96,176,56047,1,0,0:0:0:0:
32,48,56212,2,0,L|32:28,2,18.7500000745058
32,144,57035,1,0,0:0:0:0:
32,240,57200,2,0,P|48:320|96:384,2,150.000000596046
256,48,58190,2,0,L|320:32,1,37.5000001490115
256,128,58355,2,0,L|208:144,1,37.5000001490115
336,48,58519,1,0,0:0:0:0:
416,192,58684,1,0,0:0:0:0:
256,288,58849,2,0,B|224:304|208:320,3,37.5000001490116
112,272,59179,2,0,B|48:208|48:208|32:160,1,112.500000447034
32,96,59509,1,0,0:0:0:0:
53,74,59618,1,0,0:0:0:0:
74,53,59728,1,0,0:0:0:0:
128,48,59839,1,0,0:0:0:0:
183,48,59948,1,0,0:0:0:0:
238,48,60058,1,0,0:0:0:0:
320,64,60168,1,0,0:0:0:0:
389,102,60277,1,0,0:0:0:0:
442,162,60387,1,0,0:0:0:0:
448,256,60498,1,0,0:0:0:0:
376,324,60607,1,0,0:0:0:0:
282,356,60717,1,0,0:0:0:0:
144,352,60828,2,0,B|54:329|54:329|16:304,1,120.000000476837
256,64,61158,2,0,B|354:54|354:54|416:32,1,120.000000476837
464,192,61487,2,0,B|416:224,1,37.5000001490115
416,320,62146,2,0,L|336:336,1,75.000000298023
72,192,62805,2,0,L|8:216,1,56.2500023692846
72,104,62970,2,0,L|-8:128,1,56.2500023692846
72,24,63135,2,0,B|160:0|160:0|200:0,1,112.500004738569
432,32,63465,2,0,B|472:48|472:48|488:64,1,56.2500023692846
240,264,63794,2,0,B|200:264|200:264|168:248,1,56.2500023692846
424,160,64124,2,0,B|464:144|464:144|496:160,1,56.2500023692846
341,312,64454,2,0,L|296:312,2,45.0000001788138
216,312,64784,2,0,L|197:312,2,18.7500000745057
216,240,64949,2,0,L|216:225,1,15.0000000596046
296,240,65072,2,0,L|296:225,1,15.0000000596046
464,224,65278,2,0,L|464:176,1,30.0000001192092
443,119,65443,1,0,0:0:0:0:
398,65,65525,1,0,0:0:0:0:
329,32,65607,1,0,0:0:0:0:
75,185,65774,1,0,0:0:0:0:
70,262,65856,1,0,0:0:0:0:
94,327,65938,1,0,0:0:0:0:
272,336,66103,2,0,L|272:176,1,150.000000596046
344,160,66323,2,0,L|344:272,1,100.000000397364
416,256,66488,2,0,L|416:144,2,100.000000397364
488,256,66762,2,0,L|488:144,1,112.500004738569
336,352,67422,2,0,B|296:352|296:352|264:336,1,75.000000298023
192,192,68082,2,0,L|128:192,1,56.2500023692846
304,192,68246,2,0,L|368:192,1,56.2500023692846
160,112,68411,2,0,L|96:112,1,56.2500023692846
336,112,68576,2,0,L|400:112,1,56.2500023692846
128,32,68741,1,0,0:0:0:0:
128,32,68824,1,0,0:0:0:0:
128,32,68906,2,0,L|96:32,3,25.000000099341
368,32,69236,1,0,0:0:0:0:
416,32,69318,1,0,0:0:0:0:
464,32,69401,2,0,L|512:32,2,37.5000001490115
240,208,69730,2,0,L|176:288,1,75.000000298023
416,288,70060,2,0,L|432:224,1,56.2500023692846
352,80,70390,1,0,0:0:0:0:
297,66,70554,1,0,0:0:0:0:
272,96,70720,1,0,0:0:0:0:
217,82,70884,1,0,0:0:0:0:
192,112,71050,1,0,0:0:0:0:
137,98,71214,1,0,0:0:0:0:
64,192,71379,1,0,0:0:0:0:
160,352,71544,1,0,0:0:0:0:
256,192,71709,1,0,0:0:0:0:
352,352,71874,1,0,0:0:0:0:
448,192,72039,1,0,0:0:0:0:
64,192,72369,1,0,0:0:0:0:
432,192,72698,2,0,L|512:192,1,75.000000298023
368,32,73358,1,0,0:0:0:0:
312,32,73440,1,0,0:0:0:0:
256,32,73523,1,0,0:0:0:0:
208,64,73605,1,0,0:0:0:0:
152,64,73688,1,0,0:0:0:0:
96,64,73770,2,0,L|16:64,1,56.2500023692846
16,120,74018,1,0,0:0:0:0:
16,176,74100,1,0,0:0:0:0:
0,232,74182,1,0,0:0:0:0:
0,288,74265,1,0,0:0:0:0:
16,344,74347,2,0,L|80:344,1,56.2500023692846
112,296,74594,1,0,0:0:0:0:
112,240,74677,1,0,0:0:0:0:
128,184,74759,1,0,0:0:0:0:
128,128,74842,1,0,0:0:0:0:
240,40,75007,2,0,L|304:24,1,56.2500023692846
320,88,75172,2,0,L|384:80,1,56.2500023692846
400,144,75337,2,0,B|472:144|472:144|536:160,2,112.500004738569
32,192,76326,1,0,0:0:0:0:
384,64,76656,1,0,0:0:0:0:
160,128,76821,1,0,0:0:0:0:
416,192,76986,1,0,0:0:0:0:
160,256,77150,1,0,0:0:0:0:
384,320,77315,1,0,0:0:0:0:
40,192,77645,1,0,0:0:0:0:
96,96,88528,5,0,0:0:0:0:
256,192,89847,1,0,0:0:0:0:
416,96,91167,1,0,0:0:0:0:
256,192,92486,1,0,0:0:0:0:
256,192,93804,5,0,0:0:0:0:
256,320,94134,2,0,P|323:313|386:277,1,134.999996416568
320,64,95123,1,0,0:0:0:0:
192,64,95453,2,0,P|126:69|64:97,1,134.999996416568
416,320,96442,2,0,P|448:224|448:160,2,134.999996416568
256,288,97431,2,0,B|288:224|288:224|288:160,2,134.999996416568
128,288,98421,1,0,0:0:0:0:
256,192,99081,1,0,0:0:0:0:
352,192,99246,1,0,0:0:0:0:
160,192,99411,1,0,0:0:0:0:
256,96,99575,1,0,0:0:0:0:
320,288,99740,2,0,L|384:352,1,67.4999982082842
192,288,100070,2,0,L|128:352,1,67.4999982082842
64,192,100400,1,0,0:0:0:0:
448,192,100730,1,0,0:0:0:0:
256,32,101059,1,0,0:0:0:0:
128,224,101389,1,0,0:0:0:0:
256,352,101554,1,0,0:0:0:0:
384,224,101719,1,0,0:0:0:0:
96,128,102049,1,0,0:0:0:0:
416,96,102379,1,0,0:0:0:0:
96,32,102708,1,0,0:0:0:0:
384,96,103038,1,0,0:0:0:0:
128,128,103203,1,0,0:0:0:0:
352,192,103368,1,0,0:0:0:0:
96,224,103533,1,0,0:0:0:0:
384,288,103698,1,0,0:0:0:0:
64,320,104027,1,0,0:0:0:0:
