osu file format v14

[General]
AudioFilename: Savate Genetics - Promise (Nightstep).mp3
AudioLeadIn: 0
PreviewTime: -1
Countdown: 1
SampleSet: Soft
StackLeniency: 0.7
Mode: 0
LetterboxInBreaks: 1
WidescreenStoryboard: 1

[Editor]
DistanceSpacing: 1
BeatDivisor: 4
GridSize: 16
TimelineZoom: 1.6

[Metadata]
Title:Promise (Nightstep)
TitleUnicode:Promise (Nightstep)
Artist:Savate Genetics
ArtistUnicode:Savate Genetics
Creator:DygnitarZ
Version:v2
Source:
Tags:
BeatmapID:993451
BeatmapSetID:349918

[Difficulty]
HPDrainRate:8
CircleSize:4
OverallDifficulty:8.4
ApproachRate:9.4
SliderMultiplier:1.50000000596046
SliderTickRate:1

[Events]
//Background and Video events
0,0,"c5d197eaed51657b9c94e0dedb99fe4d.jpg",0,0
//Break Periods
2,31671,35226
//Storyboard Layer 0 (Background)
//Storyboard Layer 1 (Fail)
//Storyboard Layer 2 (Pass)
//Storyboard Layer 3 (Foreground)
//Storyboard Sound Samples

[TimingPoints]
160,329.543582138738,4,2,0,100,1,0
18618,329.779048037815,4,2,0,100,1,0
21668,-83.3333333333333,4,2,0,100,0,0
22492,-76.9230769230769,4,2,0,100,0,0
22821,-100,4,2,0,100,0,0
23453,-76.9230769230769,4,2,0,5,0,0
23515,-76.9230769230769,4,2,0,100,0,0
25767,-76.9230769230769,4,2,0,100,0,0
29088,-90.9090909090909,4,2,0,100,0,0
35711,-100,4,3,0,100,0,0
36370,-76.9230769230769,4,3,0,100,0,0
36979,-71.4285714285714,4,3,0,100,0,0
37168,-100,4,3,0,100,0,0
37371,-142.857142857143,4,3,0,100,0,0
37580,-166.666666666667,4,3,0,100,0,0
37662,-200,4,3,0,100,0,0
38074,-142.857142857143,4,3,0,100,0,0
39723,-90.909090909091,4,3,0,100,0,0
40960,-181.818181818181,4,3,0,100,0,0
41702,-90.9090909090909,4,3,0,100,0,0
42279,-62.5,4,3,0,100,0,0
43268,-90.9090909090909,4,3,0,100,0,0
43647,-83.3333333333333,4,3,0,100,0,0
44917,-83.3333333333333,4,3,0,100,0,0
45659,-66.6666666666667,4,3,0,100,0,0
46190,-142.857142857143,4,3,0,100,0,0
46965,-66.6666666666667,4,3,0,100,0,0
48521,-100,4,3,0,100,0,0
51595,-133.333333333333,4,3,0,100,0,0
52173,-66.6666666666667,4,3,0,100,0,0
53808,-83.3333333333333,4,3,0,100,0,0
54151,-83.3333333333333,4,3,0,100,0,0
54811,-71.4285714285714,4,3,0,100,0,0
56212,1319.11619215126,4,2,0,100,1,0
56212,-200,4,3,0,100,0,0
56871,329.779048037815,4,2,0,100,1,0
60745,-62.5,4,2,0,100,0,0

[HitObjects]
0,256,10705,5,0,0:0:0:0:
96,224,10870,1,0,0:0:0:0:
160,128,11034,1,0,0:0:0:0:
256,96,11199,1,0,0:0:0:0:
352,32,11364,2,0,B|384:32|384:32|448:0,3,74.9999952316285
416,288,12023,2,0,B|416:320|416:320|384:384,1,74.9999952316285
256,128,12353,2,0,B|256:96|256:96|224:32,1,74.9999952316285
96,288,12682,2,0,B|96:320|96:320|128:384,1,74.9999952316285
256,224,13012,1,0,0:0:0:0:
384,128,13176,2,0,B|416:96|416:32,2,74.9999952316285
416,288,13672,1,0,0:0:0:0:
128,208,14001,1,0,0:0:0:0:
16,112,14165,1,0,0:0:0:0:
128,208,14330,2,0,B|192:272|192:272|224:288,1,112.499992847443
288,320,14661,1,0,0:0:0:0:
416,256,14826,1,0,0:0:0:0:
256,224,14991,1,0,0:0:0:0:
448,160,15155,1,0,0:0:0:0:
224,96,15320,1,0,0:0:0:0:
352,144,15649,1,0,0:0:0:0:
64,112,15978,2,0,B|48:144|48:144|-16:176,1,74.9999952316285
48,216,16225,1,0,0:0:0:0:
16,272,16307,2,0,B|42:307|42:307|80:320,1,74.9999952316285
256,352,16638,1,0,0:0:0:0:
448,352,16803,1,0,0:0:0:0:
192,336,16968,1,0,0:0:0:0:
512,336,17132,1,0,0:0:0:0:
256,232,17296,2,0,B|224:184|176:168|176:168|192:88,1,149.999990463257
464,96,17955,1,0,0:0:0:0:
352,288,18286,2,0,B|352:320|352:320|384:368,1,74.9999952316285
160,80,18618,2,0,B|128:64|128:64|64:96|0:64,2,150.000000596046
256,352,19607,1,0,0:0:0:0:
32,120,19937,1,0,0:0:0:0:
32,267,20101,1,0,0:0:0:0:
12,79,20266,1,0,0:0:0:0:
12,309,20431,1,0,0:0:0:0:
32,37,20596,1,0,0:0:0:0:
32,350,20925,1,0,0:0:0:0:
368,32,21255,1,0,0:0:0:0:
480,192,21420,1,0,0:0:0:0:
368,352,21584,1,0,0:0:0:0:
256,192,21749,1,0,0:0:0:0:
256,192,21832,1,0,0:0:0:0:
256,192,21914,1,0,0:0:0:0:
144,32,22079,1,0,0:0:0:0:
32,192,22244,1,0,0:0:0:0:
144,352,22408,1,0,0:0:0:0:
256,192,22573,2,0,B|272:160|272:160|336:112,1,97.4999893379217
376,128,22822,1,0,0:0:0:0:
432,136,22905,2,0,B|464:184|464:184|480:216,2,74.9999952316285
32,352,23562,1,0,0:0:0:0:
160,320,23727,1,0,0:0:0:0:
64,224,23891,1,0,0:0:0:0:
320,256,24221,1,0,0:0:0:0:
192,128,24554,1,0,0:0:0:0:
384,192,24883,1,0,0:0:0:0:
128,192,25213,1,0,0:0:0:0:
400,80,25378,1,0,0:0:0:0:
128,320,25543,1,0,0:0:0:0:
256,16,25708,1,0,0:0:0:0:
256,368,25873,1,0,0:0:0:0:
256,16,26202,1,0,0:0:0:0:
128,288,26528,2,0,B|112:352|112:352|64:400,1,97.4999893379217
352,96,26858,2,0,B|352:32|352:32|368:0,1,97.4999893379217
96,96,27187,2,0,B|31:95|31:95|0:80,1,97.4999893379217
416,288,27517,2,0,B|479:287|479:287|512:304,1,97.4999893379217
192,192,27846,1,0,0:0:0:0:
352,192,28176,1,0,0:0:0:0:
32,192,28505,1,0,0:0:0:0:
256,64,28835,1,0,0:0:0:0:
256,320,29000,1,0,0:0:0:0:
448,192,29164,2,0,B|480:160|480:160|480:96|512:32,3,164.999994544983
224,32,30483,1,0,0:0:0:0:
32,96,30648,1,0,0:0:0:0:
256,160,30812,1,0,0:0:0:0:
0,224,30977,1,0,0:0:0:0:
288,288,31142,2,0,B|352:304|384:272|432:288|464:304,1,165.000005691052
64,32,35766,6,0,L|32:32,10,24.9999984105428
288,48,36426,1,0,0:0:0:0:
80,160,36590,1,0,0:0:0:0:
320,240,36755,1,0,0:0:0:0:
48,320,36920,1,0,0:0:0:0:
400,272,37085,2,0,L|416:336,1,52.4999986064433
128,224,37250,2,0,L|112:272,1,37.5000001490115
368,176,37415,2,0,L|384:224,1,26.2499993032216
160,128,37580,2,0,L|144:168,1,22.4999994027614
336,80,37745,2,0,L|352:112,3,18.7500000745057
192,32,38074,2,0,L|176:48,6,13.1249996516108
248,16,38404,1,0,0:0:0:0:
307,11,38513,1,0,0:0:0:0:
363,28,38623,1,0,0:0:0:0:
411,63,38733,1,0,0:0:0:0:
443,113,38843,1,0,0:0:0:0:
457,170,38953,1,0,0:0:0:0:
449,229,39063,1,0,0:0:0:0:
422,281,39173,1,0,0:0:0:0:
378,321,39283,1,0,0:0:0:0:
323,343,39393,1,0,0:0:0:0:
263,345,39503,1,0,0:0:0:0:
207,326,39613,1,0,0:0:0:0:
156,296,39723,2,0,B|108:268|108:268|64:268,1,82.5000028455256
408,40,40053,2,0,B|432:64|432:64|464:128,1,82.4999972724915
16,104,40383,2,0,B|32:64|32:64|73:32,1,82.4999972724915
256,152,40713,2,0,B|249:190|249:190|212:223,1,82.4999972724915
344,48,41042,2,0,B|384:24|384:24|432:24,1,82.4999972724915
112,144,41702,2,0,B|64:152|64:152|-16:216,1,123.749995908737
192,144,42032,2,0,B|216:96|216:96|288:40,1,123.749995908737
324,36,42362,1,0,0:0:0:0:
376,44,42444,1,0,0:0:0:0:
420,76,42526,2,0,L|420:136,2,59.9999961853028
256,240,42856,2,0,L|256:300,1,59.9999961853028
400,336,43021,2,0,L|432:284,2,59.9999961853028
48,60,43351,2,0,B|80:44|80:44|152:44,1,82.4999972724915
511,192,43681,2,0,B|416:352|416:352|304:224|304:224|144:320|144:320|48:224,1,674.999982082842
126,62,45000,1,0,0:0:0:0:
385,61,45165,1,0,0:0:0:0:
385,321,45330,1,0,0:0:0:0:
126,321,45494,1,0,0:0:0:0:
128,64,45659,2,0,B|224:32|224:32|352:32,1,224.999994277954
336,320,46319,2,0,B|256:352|256:352|224:352,1,104.999990119934
80,128,46978,2,0,L|-16:160,1,56.2499985694885
80,256,47143,2,0,L|-16:224,1,56.2499985694885
208,96,47308,2,0,L|112:128,1,56.2499985694885
208,288,47473,2,0,L|112:256,1,56.2499985694885
48,64,48627,2,0,L|10:48,3,37.4999976158143
48,144,48957,1,0,0:0:0:0:
65,216,49122,1,0,0:0:0:0:
109,277,49287,1,0,0:0:0:0:
171,317,49452,1,0,0:0:0:0:
244,333,49617,1,0,0:0:0:0:
318,320,49782,1,0,0:0:0:0:
381,281,49947,1,0,0:0:0:0:
426,222,50111,1,0,0:0:0:0:
464,144,50276,2,0,B|432:144|432:144|368:112,1,74.9999952316285
80,32,50606,2,0,B|48:48|48:48|-16:48,1,74.9999952316285
256,320,50936,2,0,B|288:320|288:320|336:288,1,74.9999952316285
512,32,51266,2,0,B|464:16|464:16|432:16,1,74.9999952316285
32,240,51595,2,0,B|48:272|48:272|96:336,1,112.499997138977
320,144,52255,2,0,L|320:80,1,56.2499985694885
336,224,52420,2,0,L|336:288,1,56.2499985694885
416,128,52585,2,0,L|416:64,1,56.2499985694885
448,272,52750,2,0,L|448:336,1,56.2499985694885
208,48,55553,1,0,0:0:0:0:
160,344,55718,1,0,0:0:0:0:
112,32,55883,1,0,0:0:0:0:
64,360,56047,1,0,0:0:0:0:
16,20,56212,2,0,L|16:0,1,18.7500000745058
496,208,56871,2,0,B|512:256|512:256|512:368,2,150.000000596046
160,160,57860,2,0,B|160:112|160:112|192:0,1,150.000000596046
448,128,58355,1,0,0:0:0:0:
470,158,58437,1,0,0:0:0:0:
493,188,58519,1,0,0:0:0:0:
476,218,58602,1,0,0:0:0:0:
454,248,58684,1,0,0:0:0:0:
240,288,58849,2,0,B|208:304|192:320,3,37.5000001490116
96,272,59179,2,0,B|48:208|48:208|32:160,1,112.500000447035
32,96,59509,1,0,0:0:0:0:
53,74,59618,1,0,0:0:0:0:
74,53,59728,1,0,0:0:0:0:
128,48,59839,1,0,0:0:0:0:
183,48,59948,1,0,0:0:0:0:
238,48,60058,1,0,0:0:0:0:
320,64,60168,1,0,0:0:0:0:
389,102,60277,1,0,0:0:0:0:
442,162,60387,1,0,0:0:0:0:
448,256,60498,1,0,0:0:0:0:
376,324,60607,1,0,0:0:0:0:
282,356,60717,1,0,0:0:0:0:
144,352,60828,2,0,B|54:329|54:329|16:304,1,120.000000476837
256,64,61158,2,0,B|354:54|354:54|416:32,1,120.000000476837
