osu file format v14

[General]
AudioFilename: Savant - Virgin (Or.mp3
AudioLeadIn: 0
PreviewTime: 16420
Countdown: 0
SampleSet: Soft
StackLeniency: 0.6
Mode: 0
LetterboxInBreaks: 0
WidescreenStoryboard: 0

[Editor]
DistanceSpacing: 0.7
BeatDivisor: 4
GridSize: 4
TimelineZoom: 2.050002

[Metadata]
Title:Virgin
TitleUnicode:Virgin
Artist:Savant
ArtistUnicode:Savant
Creator:Namki
Version:Shadren's Insane
Source:
Tags:complextro Shadren electro Seikatu cut version cult
BeatmapID:871248
BeatmapSetID:400004

[Difficulty]
HPDrainRate:6
CircleSize:4.5
OverallDifficulty:8
ApproachRate:8.5
SliderMultiplier:1.6
SliderTickRate:2

[Events]
//Background and Video events
0,0,"bege.png",0,0
//Break Periods
//Storyboard Layer 0 (Background)
//Storyboard Layer 1 (Fail)
//Storyboard Layer 2 (Pass)
//Storyboard Layer 3 (Foreground)
//Storyboard Sound Samples

[TimingPoints]
2124,468.75,4,2,0,60,1,0
18764,-111.111111111111,4,2,0,60,0,0
18999,-125,4,2,0,60,0,0
20170,-83.3333333333333,4,2,0,60,0,0
20405,-100,4,2,0,60,0,0
24389,-125,4,2,0,60,0,0
24624,-100,4,2,0,60,0,0
33764,-125,4,2,0,60,0,0
33999,-125,4,2,0,60,0,0
35170,-83.3333333333333,4,2,0,60,0,0
35405,-90.9090909090909,4,2,0,60,0,0
35639,-100,4,2,0,60,0,0
37514,-125,4,2,0,60,0,0
37749,-125,4,2,0,60,0,0
38920,-100,4,2,0,60,0,0
41264,-125,4,2,0,60,0,0
41499,-125,4,2,0,60,0,0
42670,-83.3333333333333,4,2,0,60,0,0
42905,-100,4,2,0,60,0,0
47124,-90.9090909090909,4,2,0,60,0,1
52749,-111.111111111111,4,2,0,60,0,1
53686,-90.9090909090908,4,2,0,60,0,1
56499,-111.111111111111,4,2,0,60,0,1
56967,-90.9090909090908,4,2,0,60,0,1
58374,-100,4,2,0,60,0,0
62124,-100,4,2,0,25,0,0

[Colours]
Combo1 : 101,84,252
Combo2 : 98,196,249
Combo3 : 149,104,193

[HitObjects]
256,192,249,12,0,1655,0:0:0:0:
311,295,2124,6,0,P|251:283|187:291,1,120,4|0,3:0|0:0,0:0:0:0:
179,295,2592,2,0,P|175:251|151:203,1,80,8|0,0:0|0:0,0:0:0:0:
71,183,3061,1,4,3:0:0:0:
67,279,3295,1,0,0:0:0:0:
215,147,3530,2,0,B|259:143|259:143|295:151|295:151|347:147,1,120,8|0,0:0|0:0,0:0:0:0:
351,143,3999,5,4,3:0:0:0:
366,140,4116,1,0,0:0:0:0:
381,137,4233,2,0,L|440:143,1,40,0|0,0:0|0:0,0:0:0:0:
451,251,4467,1,8,0:0:0:0:
443,267,4584,2,0,P|407:287|359:291,1,80,0|0,0:0|0:0,0:0:0:0:
351,287,4936,2,0,P|319:271|263:267,1,80,4|0,3:0|0:0,0:0:0:0:
259,271,5288,1,0,0:0:0:0:
243,279,5405,2,0,L|199:275,2,40,8|0|0,0:0|0:0|0:0,0:0:0:0:
75,179,5874,6,0,P|119:187|183:179,1,80,4|0,0:0|0:0,0:0:0:0:
215,139,6225,1,0,0:0:0:0:
224,125,6342,2,0,P|264:113|316:117,1,80,4|0,0:0|0:0,0:0:0:0:
480,211,6811,1,4,0:0:0:0:
466,221,6928,2,0,L|462:313,1,80
406,349,7280,2,0,B|362:353|362:353|302:341,1,80,4|0,0:0|0:0,0:0:0:0:
310,337,7631,1,0,0:0:0:0:
292,329,7749,6,0,B|256:321|256:321|212:325,1,80,4|0,0:0|0:0,0:0:0:0:
16,322,8217,1,8,0:0:0:0:
31,315,8334,2,0,P|31:271|19:231,1,80,0|0,0:0|0:0,0:0:0:0:
11,223,8686,2,0,L|95:231,1,80,4|0,3:0|0:0,0:0:0:0:
107,235,9038,1,0,0:0:0:0:
127,239,9155,2,0,L|171:235,2,40,8|0|0,0:0|0:0|0:0,0:0:0:0:
191,87,9624,6,0,P|251:99|315:91,1,120,4|0,3:0|0:0,0:0:0:0:
323,87,10092,2,0,B|363:83|363:83|419:91,1,80,8|0,0:0|0:0,0:0:0:0:
467,247,10561,1,4,3:0:0:0:
495,131,10795,1,0,0:0:0:0:
347,199,11030,2,0,B|303:203|303:203|267:195|267:195|215:199,1,120,8|0,0:0|0:0,0:0:0:0:
211,203,11499,5,4,3:0:0:0:
195,200,11616,1,0,0:0:0:0:
179,197,11733,2,0,L|120:204,1,40,0|0,0:0|0:0,0:0:0:0:
71,287,11967,1,8,0:0:0:0:
79,303,12084,2,0,P|115:323|163:327,1,80,0|0,0:0|0:0,0:0:0:0:
171,323,12436,2,0,P|203:307|259:303,1,80,4|0,3:0|0:0,0:0:0:0:
263,311,12788,1,0,0:0:0:0:
283,319,12905,1,8,0:0:0:0:
303,323,13022,1,0,0:0:0:0:
323,323,13139,1,0,0:0:0:0:
343,319,13256,1,0,0:0:0:0:
363,315,13374,6,0,P|403:319|451:347,1,80,4|0,0:0|0:0,0:0:0:0:
493,178,13842,2,0,P|449:190|393:190,1,80,0|0,0:0|0:0,0:0:0:0:
256,192,14311,12,8,15952,0:0:0:0:
172,229,16538,5,8,0:0:0:0:
222,166,16655,2,0,L|266:171,1,40,4|0,0:3|0:0,0:0:0:0:
106,282,16889,2,0,L|66:286,1,40,8|0,0:3|0:0,0:0:0:0:
39,129,17124,6,0,P|97:120|172:113,1,120,4|0,0:0|0:0,0:0:0:0:
225,155,17592,2,0,B|267:159|267:159|352:147,1,120,8|0,0:0|0:0,0:0:0:0:
414,187,18061,2,0,P|409:252|408:316,1,120,4|0,3:0|0:0,0:0:0:0:
333,337,18530,2,0,L|287:331,1,40,8|0,0:0|0:0,0:0:0:0:
199,277,18764,2,0,L|238:272,1,35.9999989013672
332,184,18999,6,0,P|336:130|326:62,1,96,4|0,0:0|0:0,0:0:0:0:
246,42,19467,2,0,P|195:64|145:110,1,96,4|0,0:0|0:0,0:0:0:0:
193,203,19936,2,0,P|212:215|226:218,1,32,4|0,0:0|0:0,0:0:0:0:
240,358,20170,6,0,L|245:306,1,47.9999985351563,2|0,1:0|0:0,0:0:0:0:
309,148,20405,6,0,L|318:210,1,40,8|0,0:0|0:0,0:0:0:0:
388,303,20639,2,0,P|344:299|343:299,1,40
465,281,20874,6,0,P|402:282|343:285,1,120,4|0,3:0|0:0,0:0:0:0:
273,319,21342,2,0,B|230:326|230:326|137:312,1,120,8|0,0:0|0:0,0:0:0:0:
133,302,21811,5,4,3:0:0:0:
258,218,22045,1,2,0:1:0:0:
65,136,22280,1,8,0:0:0:0:
160,198,22514,1,2,0:0:0:0:
163,38,22749,5,4,3:0:0:0:
314,87,22983,2,0,L|319:112,4,20,2|0|2|0|8,3:0|0:0|3:0|0:0|0:0,0:0:0:0:
253,235,23452,2,0,L|295:226,1,40,2|0,1:0|0:0,0:0:0:0:
367,252,23686,2,0,P|431:266|499:260,1,120,4|0,3:0|0:0,0:0:0:0:
511,187,24155,2,0,L|508:145,1,40,8|0,0:0|0:0,0:0:0:0:
432,61,24389,2,0,L|431:99,1,32
297,139,24624,6,0,P|233:133|170:132,1,120,4|0,3:0|0:0,0:0:0:0:
67,227,25092,2,0,L|69:270,3,40,8|0|2|0,0:0|0:0|0:1|0:0,0:0:0:0:
11,149,25561,1,4,3:0:0:0:
16,125,25678,1,0,0:0:0:0:
23,101,25795,1,2,0:1:0:0:
183,112,26030,2,0,L|185:161,1,40,8|0,0:0|0:0,0:0:0:0:
266,224,26264,2,0,P|270:180|270:179,1,40,0|0,0:0|0:0,0:0:0:0:
398,87,26499,5,4,0:0:0:0:
368,319,26733,1,2,1:0:0:0:
258,161,26967,1,4,0:0:0:0:
512,140,27202,1,2,1:0:0:0:
260,276,27436,6,0,L|263:229,1,40,4|0,3:0|0:0,0:0:0:0:
461,330,27670,2,0,L|463:381,1,40,2|0,1:0|0:0,0:0:0:0:
251,353,27905,2,0,B|244:312|244:312|251:230,1,120,8|0,0:0|0:0,0:0:0:0:
128,123,28374,6,0,P|170:111|219:105,1,80,4|0,0:0|0:0,0:0:0:0:
366,72,28725,2,0,P|322:65|274:50,1,80,0|0,0:0|0:0,0:0:0:0:
299,244,29077,2,0,L|296:157,1,80,4|0,3:0|0:0,0:0:0:0:
193,261,29428,2,0,B|188:296|188:296|190:345,1,80,0|0,0:0|0:0,0:0:0:0:
55,194,29780,2,0,P|97:188|139:185,1,80,8|0,0:0|0:0,0:0:0:0:
196,43,30131,2,0,P|203:83|206:125,1,80,0|0,0:0|0:0,0:0:0:0:
177,261,30483,1,8,0:3:0:0:
360,173,30717,5,4,3:0:0:0:
304,323,30952,1,4,3:0:0:0:
462,303,31186,1,4,3:0:0:0:
340,156,31420,5,2,1:0:0:0:
311,154,31538,1,2,0:0:0:0:
274,142,31655,1,2,1:0:0:0:
246,142,31772,1,0,0:0:0:0:
218,141,31889,1,0,0:0:0:0:
59,284,32124,6,0,P|117:271|185:263,1,120,4|0,0:0|0:0,0:0:0:0:
246,302,32592,2,0,B|285:312|285:312|381:302,1,120,8|0,0:0|0:0,0:0:0:0:
481,208,33061,2,0,P|420:199|353:195,1,120,4|0,3:0|0:0,0:0:0:0:
300,143,33530,2,0,L|298:98,1,40,8|0,0:0|0:0,0:0:0:0:
398,41,33764,2,0,L|395:83,1,32,2|0,0:1|0:0,0:0:0:0:
244,207,33999,6,0,B|206:214|206:214|140:206|140:206,1,96,4|0,0:0|0:0,0:0:0:0:
146,59,34467,2,0,B|189:50|189:50|267:59|268:59,1,96,4|0,0:0|0:0,0:0:0:0:
380,192,34936,1,4,0:0:0:0:
310,38,35170,6,0,L|313:97,1,47.9999985351563,2|0,1:0|0:0,0:0:0:0:
298,252,35405,2,0,L|303:195,1,44.0000013427735,8|0,0:0|0:0,0:0:0:0:
179,148,35639,2,0,L|229:140,1,40,2|0,1:0|0:0,0:0:0:0:
432,98,35874,6,0,P|383:89|304:87,1,120,4|0,3:0|0:0,0:0:0:0:
249,215,36342,2,0,B|293:223|293:223|375:213,1,120,8|0,0:0|0:0,0:0:0:0:
250,300,36811,2,0,B|206:292|206:292|124:302,1,120,4|0,3:0|0:0,0:0:0:0:
27,220,37280,2,0,L|68:223,1,40,8|0,0:0|0:0,0:0:0:0:
183,166,37514,2,0,L|142:170,1,32
38,71,37749,6,0,P|79:57|151:60,1,96,4|0,0:0|0:0,0:0:0:0:
202,94,38217,2,0,B|232:107|292:99,1,64,8|0,0:0|0:0,0:0:0:0:
335,49,38569,1,0,0:0:0:0:
332,60,38686,1,2,1:0:0:0:
367,235,38920,6,0,L|371:181,1,40,2|0,0:1|0:0,0:0:0:0:
438,153,39155,1,4,0:0:0:0:
265,258,39389,2,0,L|273:320,1,40,2|0,0:1|0:0,0:0:0:0:
183,213,39624,6,0,B|177:170|177:170|184:86,1,120,4|0,0:0|0:0,0:0:0:0:
250,50,40092,2,0,P|296:41|391:36,1,120,8|0,0:0|0:0,0:0:0:0:
488,156,40561,2,0,L|360:147,1,120,4|0,3:0|0:0,0:0:0:0:
320,212,41030,2,0,L|322:258,1,40,8|0,0:0|0:0,0:0:0:0:
233,331,41264,2,0,L|236:291,1,32,2|0,0:1|0:0,0:0:0:0:
166,131,41499,6,0,L|173:247,1,96,4|0,0:0|0:0,0:0:0:0:
72,362,41967,2,0,B|66:323|66:323|73:240,1,96,4|0,0:0|0:0,0:0:0:0:
170,243,42436,2,0,L|121:239,1,32,4|0,0:0|0:0,0:0:0:0:
39,118,42670,6,0,L|98:126,1,47.9999985351563,2|0,1:0|0:0,0:0:0:0:
201,65,42905,2,0,L|196:114,1,40,8|0,0:0|0:0,0:0:0:0:
50,270,43139,2,0,L|54:229,1,40
248,306,43374,6,0,P|290:293|348:284,1,80,0|0,0:0|0:0,0:0:0:0:
486,220,43725,2,0,P|445:219|401:213,1,80,0|0,0:0|0:0,0:0:0:0:
330,66,44077,2,0,P|323:108|318:158,1,80,0|0,0:0|0:0,0:0:0:0:
248,306,44428,2,0,L|242:219,1,80,0|0,0:0|0:0,0:0:0:0:
60,174,44780,2,0,P|101:161|151:154,1,80,8|0,0:0|0:0,0:0:0:0:
341,115,45131,2,0,L|259:106,1,80,0|0,0:0|0:0,0:0:0:0:
192,254,45483,1,8,0:3:0:0:
427,232,45717,5,12,0:3:0:0:
245,315,45952,1,12,0:3:0:0:
292,124,46186,1,4,0:3:0:0:
369,339,46420,5,2,1:0:0:0:
363,314,46538,1,2,0:0:0:0:
373,281,46655,1,2,1:0:0:0:
369,256,46772,1,0,0:0:0:0:
366,231,46889,1,0,0:0:0:0:
68,130,47124,6,0,L|133:117,1,44.0000013427735,4|0,0:0|0:0,0:0:0:0:
192,153,47358,1,2,0:0:0:0:
205,151,47475,1,0,0:0:0:0:
218,149,47592,1,2,0:1:0:0:
231,148,47709,1,0,0:0:0:0:
244,147,47827,1,2,0:0:0:0:
257,146,47944,1,0,0:0:0:0:
270,146,48061,6,0,B|279:189|279:189|272:276,1,132.00000402832,4|0,3:0|0:0,0:0:0:0:
152,324,48530,2,0,L|201:318,1,44.0000013427735,8|0,0:0|0:0,0:0:0:0:
401,250,48764,2,0,L|351:245,1,44.0000013427735,0|0,0:0|0:0,0:0:0:0:
260,87,48999,2,0,P|254:113|252:141,1,44.0000013427735,2|0,1:0|0:0,0:0:0:0:
282,324,49233,1,2,3:0:0:0:
271,276,49350,1,2,3:0:0:0:
235,243,49467,1,2,0:1:0:0:
75,64,49702,6,0,L|71:113,1,44.0000013427735,4|0,0:3|0:0,0:0:0:0:
16,176,49936,1,4,0:0:0:0:
239,153,50170,2,0,P|212:149|188:148,1,44.0000013427735,2|2,1:0|0:0,0:0:0:0:
33,264,50405,2,0,P|57:260|80:255,1,44.0000013427735,2|0,0:0|0:0,0:0:0:0:
193,357,50639,2,0,L|189:313,1,44.0000013427735
195,148,50874,6,0,P|175:168|166:191,1,44.0000013427735,4|0,0:0|0:0,0:0:0:0:
227,254,51108,1,2,0:1:0:0:
240,252,51225,1,0,0:0:0:0:
253,249,51342,1,2,0:1:0:0:
266,247,51459,1,0,0:0:0:0:
279,246,51577,1,2,0:0:0:0:
292,246,51694,1,0,0:0:0:0:
305,244,51811,6,0,P|347:240|420:242,1,88.000002685547,4|0,0:0|0:0,0:0:0:0:
367,65,52280,2,0,L|361:117,1,44.0000013427735,4|0,3:0|0:0,0:0:0:0:
396,283,52514,2,0,L|392:236,1,44.0000013427735,2|0,1:0|0:0,0:0:0:0:
195,192,52749,6,0,B|242:180|242:180|330:199,1,107.999996704102,2|0,0:1|0:0,0:0:0:0:
169,91,53217,2,0,B|123:102|123:102|45:82,1,107.999996704102,2|0,0:1|0:0,0:0:0:0:
126,300,53686,6,0,L|125:248,1,44.0000013427735,4|0,0:0|0:0,0:0:0:0:
269,186,53920,2,0,L|213:177,1,44.0000013427735,2|0,0:1|0:0,0:0:0:0:
23,170,54155,2,0,L|79:161,1,44.0000013427735,8|0,0:0|0:0,0:0:0:0:
163,41,54389,2,0,L|162:92,1,44.0000013427735,0|0,0:0|0:0,0:0:0:0:
145,284,54624,6,0,L|150:237,1,44.0000013427735,4|0,0:0|0:0,0:0:0:0:
223,193,54858,1,2,0:0:0:0:
236,191,54975,1,0,0:0:0:0:
249,189,55092,1,2,0:1:0:0:
262,187,55209,1,0,0:0:0:0:
275,185,55327,1,4,0:3:0:0:
288,183,55444,1,0,0:0:0:0:
301,181,55561,6,0,L|433:188,1,132.00000402832,4|0,0:0|0:0,0:0:0:0:
480,323,56030,2,0,L|478:276,1,44.0000013427735,8|0,0:0|0:0,0:0:0:0:
486,86,56264,2,0,L|478:130,1,44.0000013427735,2|0,0:1|0:0,0:0:0:0:
297,196,56499,6,0,P|341:192|434:187,1,107.999996704102,2|0,1:0|0:0,0:0:0:0:
326,102,56967,1,2,0:1:0:0:
336,342,57202,2,0,P|339:325|346:291,1,44.0000013427735
190,249,57436,2,0,L|247:253,1,44.0000013427735,2|0,1:0|0:0,0:0:0:0:
428,197,57670,6,0,L|379:202,1,44.0000013427735
290,106,57905,2,0,L|291:166,1,44.0000013427735,2|0,0:1|0:0,0:0:0:0:
342,341,58139,2,0,L|336:291,1,44.0000013427735,0|0,0:0|0:0,0:0:0:0:
156,321,58374,6,0,L|161:241,1,80,4|0,3:0|0:0,0:0:0:0:
151,220,58725,2,0,P|113:205|73:202,1,80,2|0,0:1|0:0,0:0:0:0:
52,205,59077,2,0,L|48:165,1,40,2|0,3:0|0:0,0:0:0:0:
96,109,59311,2,0,B|140:93|176:105|176:105|179:86|194:71,1,120,4|0,3:0|0:0,0:0:0:0:
264,40,59780,6,0,P|303:41|341:53,1,80,8|0,0:0|0:0,0:0:0:0:
408,93,60131,2,0,P|447:86|483:69,1,80,2|0,0:1|0:0,0:0:0:0:
379,176,60483,2,0,P|300:172|239:221,1,160,2|2,3:0|3:0,0:0:0:0:
280,345,61186,1,4,0:0:0:0:
164,293,61420,5,2,1:0:0:0:
148,281,61538,1,2,0:0:0:0:
114,271,61655,1,2,1:0:0:0:
98,259,61772,1,0,0:0:0:0:
86,243,61889,2,0,L|89:203,1,40,0|0,0:0|0:0,0:0:0:0:
66,124,62124,5,0,0:0:0:0:
256,192,62241,12,2,63881,0:0:0:0:
