osu file format v14

[General]
AudioFilename: Savant - Virgin (Or.mp3
AudioLeadIn: 0
PreviewTime: 16420
Countdown: 0
SampleSet: Soft
StackLeniency: 0.6
Mode: 0
LetterboxInBreaks: 0
WidescreenStoryboard: 0

[Editor]
DistanceSpacing: 1.2
BeatDivisor: 4
GridSize: 4
TimelineZoom: 2.4

[Metadata]
Title:Virgin
TitleUnicode:Virgin
Artist:Savant
ArtistUnicode:Savant
Creator:Namki
Version:Seikatu's Advanced
Source:
Tags:complextro Shadren electro Seikatu cut version cult
BeatmapID:883143
BeatmapSetID:400004

[Difficulty]
HPDrainRate:4
CircleSize:4
OverallDifficulty:5
ApproachRate:6.2
SliderMultiplier:1.17
SliderTickRate:1

[Events]
//Background and Video events
0,0,"bege.png",0,0
//Break Periods
//Storyboard Layer 0 (Background)
//Storyboard Layer 1 (Fail)
//Storyboard Layer 2 (Pass)
//Storyboard Layer 3 (Foreground)
//Storyboard Sound Samples

[TimingPoints]
2124,468.75,4,2,0,60,1,0
47124,-86.9565217391304,4,2,0,60,0,1
49936,-80,4,2,0,60,0,1
50874,-86.9565217391304,4,2,0,60,0,1
52749,-80,4,2,0,60,0,1
53686,-86.9565217391304,4,2,0,60,0,1
56499,-80,4,2,0,60,0,1
58374,-100,4,2,0,60,0,0

[Colours]
Combo1 : 101,84,252
Combo2 : 98,196,249
Combo3 : 149,104,193

[HitObjects]
140,112,2124,6,0,L|257:106,1,117,4|8,3:0|0:0,0:0:0:0:
311,57,2827,2,0,B|297:102|297:102|318:171,1,117,0|0,0:0|0:0,0:0:0:0:
345,236,3530,1,8,0:0:0:0:
274,329,3999,1,4,3:0:0:0:
164,291,4467,1,8,0:0:0:0:
166,175,4936,1,4,3:0:0:0:
277,141,5405,1,8,0:0:0:0:
345,236,5874,6,0,L|462:230,2,117,4|4|4,0:0|0:0|0:0,0:0:0:0:
274,329,7280,1,4,0:0:0:0:
164,291,7749,2,0,L|47:285,2,117,4|8|4,0:0|0:0|3:0,0:0:0:0:
251,214,9155,2,0,L|242:151,1,58.5,8|0,0:0|0:0,0:0:0:0:
284,96,9624,6,0,L|401:102,1,117,4|8,3:0|0:0,0:0:0:0:
470,78,10327,2,0,P|481:137|469:195,1,117,0|0,0:0|0:0,0:0:0:0:
430,253,11030,1,8,0:0:0:0:
313,238,11499,1,4,3:0:0:0:
224,314,11967,1,8,0:0:0:0:
107,299,12436,1,4,3:0:0:0:
59,192,12905,2,0,L|63:134,1,58.5,8|0,0:0|0:0,0:0:0:0:
256,192,13374,12,0,16420,0:0:0:0:
485,121,17124,6,0,L|368:113,1,117,4|8,0:0|0:0,0:0:0:0:
301,83,17827,1,0,0:0:0:0:
242,126,18061,2,0,P|242:157|234:183,1,58.5,4|0,3:0|0:0,0:0:0:0:
173,224,18530,2,0,P|173:255|181:281,1,58.5,8|0,0:0|0:0,0:0:0:0:
238,328,18999,6,0,L|119:324,1,117,4|4,0:0|0:0,0:0:0:0:
67,220,19936,1,4,0:0:0:0:
44,150,20170,1,2,1:0:0:0:
77,84,20405,2,0,L|135:80,1,58.5,8|0,0:0|0:0,0:0:0:0:
199,114,20874,6,0,P|249:86|306:94,1,117,4|8,3:0|0:0,0:0:0:0:
362,140,21577,1,0,0:0:0:0:
379,210,21811,2,0,L|374:268,1,58.5,4|2,3:0|1:0,0:0:0:0:
303,249,22280,2,0,L|308:191,1,58.5,8|0,0:0|0:0,0:0:0:0:
362,140,22749,6,0,L|435:137,1,58.5,4|8,3:0|0:0,0:0:0:0:
420,64,23217,2,0,L|361:66,1,58.5,4|8,3:0|0:0,0:0:0:0:
296,34,23686,1,0,0:0:0:0:
296,107,23920,1,2,0:1:0:0:
231,141,24155,2,0,L|170:139,1,58.5,8|0,0:0|0:0,0:0:0:0:
125,82,24624,6,0,B|142:126|142:126|119:199,1,117,4|8,3:0|0:0,0:0:0:0:
86,260,25327,2,0,L|59:279,2,29.25,2|0|4,0:1|0:0|3:0,0:0:0:0:
127,323,25795,1,2,0:1:0:0:
194,291,26030,2,0,L|256:289,1,58.5,8|0,0:0|0:0,0:0:0:0:
318,321,26499,5,4,0:0:0:0:
326,248,26733,1,2,1:0:0:0:
335,175,26967,1,4,0:0:0:0:
344,102,27202,1,2,1:0:0:0:
276,129,27436,2,0,L|214:127,1,58.5,4|2,3:0|1:0,0:0:0:0:
162,78,27905,2,0,L|100:80,1,58.5,8|0,0:0|0:0,0:0:0:0:
44,123,28374,6,0,P|28:162|34:201,1,58.5,4|0,0:0|0:0,0:0:0:0:
67,246,28842,1,2,3:0:0:0:
67,246,29077,2,0,L|148:240,1,58.5,4|0,3:0|0:0,0:0:0:0:
199,266,29545,1,2,3:0:0:0:
199,266,29780,2,0,P|215:225|208:188,1,58.5,8|0,0:0|0:0,0:0:0:0:
232,140,30249,5,2,3:0:0:0:
305,145,30483,2,0,L|363:142,1,58.5,8|4,0:3|3:0,0:0:0:0:
340,72,30952,2,0,L|282:75,1,58.5,4|4,3:0|3:0,0:0:0:0:
222,32,31420,2,0,L|227:-1,4,29.25,2|2|2|0|0,1:0|0:0|1:0|0:0|0:0,0:0:0:0:
172,86,32124,6,0,P|184:122|167:199,1,117,4|8,0:0|0:0,0:0:0:0:
112,245,32827,1,0,0:0:0:0:
142,311,33061,2,0,L|201:309,1,58.5,4|0,3:0|0:0,0:0:0:0:
261,349,33530,2,0,L|320:347,1,58.5,8|2,0:0|0:1,0:0:0:0:
367,291,33999,6,0,P|423:315|481:308,2,117,4|4|4,0:0|0:0|0:0,0:0:0:0:
335,225,35170,1,2,1:0:0:0:
393,180,35405,2,0,L|403:118,1,58.5,8|2,0:0|1:0,0:0:0:0:
364,59,35874,2,0,L|244:66,1,117,4|8,3:0|0:0,0:0:0:0:
187,108,36577,1,0,0:0:0:0:
245,151,36811,2,0,L|252:214,1,58.5,4|0,3:0|0:0,0:0:0:0:
184,239,37280,2,0,L|177:180,1,58.5,8|0,0:0|0:0,0:0:0:0:
187,108,37749,6,0,L|98:101,1,87.75,4|0,0:0|0:0,0:0:0:0:
77,99,38217,2,0,P|48:126|36:181,1,87.75,8|0,0:0|0:0,0:0:0:0:
39,192,38686,1,2,1:0:0:0:
78,253,38920,1,2,0:1:0:0:
144,221,39155,2,0,L|236:217,1,87.75,4|0,0:0|0:0,0:0:0:0:
253,218,39624,6,0,P|275:260|269:331,1,117,4|8,0:0|0:0,0:0:0:0:
331,367,40327,1,0,0:0:0:0:
395,332,40561,2,0,L|460:335,1,58.5,4|0,3:0|0:0,0:0:0:0:
476,265,41030,2,0,L|417:262,1,58.5,8|2,0:0|0:1,0:0:0:0:
350,233,41499,6,0,P|328:191|334:120,2,117,4|4|4,0:0|0:0|0:0,0:0:0:0:
417,262,42670,1,2,1:0:0:0:
458,322,42905,2,0,P|457:353|446:380,1,58.5,8|0,0:0|0:0,0:0:0:0:
386,336,43374,6,0,L|298:333,1,87.75,0|0,0:0|0:0,0:0:0:0:
276,332,43842,1,0,0:0:0:0:
213,292,44077,2,0,P|205:250|222:207,1,87.75,0|0,0:0|0:0,0:0:0:0:
235,193,44545,1,0,0:0:0:0:
191,133,44780,6,0,L|103:129,1,87.75,8|0,0:0|0:0,0:0:0:0:
81,128,45249,1,0,0:0:0:0:
71,55,45483,2,0,L|130:52,1,58.5,8|12,0:3|0:3,0:0:0:0:
196,23,45952,2,0,L|255:20,1,58.5,12|4,0:3|0:3,0:0:0:0:
313,62,46420,2,0,L|302:94,4,29.25,2|2|2|0|0,1:0|0:0|1:0|0:0|0:0,0:0:0:0:
389,26,47124,5,4,0:0:0:0:
461,70,47358,2,0,P|473:60|502:51,4,33.6375006415844,2|0|2|0|2,0:0|0:0|0:1|0:0|0:0,0:0:0:0:
441,152,48061,2,0,P|453:199|443:257,1,100.912501924753,4|0,3:0|0:0,0:0:0:0:
429,269,48530,2,0,L|357:264,1,67.2750012831688,8|0,0:0|0:0,0:0:0:0:
282,290,48999,6,0,P|258:259|202:269,1,100.912501924753,2|2,1:0|3:0,0:0:0:0:
190,290,49467,2,0,L|118:285,1,67.2750012831688,2|4,0:1|0:3,0:0:0:0:
80,205,49936,6,0,P|56:160|60:99,1,109.6875,4|2,0:0|0:0,0:0:0:0:
76,81,50405,2,0,L|187:78,1,109.6875,2|0,0:0|0:0,0:0:0:0:
211,79,50874,5,4,0:0:0:0:
288,44,51108,2,0,L|331:43,4,33.6375006415844,2|0|2|0|2,0:0|0:0|0:1|0:0|0:0,0:0:0:0:
276,124,51811,2,0,B|270:186|270:186|290:225,1,100.912501924753,4|0,0:0|0:0,0:0:0:0:
308,235,52280,2,0,P|317:271|302:305,1,67.2750012831688,4|2,3:0|1:0,0:0:0:0:
230,341,52749,6,0,L|118:335,1,109.6875,2|0,0:1|0:0,0:0:0:0:
93,338,53217,2,0,P|74:291|89:230,1,109.6875
102,215,53686,6,0,L|108:148,1,67.2750012831688,4|2,0:0|0:1,0:0:0:0:
188,124,54155,2,0,L|194:49,1,67.2750012831688,8|0,0:0|0:0,0:0:0:0:
127,7,54624,5,4,0:0:0:0:
47,32,54858,2,0,P|32:27|6:26,4,33.6375006415844,2|0|2|0|4,0:0|0:0|0:1|0:0|0:3,0:0:0:0:
103,95,55561,2,0,P|111:157|87:195,1,100.912501924753,4|0,0:0|0:0,0:0:0:0:
75,207,56030,2,0,L|156:216,1,67.2750012831688,8|2,0:0|0:1,0:0:0:0:
148,306,56499,6,0,L|262:303,1,109.6875,2|0,1:0|0:0,0:0:0:0:
279,287,56967,2,0,P|281:250|266:210,1,73.125,2|2,0:1|1:0,0:0:0:0:
319,139,57436,2,0,P|302:84|313:32,1,109.6875,2|0,1:0|0:0,0:0:0:0:
330,13,57905,2,0,L|405:18,1,73.125,2|0,0:1|0:0,0:0:0:0:
431,86,58374,6,0,L|425:186,1,87.75,4|2,3:0|0:1,0:0:0:0:
424,195,58842,1,0,0:0:0:0:
376,250,59077,2,0,L|316:245,1,58.5,2|4,3:0|3:0,0:0:0:0:
252,278,59545,1,0,0:0:0:0:
203,223,59780,6,0,P|158:216|113:233,1,87.75,8|2,0:0|0:1,0:0:0:0:
102,243,60249,1,0,0:0:0:0:
40,202,60483,2,0,P|24:168|34:88,1,117,2|2,3:0|3:0,0:0:0:0:
84,39,61186,1,4,0:0:0:0:
147,74,61420,2,0,L|182:71,4,29.25,2|2|2|0|0,1:0|0:0|1:0|0:0|0:0,0:0:0:0:
256,192,62124,12,2,63881,0:0:0:0:
