osu file format v14

[General]
AudioFilename: Savant - Virgin (Or.mp3
AudioLeadIn: 0
PreviewTime: 16420
Countdown: 0
SampleSet: Soft
StackLeniency: 0.8
Mode: 0
LetterboxInBreaks: 0
WidescreenStoryboard: 0

[Editor]
DistanceSpacing: 1.2
BeatDivisor: 4
GridSize: 4
TimelineZoom: 1.2

[Metadata]
Title:Virgin
TitleUnicode:Virgin
Artist:Savant
ArtistUnicode:Savant
Creator:Namki
Version:Normal
Source:
Tags:complextro Shadren electro Seikatu cut version cult
BeatmapID:871247
BeatmapSetID:400004

[Difficulty]
HPDrainRate:3
CircleSize:3.5
OverallDifficulty:3
ApproachRate:4
SliderMultiplier:0.9
SliderTickRate:1

[Events]
//Background and Video events
0,0,"bege.png",0,0
//Break Periods
//Storyboard Layer 0 (Background)
//Storyboard Layer 1 (Fail)
//Storyboard Layer 2 (Pass)
//Storyboard Layer 3 (Foreground)
//Storyboard Sound Samples

[TimingPoints]
2124,468.75,4,2,0,50,1,0
47124,-100,4,2,0,50,0,1
58374,-100,4,2,0,50,0,0

[Colours]
Combo1 : 101,84,252
Combo2 : 98,196,249
Combo3 : 149,104,193

[HitObjects]
56,86,2124,6,0,L|66:194,1,90,4|8,3:0|0:0,0:0:0:0:
161,222,3061,2,0,L|151:122,1,90,4|8,3:0|0:0,0:0:0:0:
224,51,3999,5,4,3:0:0:0:
330,66,4467,1,8,0:0:0:0:
436,45,4936,2,0,L|446:102,1,45,4|0,3:0|0:0,0:0:0:0:
474,134,5405,2,0,L|484:191,1,45,8|0,0:0|0:0,0:0:0:0:
459,227,5874,6,0,B|413:245|413:245|355:245,1,90,4|4,0:0|0:0,0:0:0:0:
292,318,6811,2,0,B|241:318|241:318|195:336,1,90,4|4,0:0|0:0,0:0:0:0:
96,341,7749,6,0,L|97:286,1,45,4|0,0:0|0:0,0:0:0:0:
75,246,8217,2,0,L|76:191,1,45,8|0,0:0|0:0,0:0:0:0:
66,147,8686,1,4,3:0:0:0:
30,45,9155,1,8,0:0:0:0:
135,68,9624,6,0,P|177:84|232:91,1,90,4|8,3:0|0:0,0:0:0:0:
317,43,10561,1,4,3:0:0:0:
423,24,11030,1,8,0:0:0:0:
486,111,11499,6,0,P|492:155|482:198,1,90,4|8,3:0|0:0,0:0:0:0:
419,286,12436,2,0,P|412:330|422:374,1,90,4|8,3:0|0:0,0:0:0:0:
314,369,13374,6,0,L|263:367,2,45,4|0|0,0:0|0:0|0:0,0:0:0:0:
241,288,14311,2,0,L|190:286,2,45,0|0|0,0:0|0:0|0:0,0:0:0:0:
319,213,15249,6,0,L|373:208,1,45,0|0,0:0|0:0,0:0:0:0:
404,173,15717,2,0,L|458:168,1,45,0|0,0:0|0:0,0:0:0:0:
489,134,16186,1,0,0:0:0:0:
295,38,17124,6,0,P|251:27|188:36,1,90,4|8,0:0|0:0,0:0:0:0:
121,96,18061,2,0,P|75:108|22:95,1,90,4|8,3:0|0:0,0:0:0:0:
1,200,18999,5,4,0:0:0:0:
11,307,19467,1,4,0:0:0:0:
115,335,19936,1,4,0:0:0:0:
168,333,20170,1,2,1:0:0:0:
222,332,20405,1,8,0:0:0:0:
329,337,20874,6,0,P|378:348|417:339,1,90,4|8,3:0|0:0,0:0:0:0:
496,267,21811,2,0,L|497:214,1,45,4|2,3:0|1:0,0:0:0:0:
468,176,22280,1,8,0:0:0:0:
410,84,22749,6,0,L|353:86,1,45,4|2,3:0|3:0,0:0:0:0:
315,63,23217,2,0,L|258:65,1,45,8|2,0:0|1:0,0:0:0:0:
222,89,23686,2,0,P|186:62|142:58,1,90,4|8,3:0|0:0,0:0:0:0:
49,113,24624,5,4,3:0:0:0:
101,208,25092,1,8,0:0:0:0:
97,261,25327,1,2,0:1:0:0:
95,315,25561,2,0,P|134:312|194:311,1,90,4|8,3:0|0:0,0:0:0:0:
290,335,26499,6,0,L|289:282,1,45,4|2,0:0|1:0,0:0:0:0:
313,241,26967,2,0,L|312:188,1,45,4|2,0:0|1:0,0:0:0:0:
326,143,27436,2,0,P|281:147|238:136,1,90,4|8,3:0|0:0,0:0:0:0:
204,33,28374,6,0,L|115:35,1,90,4|2,0:0|3:0,0:0:0:0:
60,27,29077,1,4,3:0:0:0:
2,118,29545,1,2,3:0:0:0:
33,161,29780,2,0,P|40:203|32:248,1,67.5,8|2,0:0|3:0,0:0:0:0:
92,288,30483,5,8,0:3:0:0:
123,332,30717,2,0,L|123:376,2,45,4|4|4,3:0|3:0|3:0,0:0:0:0:
196,252,31655,1,2,1:0:0:0:
284,314,32124,6,0,P|327:308|387:313,1,90,4|8,0:0|0:0,0:0:0:0:
475,346,33061,2,0,P|475:298|474:257,1,90,4|8,3:0|0:0,0:0:0:0:
442,152,33999,6,0,L|388:153,1,45,4|0,0:0|0:0,0:0:0:0:
350,179,34467,2,0,L|293:180,1,45,4|0,0:0|0:0,0:0:0:0:
254,161,34936,2,0,B|210:163|210:163|164:157,1,90,4|8,0:0|0:0,0:0:0:0:
67,109,35874,6,0,P|59:160|68:205,1,90,4|8,3:0|0:0,0:0:0:0:
50,304,36811,2,0,P|92:300|138:305,1,90,4|8,3:0|0:0,0:0:0:0:
242,339,37749,6,0,L|300:342,1,45,4|0,0:0|0:0,0:0:0:0:
331,311,38217,1,8,0:0:0:0:
427,360,38686,2,0,P|440:302|429:257,1,90,2|4,1:0|0:0,0:0:0:0:
480,174,39624,6,0,P|463:126|471:77,1,90,4|8,0:0|0:0,0:0:0:0:
370,40,40561,2,0,L|280:47,1,90,4|8,3:0|0:0,0:0:0:0:
172,38,41499,6,0,L|112:39,1,45,4|0,0:0|0:0,0:0:0:0:
79,64,41967,2,0,L|30:63,1,45,4|0,0:0|0:0,0:0:0:0:
14,113,42436,2,0,P|0:157|6:205,1,90,4|8,0:0|0:0,0:0:0:0:
53,296,43374,6,0,L|223:307,2,135,0|0|8,0:0|0:0|0:0,0:0:0:0:
146,163,45483,5,8,0:3:0:0:
192,135,45717,2,0,L|241:139,1,45,12|12,0:3|0:3,0:3:0:0:
282,168,46186,2,0,P|290:220|284:262,1,90,4|2,0:3|1:0,0:0:0:0:
361,334,47124,6,0,L|416:336,2,45,4|2|2,0:0|0:0|0:1,0:0:0:0:
400,236,48061,2,0,L|450:221,2,45,4|0|8,3:0|0:0|0:0,0:0:0:0:
334,149,48999,5,2,1:0:0:0:
358,43,49467,1,2,0:1:0:0:
256,79,49936,2,0,P|211:87|166:79,1,90,4|2,0:0|0:0,0:0:0:0:
61,59,50874,6,0,P|65:103|61:149,1,90,4|2,0:0|0:1,0:0:0:0:
49,201,51577,1,2,0:0:0:0:
57,254,51811,1,4,0:0:0:0:
107,349,52280,1,4,3:0:0:0:
210,316,52749,6,0,L|265:320,1,45,2|4,0:1|0:3,0:0:0:0:
307,308,53217,2,0,L|362:312,1,45,2|4,0:1|0:3,0:0:0:0:
402,292,53686,2,0,P|397:247|408:204,1,90,4|8,0:0|0:0,0:0:0:0:
473,117,54624,6,0,L|464:64,2,45,4|2|2,0:0|0:0|0:1,0:0:0:0:
365,101,55561,2,0,L|358:145,2,45,4|0|8,0:0|0:0|0:0,0:0:0:0:
262,65,56499,6,0,P|219:80|168:68,1,90,2|2,1:0|0:1,0:0:0:0:
131,41,57202,1,2,1:0:0:0:
77,41,57436,1,2,1:0:0:0:
5,122,57905,1,2,0:1:0:0:
23,228,58374,5,4,3:0:0:0:
189,365,59311,1,4,3:0:0:0:
228,264,59780,2,0,P|224:222|252:169,1,90,8|0,0:0|0:0,0:0:0:0:
288,150,60483,5,2,3:0:0:0:
356,233,60952,1,2,3:0:0:0:
408,231,61186,1,4,0:0:0:0:
461,236,61420,2,0,L|506:234,2,45,2|2|0,1:0|1:0|0:0,0:0:0:0:
256,192,62124,12,2,63881,0:0:0:0:
