osu file format v14

[General]
AudioFilename: Savant - Virgin (Or.mp3
AudioLeadIn: 0
PreviewTime: 16420
Countdown: 0
SampleSet: Soft
StackLeniency: 0.7
Mode: 0
LetterboxInBreaks: 0
WidescreenStoryboard: 0

[Editor]
DistanceSpacing: 1.8
BeatDivisor: 4
GridSize: 4
TimelineZoom: 1.38

[Metadata]
Title:Virgin
TitleUnicode:Virgin
Artist:Savant
ArtistUnicode:Savant
Creator:Namki
Version:Hard
Source:
Tags:complextro Shadren electro Seikatu cut version cult
BeatmapID:870520
BeatmapSetID:400004

[Difficulty]
HPDrainRate:4
CircleSize:4
OverallDifficulty:6
ApproachRate:7.5
SliderMultiplier:1.35
SliderTickRate:1

[Events]
//Background and Video events
0,0,"bege.png",0,0
//Break Periods
//Storyboard Layer 0 (Background)
//Storyboard Layer 1 (Fail)
//Storyboard Layer 2 (Pass)
//Storyboard Layer 3 (Foreground)
//Storyboard Sound Samples

[TimingPoints]
2124,468.75,4,2,0,60,1,0
2124,-142.857142857143,4,2,0,60,0,0
11499,-117.647058823529,4,2,0,60,0,0
16186,-100,4,2,0,60,0,0
18999,-133.333333333333,4,2,0,60,0,0
19936,-100,4,2,0,60,0,0
33999,-133.333333333333,4,2,0,60,0,0
34936,-100,4,2,0,60,0,0
41499,-133.333333333333,4,2,0,60,0,0
42436,-100,4,2,0,60,0,0
47124,-100,4,2,0,60,0,1
52749,-200,4,2,0,60,0,1
53452,-100,4,2,0,60,0,1
56499,-200,4,2,0,60,0,1
57202,-100,4,2,0,60,0,1
58374,-100,4,2,0,60,0,0

[Colours]
Combo1 : 101,84,252
Combo2 : 98,196,249
Combo3 : 149,104,193

[HitObjects]
256,192,249,12,0,1655,0:0:0:0:
88,134,2124,6,0,P|88:161|101:199,2,47.2499985580445,4|0|8,3:0|0:0|0:0,0:0:0:0:
213,135,2827,2,0,P|213:158|208:181,1,47.2499985580445,0|4,0:0|3:0,0:0:0:0:
153,53,3295,1,0,0:0:0:0:
273,92,3530,2,0,L|342:97,1,47.2499985580445,8|0,0:0|0:0,0:0:0:0:
442,171,3999,2,0,L|394:167,1,47.2499985580445,4|0,3:0|0:0,0:0:0:0:
261,215,4467,2,0,L|330:220,1,47.2499985580445,8|0,0:0|0:0,0:0:0:0:
442,312,4936,2,0,L|336:303,1,94.4999971160889,4|8,3:0|0:0,0:0:0:0:
238,330,5639,1,0,0:0:0:0:
279,239,5874,6,0,P|253:231|219:237,1,47.2499985580445,4|0,0:0|0:0,0:0:0:0:
110,262,6342,2,0,P|149:270|174:267,1,47.2499985580445,4|0,0:0|0:0,0:0:0:0:
29,346,6811,2,0,P|37:298|20:236,1,94.4999971160889,4|4,0:0|0:0,0:0:0:0:
23,168,7514,1,0,0:0:0:0:
130,110,7749,6,0,L|185:102,1,47.2499985580445,4|0,0:0|0:0,0:0:0:0:
275,180,8217,2,0,L|228:172,1,47.2499985580445,8|0,0:0|0:0,0:0:0:0:
315,92,8686,2,0,L|370:84,1,47.2499985580445,4|0,3:0|0:0,0:0:0:0:
462,38,9155,1,8,0:0:0:0:
444,153,9389,1,0,0:0:0:0:
441,273,9624,6,0,P|403:283|384:283,2,47.2499985580445,4|0|8,3:0|0:0|0:0,0:0:0:0:
444,153,10327,2,0,P|406:143|387:143,1,47.2499985580445,0|4,0:0|3:0,0:0:0:0:
316,225,10795,1,0,0:0:0:0:
312,97,11030,2,0,L|306:36,1,47.2499985580445,8|0,0:0|0:0,0:0:0:0:
306,49,11381,1,0,0:0:0:0:
306,49,11499,1,4,3:0:0:0:
209,12,11733,5,0,0:0:0:0:
138,96,11967,2,0,P|92:106|67:101,1,57.3750010943413,8|0,0:0|0:0,0:0:0:0:
12,218,12436,2,0,P|58:208|83:213,1,57.3750010943413,4|0,3:0|0:0,0:0:0:0:
149,268,12905,1,8,0:0:0:0:
109,357,13139,1,0,0:0:0:0:
56,286,13374,1,4,0:0:0:0:
256,192,13491,12,0,15717,0:0:0:0:
181,146,16538,5,0,0:0:0:0:
214,147,16655,1,8,0:0:0:0:
320,106,16889,1,0,0:0:0:0:
234,171,17124,6,0,P|236:213|248:258,1,67.5,4|0,0:0|0:0,0:0:0:0:
397,141,17592,2,0,P|400:101|396:63,1,67.5,8|0,0:0|0:0,0:0:0:0:
289,306,18061,2,0,P|246:316|204:312,1,67.5,4|0,3:0|0:0,0:0:0:0:
33,243,18530,2,0,P|66:243|99:252,1,67.5,8|0,0:0|0:0,0:0:0:0:
181,97,18999,6,0,P|218:96|252:79,1,75.9375028967858,4|0,0:0|0:0,0:0:0:0:
271,110,19467,2,0,P|263:158|262:197,1,75.9375028967858,4|0,0:0|0:0,0:0:0:0:
235,223,19936,5,4,0:0:0:0:
352,266,20170,2,0,P|345:247|342:227,1,33.75,2|0,1:0|0:0,0:0:0:0:
376,157,20405,2,0,B|409:148|409:148|479:162,1,101.25,8|0,0:0|0:0,0:0:0:0:
493,189,20874,6,0,P|489:233|497:269,1,67.5,4|0,3:0|0:0,0:0:0:0:
363,147,21342,2,0,P|356:105|362:74,1,67.5,8|0,0:0|0:0,0:0:0:0:
249,25,21811,2,0,L|259:63,1,33.75,4|0,3:0|0:0,0:0:0:0:
194,135,22045,2,0,L|183:99,1,33.75,2|0,1:0|0:0,0:0:0:0:
97,51,22280,2,0,B|103:118|103:118|81:160,1,101.25,8|0,0:0|0:0,0:0:0:0:
58,167,22749,5,4,3:0:0:0:
49,324,22983,1,2,3:0:0:0:
82,319,23100,1,2,3:0:0:0:
115,314,23217,2,0,P|150:315|197:319,1,67.5,8|2,0:0|1:0,0:0:0:0:
313,332,23686,1,4,3:0:0:0:
342,200,23920,1,0,0:0:0:0:
266,51,24155,2,0,P|266:96|268:136,1,67.5,8|0,0:0|0:0,0:0:0:0:
205,298,24624,6,0,P|202:237|203:176,1,101.25,4|0,3:0|0:0,0:0:0:0:
193,117,25092,2,0,P|177:108|160:105,1,33.75,8|0,0:0|0:0,0:0:0:0:
91,38,25327,2,0,P|75:47|64:60,1,33.75,2|0,0:1|0:0,0:0:0:0:
60,164,25561,2,0,P|74:172|85:185,2,33.75,4|0|2,3:0|0:0|0:1,0:0:0:0:
4,263,26030,2,0,L|118:260,1,101.25,8|0,0:0|0:0,0:0:0:0:
134,243,26499,5,4,0:0:0:0:
176,130,26733,1,2,1:0:0:0:
191,291,26967,2,0,P|193:328|187:362,1,67.5,4|2,0:0|1:0,0:0:0:0:
297,378,27436,1,4,3:0:0:0:
309,228,27670,2,0,L|297:185,1,33.75,2|0,1:0|0:0,0:0:0:0:
397,227,27905,2,0,P|401:190|419:149,1,67.5,8|0,0:0|0:0,0:0:0:0:
306,31,28374,6,0,L|330:137,1,101.25,4|0,0:0|0:0,0:0:0:0:
321,162,28842,1,0,0:0:0:0:
186,196,29077,2,0,L|194:89,1,101.25,4|0,3:0|0:0,0:0:0:0:
185,62,29545,1,0,0:0:0:0:
32,60,29780,2,0,L|50:168,1,101.25,8|0,0:0|0:0,0:0:0:0:
65,189,30249,1,0,0:0:0:0:
94,316,30483,5,8,0:3:0:0:
169,217,30717,1,4,3:0:0:0:
256,358,30952,1,4,3:0:0:0:
173,306,31186,1,4,3:0:0:0:
292,266,31420,6,0,L|336:268,1,33.75,2|2,1:0|0:0,0:0:0:0:
277,190,31655,2,0,P|314:180|365:125,1,101.25,2|0,1:0|0:0,0:0:0:0:
288,69,32124,6,0,P|240:68|202:60,1,67.5,4|0,0:0|0:0,0:0:0:0:
61,180,32592,2,0,P|116:176|140:180,1,67.5,8|0,0:0|0:0,0:0:0:0:
221,335,33061,2,0,P|226:293|242:256,1,67.5,4|0,3:0|0:0,0:0:0:0:
381,139,33530,2,0,P|386:177|378:216,1,67.5,8|2,0:0|0:1,0:0:0:0:
505,143,33999,6,0,P|488:93|485:68,1,75.9375028967858,4|0,0:0|0:0,0:0:0:0:
459,44,34467,2,0,P|428:60|374:57,1,75.9375028967858,4|0,0:0|0:0,0:0:0:0:
345,40,34936,5,4,0:0:0:0:
226,109,35170,2,0,P|204:108|183:104,1,33.75,2|0,1:0|0:0,0:0:0:0:
116,117,35405,2,0,P|83:91|52:80,1,67.5,8|2,0:0|1:0,0:0:0:0:
36,254,35874,6,0,P|69:247|103:248,1,67.5,4|0,3:0|0:0,0:0:0:0:
303,305,36342,2,0,P|269:310|236:310,1,67.5,8|0,0:0|0:0,0:0:0:0:
347,124,36811,2,0,P|366:168|366:204,1,67.5,4|0,3:0|0:0,0:0:0:0:
502,92,37280,2,0,P|496:47|502:13,1,67.5,8|0,0:0|0:0,0:0:0:0:
352,40,37749,6,0,P|302:44|241:42,1,101.25,4|0,0:0|0:0,0:0:0:0:
218,24,38217,2,0,B|234:70|234:70|213:143,1,101.25,8|0,0:0|0:0,0:0:0:0:
197,146,38686,1,2,1:0:0:0:
91,148,38920,2,0,L|54:138,1,33.75,2|0,0:1|0:0,0:0:0:0:
15,234,39155,2,0,L|48:231,1,33.75,4|0,0:0|0:0,0:0:0:0:
144,245,39389,1,2,0:1:0:0:
257,352,39624,6,0,P|288:342|329:346,1,67.5,4|0,0:0|0:0,0:0:0:0:
512,287,40092,2,0,P|478:277|438:283,1,67.5,8|0,0:0|0:0,0:0:0:0:
279,230,40561,2,0,P|260:182|258:149,1,67.5,4|0,3:0|0:0,0:0:0:0:
473,75,41030,2,0,P|461:108|429:148,1,67.5,8|2,0:0|0:1,0:0:0:0:
249,52,41499,6,0,P|252:82|273:143,1,75.9375028967858,4|0,0:0|0:0,0:0:0:0:
279,157,41967,2,0,L|200:159,1,75.9375028967858,4|0,0:0|0:0,0:0:0:0:
171,147,42436,5,4,0:0:0:0:
15,117,42670,2,0,P|23:147|29:166,1,33.75,2|0,1:0|0:0,0:0:0:0:
87,209,42905,2,0,P|97:254|83:331,1,101.25,8|0,0:0|0:0,0:0:0:0:
65,330,43374,5,0,0:0:0:0:
256,192,43491,12,8,44780,0:0:0:0:
209,143,45483,5,8,0:3:0:0:
324,99,45717,1,12,0:3:0:0:
372,210,45952,1,12,0:3:0:0:
257,254,46186,1,12,0:3:0:0:
446,292,46420,6,0,L|445:327,1,33.75,2|2,1:0|0:0,0:0:0:0:
482,206,46655,2,0,P|472:148|473:103,1,101.25,2|0,1:0|0:0,0:0:0:0:
489,76,47124,5,4,0:0:0:0:
373,43,47358,1,2,0:0:0:0:
342,56,47475,1,0,0:0:0:0:
309,63,47592,1,2,0:1:0:0:
275,62,47709,1,0,0:0:0:0:
242,55,47826,1,2,0:0:0:0:
211,41,47943,1,0,0:0:0:0:
181,25,48061,6,0,L|181:105,1,67.5,4|0,3:0|0:0,0:0:0:0:
94,244,48530,2,0,P|104:201|96:123,1,101.25,8|0,0:0|0:0,0:0:0:0:
84,115,48999,5,2,1:0:0:0:
203,168,49233,1,2,3:0:0:0:
236,168,49350,1,2,3:0:0:0:
269,168,49467,2,0,P|331:162|359:153,1,67.5,2|4,0:1|0:3,0:0:0:0:
433,112,49936,1,4,0:0:0:0:
447,218,50170,2,0,L|446:253,1,33.75,2|2,1:0|0:0,0:0:0:0:
367,316,50405,2,0,P|302:312|250:322,1,101.25,2|0,0:0|0:0,0:0:0:0:
238,336,50874,5,4,0:0:0:0:
118,275,51108,1,2,0:0:0:0:
120,241,51225,1,0,0:0:0:0:
123,207,51342,1,2,0:1:0:0:
126,174,51459,1,0,0:0:0:0:
129,140,51576,1,2,0:0:0:0:
132,106,51693,1,0,0:0:0:0:
149,77,51811,6,0,B|191:85|191:85|286:51,1,135,4|4,0:0|3:0,0:0:0:0:
387,23,52514,1,2,1:0:0:0:
442,106,52749,6,0,L|444:141,1,33.75,2|0,0:1|0:0,0:0:0:0:
447,313,53217,2,0,L|444:353,1,33.75,2|0,0:1|0:0,0:0:0:0:
310,333,53686,5,4,0:0:0:0:
270,203,53920,2,0,L|285:166,1,33.75,2|0,0:1|0:0,0:0:0:0:
194,122,54155,2,0,P|191:162|165:222,1,101.25,8|0,0:0|0:0,0:0:0:0:
145,243,54624,5,4,0:0:0:0:
45,326,54858,1,2,0:0:0:0:
75,341,54975,1,0,0:0:0:0:
107,349,55092,1,2,0:1:0:0:
141,350,55209,1,0,0:0:0:0:
174,344,55327,1,4,0:3:0:0:
205,331,55443,1,0,0:0:0:0:
235,316,55561,6,0,P|270:313|326:317,1,67.5,4|0,0:0|0:0,0:0:0:0:
405,350,56030,1,8,0:0:0:0:
346,223,56264,1,2,0:1:0:0:
446,133,56499,6,0,L|481:143,1,33.75,2|0,1:0|0:0,0:0:0:0:
393,20,56967,1,2,0:1:0:0:
304,88,57202,6,0,L|275:116,1,33.75,0|0,0:0|0:0,0:0:0:0:
182,141,57436,2,0,P|146:129|79:131,1,101.25,2|0,1:0|0:0,0:0:0:0:
51,118,57905,2,0,P|64:163|62:228,1,101.25,2|0,0:1|0:0,0:0:0:0:
49,322,58374,6,0,L|176:316,1,101.25,4|2,3:0|0:1,0:0:0:0:
179,300,58842,1,0,0:0:0:0:
353,317,59077,2,0,P|331:294|325:248,2,67.5,2|4|0,3:0|3:0|0:0,0:0:0:0:
416,123,59780,2,0,L|412:248,1,101.25,8|2,0:0|0:1,0:0:0:0:
399,255,60249,1,0,0:0:0:0:
280,231,60483,5,2,3:0:0:0:
263,134,60717,2,0,L|269:62,1,67.5,0|2,0:0|3:0,0:0:0:0:
166,23,61186,1,4,0:0:0:0:
100,106,61420,2,0,L|57:112,1,33.75,2|2,1:0|0:0,0:0:0:0:
26,204,61655,2,0,L|134:195,1,101.25,2|0,1:0|0:0,0:0:0:0:
256,192,62124,12,2,63881,0:0:0:0:
