osu file format v14

[General]
AudioFilename: 07. Valley of Shadows (Original Mix)_1.2.mp3
AudioLeadIn: 1500
PreviewTime: 66666
Countdown: 0
SampleSet: Normal
StackLeniency: 0.7
Mode: 3
LetterboxInBreaks: 0
SpecialStyle: 0
WidescreenStoryboard: 0

[Editor]
DistanceSpacing: 0.8
BeatDivisor: 8
GridSize: 16
TimelineZoom: 3.099999

[Metadata]
Title:Valley of Shadows
TitleUnicode:Valley of Shadows
Artist:Savant
ArtistUnicode:Savant
Creator:booty
Version:Hard x1.2
Source:
Tags:
BeatmapID:1935052
BeatmapSetID:926400

[Difficulty]
HPDrainRate:7
CircleSize:4
OverallDifficulty:7
ApproachRate:9
SliderMultiplier:1.4
SliderTickRate:1

[Events]
//Background and Video events
0,0,"bg.jpg",0,0
//Break Periods
//Storyboard Layer 0 (Background)
//Storyboard Layer 1 (Fail)
//Storyboard Layer 2 (Pass)
//Storyboard Layer 3 (Foreground)
//Storyboard Sound Samples

[TimingPoints]
64,349.66,4,1,0,15,1,0

[HitObjects]
64,0,20,5,0,0:0:0:0:
448,0,20,1,0,0:0:0:0:
64,0,108,1,0,0:0:0:0:
320,0,195,1,0,0:0:0:0:
192,0,283,1,0,0:0:0:0:
320,0,283,1,0,0:0:0:0:
64,0,370,1,0,0:0:0:0:
64,0,458,1,0,0:0:0:0:
320,0,545,1,0,0:0:0:0:
448,0,545,1,0,0:0:0:0:
320,0,632,1,0,0:0:0:0:
64,0,720,1,0,0:0:0:0:
192,0,720,1,0,0:0:0:0:
64,0,807,1,0,0:0:0:0:
320,0,895,1,0,0:0:0:0:
320,0,982,1,0,0:0:0:0:
448,0,982,1,0,0:0:0:0:
192,0,1070,1,0,0:0:0:0:
192,0,1157,1,0,0:0:0:0:
320,0,1245,1,0,0:0:0:0:
448,0,1245,1,0,0:0:0:0:
448,0,1332,1,0,0:0:0:0:
64,0,1419,1,0,0:0:0:0:
64,0,1506,1,0,0:0:0:0:
320,0,1594,1,0,0:0:0:0:
64,0,1681,1,0,0:0:0:0:
320,0,1681,1,0,0:0:0:0:
192,0,1769,1,0,0:0:0:0:
192,0,1856,1,0,0:0:0:0:
320,0,1944,1,0,0:0:0:0:
448,0,1944,1,0,0:0:0:0:
448,0,2031,1,0,0:0:0:0:
64,0,2119,1,0,0:0:0:0:
192,0,2119,1,0,0:0:0:0:
192,0,2205,1,0,0:0:0:0:
320,0,2293,1,0,0:0:0:0:
320,0,2380,1,0,0:0:0:0:
448,0,2380,1,0,0:0:0:0:
64,0,2468,1,0,0:0:0:0:
64,0,2555,1,0,0:0:0:0:
320,0,2643,1,0,0:0:0:0:
448,0,2643,1,0,0:0:0:0:
448,0,2730,1,0,0:0:0:0:
64,0,2818,1,0,0:0:0:0:
192,0,2818,1,0,0:0:0:0:
192,0,2905,1,0,0:0:0:0:
320,0,2993,1,0,0:0:0:0:
320,0,3080,1,0,0:0:0:0:
448,0,3080,1,0,0:0:0:0:
64,0,3167,1,0,0:0:0:0:
64,0,3255,1,0,0:0:0:0:
320,0,3342,1,0,0:0:0:0:
448,0,3342,1,0,0:0:0:0:
320,0,3430,1,0,0:0:0:0:
64,0,3517,1,0,0:0:0:0:
192,0,3517,1,0,0:0:0:0:
192,0,3605,1,0,0:0:0:0:
448,0,3692,1,0,0:0:0:0:
320,0,3780,1,0,0:0:0:0:
448,0,3780,1,0,0:0:0:0:
64,0,3867,1,0,0:0:0:0:
64,0,3954,1,0,0:0:0:0:
320,0,4041,1,0,0:0:0:0:
448,0,4041,1,0,0:0:0:0:
320,0,4129,1,0,0:0:0:0:
64,0,4216,1,0,0:0:0:0:
192,0,4216,1,0,0:0:0:0:
64,0,4304,1,0,0:0:0:0:
192,0,4391,1,0,0:0:0:0:
320,0,4391,1,0,0:0:0:0:
320,0,4479,1,0,0:0:0:0:
448,0,4479,1,0,0:0:0:0:
192,0,4566,1,0,0:0:0:0:
320,0,4610,1,0,0:0:0:0:
448,0,4654,1,0,0:0:0:0:
64,0,4741,1,0,0:0:0:0:
192,0,4741,1,0,0:0:0:0:
320,0,4915,1,0,0:0:0:0:
448,0,4960,1,0,0:0:0:0:
64,0,5003,1,0,0:0:0:0:
192,0,5090,1,0,0:0:0:0:
320,0,5090,1,0,0:0:0:0:
64,0,5178,1,0,0:0:0:0:
448,0,5178,1,0,0:0:0:0:
192,0,5265,1,0,0:0:0:0:
320,0,5265,1,0,0:0:0:0:
448,0,5309,1,0,0:0:0:0:
64,0,5353,1,0,0:0:0:0:
320,0,5615,1,0,0:0:0:0:
448,0,5615,1,0,0:0:0:0:
64,0,5659,1,0,0:0:0:0:
192,0,5702,1,0,0:0:0:0:
64,0,5877,1,0,0:0:0:0:
192,0,5877,1,0,0:0:0:0:
320,0,5965,1,0,0:0:0:0:
192,0,6009,1,0,0:0:0:0:
448,0,6052,1,0,0:0:0:0:
192,0,6140,1,0,0:0:0:0:
320,0,6140,1,0,0:0:0:0:
192,0,6315,1,0,0:0:0:0:
320,0,6315,1,0,0:0:0:0:
448,0,6358,1,0,0:0:0:0:
64,0,6402,1,0,0:0:0:0:
64,0,6489,1,0,0:0:0:0:
320,0,6576,1,0,0:0:0:0:
448,0,6576,1,0,0:0:0:0:
64,0,6664,1,0,0:0:0:0:
320,0,6708,1,0,0:0:0:0:
192,0,6751,1,0,0:0:0:0:
64,0,6839,1,0,0:0:0:0:
448,0,6839,1,0,0:0:0:0:
192,0,6926,1,0,0:0:0:0:
320,0,7014,1,0,0:0:0:0:
448,0,7057,1,0,0:0:0:0:
192,0,7101,1,0,0:0:0:0:
192,0,7189,1,0,0:0:0:0:
64,0,7276,1,0,0:0:0:0:
448,0,7276,1,0,0:0:0:0:
192,0,7363,1,0,0:0:0:0:
320,0,7407,1,0,0:0:0:0:
448,0,7450,1,0,0:0:0:0:
64,0,7538,1,0,0:0:0:0:
192,0,7538,1,0,0:0:0:0:
320,0,7625,1,0,0:0:0:0:
64,0,7713,1,0,0:0:0:0:
448,0,7713,1,0,0:0:0:0:
64,0,7800,1,0,0:0:0:0:
320,0,7888,1,0,0:0:0:0:
192,0,7975,1,0,0:0:0:0:
320,0,7975,1,0,0:0:0:0:
64,0,8063,1,0,0:0:0:0:
64,0,8150,1,0,0:0:0:0:
320,0,8237,1,0,0:0:0:0:
448,0,8237,1,0,0:0:0:0:
448,0,8325,1,0,0:0:0:0:
64,0,8412,1,0,0:0:0:0:
192,0,8412,1,0,0:0:0:0:
192,0,8500,1,0,0:0:0:0:
320,0,8587,1,0,0:0:0:0:
64,0,8675,1,0,0:0:0:0:
448,0,8675,1,0,0:0:0:0:
64,0,8762,1,0,0:0:0:0:
320,0,8850,1,0,0:0:0:0:
192,0,8937,1,0,0:0:0:0:
448,0,8937,1,0,0:0:0:0:
320,0,9025,1,0,0:0:0:0:
64,0,9111,1,0,0:0:0:0:
192,0,9111,1,0,0:0:0:0:
192,0,9199,1,0,0:0:0:0:
448,0,9286,1,0,0:0:0:0:
320,0,9374,1,0,0:0:0:0:
448,0,9374,1,0,0:0:0:0:
192,0,9636,1,0,0:0:0:0:
320,0,9636,1,0,0:0:0:0:
448,0,9724,1,0,0:0:0:0:
64,0,9811,1,0,0:0:0:0:
192,0,9855,1,0,0:0:0:0:
448,0,9899,1,0,0:0:0:0:
192,0,9985,1,0,0:0:0:0:
64,0,10073,1,0,0:0:0:0:
192,0,10073,1,0,0:0:0:0:
320,0,10160,1,0,0:0:0:0:
448,0,10205,1,0,0:0:0:0:
192,0,10248,1,0,0:0:0:0:
64,0,10335,1,0,0:0:0:0:
448,0,10335,1,0,0:0:0:0:
192,0,10423,1,0,0:0:0:0:
320,0,10510,1,0,0:0:0:0:
192,0,10554,1,0,0:0:0:0:
448,0,10598,1,0,0:0:0:0:
192,0,10685,1,0,0:0:0:0:
320,0,10685,1,0,0:0:0:0:
64,0,10772,1,0,0:0:0:0:
448,0,10772,1,0,0:0:0:0:
192,0,10860,1,0,0:0:0:0:
320,0,10860,1,0,0:0:0:0:
448,0,10904,1,0,0:0:0:0:
64,0,10947,1,0,0:0:0:0:
192,0,11035,1,0,0:0:0:0:
192,0,11122,1,0,0:0:0:0:
320,0,11210,1,0,0:0:0:0:
448,0,11210,1,0,0:0:0:0:
64,0,11253,1,0,0:0:0:0:
192,0,11297,1,0,0:0:0:0:
320,0,11385,1,0,0:0:0:0:
320,0,11472,1,0,0:0:0:0:
448,0,11472,1,0,0:0:0:0:
192,0,11560,1,0,0:0:0:0:
64,0,11603,1,0,0:0:0:0:
320,0,11646,1,0,0:0:0:0:
64,0,11734,1,0,0:0:0:0:
448,0,11734,1,0,0:0:0:0:
448,0,11821,1,0,0:0:0:0:
64,0,11909,1,0,0:0:0:0:
192,0,11909,1,0,0:0:0:0:
320,0,11953,1,0,0:0:0:0:
448,0,11996,1,0,0:0:0:0:
192,0,12084,1,0,0:0:0:0:
64,0,12171,1,0,0:0:0:0:
320,0,12171,1,0,0:0:0:0:
192,0,12259,1,0,0:0:0:0:
320,0,12302,1,0,0:0:0:0:
64,0,12346,1,0,0:0:0:0:
192,0,12434,1,0,0:0:0:0:
320,0,12434,1,0,0:0:0:0:
448,0,12520,1,0,0:0:0:0:
192,0,12608,1,0,0:0:0:0:
320,0,12652,1,0,0:0:0:0:
64,0,12695,1,0,0:0:0:0:
448,0,12783,1,0,0:0:0:0:
320,0,12870,1,0,0:0:0:0:
448,0,12870,1,0,0:0:0:0:
192,0,12958,1,0,0:0:0:0:
64,0,13001,1,0,0:0:0:0:
320,0,13045,1,0,0:0:0:0:
64,0,13133,1,0,0:0:0:0:
448,0,13133,1,0,0:0:0:0:
320,0,13220,1,0,0:0:0:0:
64,0,13308,1,0,0:0:0:0:
192,0,13308,1,0,0:0:0:0:
320,0,13351,1,0,0:0:0:0:
448,0,13395,1,0,0:0:0:0:
64,0,13482,1,0,0:0:0:0:
192,0,13570,1,0,0:0:0:0:
320,0,13570,1,0,0:0:0:0:
448,0,13657,1,0,0:0:0:0:
192,0,13701,1,0,0:0:0:0:
64,0,13745,1,0,0:0:0:0:
320,0,13832,1,0,0:0:0:0:
448,0,13832,1,0,0:0:0:0:
192,0,13920,1,0,0:0:0:0:
64,0,14007,1,0,0:0:0:0:
448,0,14007,1,0,0:0:0:0:
320,0,14050,1,0,0:0:0:0:
192,0,14095,1,0,0:0:0:0:
320,0,14182,1,0,0:0:0:0:
192,0,14269,1,0,0:0:0:0:
320,0,14269,1,0,0:0:0:0:
64,0,14356,1,0,0:0:0:0:
448,0,14400,1,0,0:0:0:0:
192,0,14444,1,0,0:0:0:0:
320,0,14531,1,0,0:0:0:0:
448,0,14531,1,0,0:0:0:0:
64,0,14619,1,0,0:0:0:0:
192,0,14706,1,0,0:0:0:0:
320,0,14706,1,0,0:0:0:0:
64,0,14750,1,0,0:0:0:0:
448,0,14794,1,0,0:0:0:0:
320,0,14881,1,0,0:0:0:0:
64,0,14969,1,0,0:0:0:0:
192,0,14969,1,0,0:0:0:0:
320,0,15055,1,0,0:0:0:0:
192,0,15100,1,0,0:0:0:0:
64,0,15143,1,0,0:0:0:0:
320,0,15230,1,0,0:0:0:0:
448,0,15230,1,0,0:0:0:0:
192,0,15318,1,0,0:0:0:0:
320,0,15405,1,0,0:0:0:0:
64,0,15450,1,0,0:0:0:0:
448,0,15493,1,0,0:0:0:0:
64,0,15580,1,0,0:0:0:0:
192,0,15668,1,0,0:0:0:0:
320,0,15668,1,0,0:0:0:0:
64,0,15755,1,0,0:0:0:0:
448,0,15755,1,0,0:0:0:0:
320,0,15799,1,0,0:0:0:0:
192,0,15843,1,0,0:0:0:0:
320,0,15930,1,0,0:0:0:0:
448,0,15930,1,0,0:0:0:0:
64,0,16017,1,0,0:0:0:0:
192,0,16105,1,0,0:0:0:0:
320,0,16149,1,0,0:0:0:0:
448,0,16192,1,0,0:0:0:0:
64,0,16280,1,0,0:0:0:0:
192,0,16280,1,0,0:0:0:0:
320,0,16367,1,0,0:0:0:0:
448,0,16367,1,0,0:0:0:0:
64,0,16455,1,0,0:0:0:0:
192,0,16455,1,0,0:0:0:0:
320,0,16498,1,0,0:0:0:0:
448,0,16542,1,0,0:0:0:0:
192,0,16630,1,0,0:0:0:0:
448,0,16717,1,0,0:0:0:0:
192,0,16804,1,0,0:0:0:0:
320,0,16804,1,0,0:0:0:0:
64,0,16848,1,0,0:0:0:0:
448,0,16891,1,0,0:0:0:0:
192,0,16979,1,0,0:0:0:0:
320,0,17066,1,0,0:0:0:0:
448,0,17066,1,0,0:0:0:0:
64,0,17154,1,0,0:0:0:0:
192,0,17197,1,0,0:0:0:0:
320,0,17241,1,0,0:0:0:0:
64,0,17329,1,0,0:0:0:0:
448,0,17329,1,0,0:0:0:0:
320,0,17416,1,0,0:0:0:0:
64,0,17504,1,0,0:0:0:0:
192,0,17504,1,0,0:0:0:0:
448,0,17547,1,0,0:0:0:0:
320,0,17591,1,0,0:0:0:0:
192,0,17678,1,0,0:0:0:0:
64,0,17765,1,0,0:0:0:0:
320,0,17765,1,0,0:0:0:0:
448,0,17853,1,0,0:0:0:0:
192,0,17897,1,0,0:0:0:0:
64,0,17940,1,0,0:0:0:0:
320,0,18028,1,0,0:0:0:0:
448,0,18028,1,0,0:0:0:0:
192,0,18115,1,0,0:0:0:0:
320,0,18203,1,0,0:0:0:0:
64,0,18246,1,0,0:0:0:0:
192,0,18290,1,0,0:0:0:0:
448,0,18378,1,0,0:0:0:0:
192,0,18465,1,0,0:0:0:0:
320,0,18465,1,0,0:0:0:0:
448,0,18552,1,0,0:0:0:0:
64,0,18596,1,0,0:0:0:0:
192,0,18640,1,0,0:0:0:0:
320,0,18727,1,0,0:0:0:0:
448,0,18727,1,0,0:0:0:0:
64,0,18815,1,0,0:0:0:0:
192,0,18902,1,0,0:0:0:0:
320,0,18902,1,0,0:0:0:0:
64,0,18945,1,0,0:0:0:0:
448,0,18990,1,0,0:0:0:0:
320,0,19077,1,0,0:0:0:0:
64,0,19165,1,0,0:0:0:0:
192,0,19165,1,0,0:0:0:0:
320,0,19252,1,0,0:0:0:0:
448,0,19295,1,0,0:0:0:0:
64,0,19339,1,0,0:0:0:0:
192,0,19426,1,0,0:0:0:0:
320,0,19426,1,0,0:0:0:0:
448,0,19514,1,0,0:0:0:0:
64,0,19601,1,0,0:0:0:0:
192,0,19601,1,0,0:0:0:0:
320,0,19645,1,0,0:0:0:0:
448,0,19689,1,0,0:0:0:0:
192,0,19776,1,0,0:0:0:0:
320,0,19864,1,0,0:0:0:0:
448,0,19864,1,0,0:0:0:0:
64,0,19951,1,0,0:0:0:0:
320,0,19995,1,0,0:0:0:0:
192,0,20039,1,0,0:0:0:0:
64,0,20126,1,0,0:0:0:0:
448,0,20126,1,0,0:0:0:0:
320,0,20213,1,0,0:0:0:0:
64,0,20300,1,0,0:0:0:0:
192,0,20300,1,0,0:0:0:0:
448,0,20345,1,0,0:0:0:0:
320,0,20388,1,0,0:0:0:0:
64,0,20475,1,0,0:0:0:0:
192,0,20563,1,0,0:0:0:0:
320,0,20563,1,0,0:0:0:0:
448,0,20650,1,0,0:0:0:0:
64,0,20694,1,0,0:0:0:0:
192,0,20738,1,0,0:0:0:0:
320,0,20825,1,0,0:0:0:0:
448,0,20825,1,0,0:0:0:0:
64,0,20913,1,0,0:0:0:0:
320,0,21000,1,0,0:0:0:0:
192,0,21044,1,0,0:0:0:0:
448,0,21087,1,0,0:0:0:0:
320,0,21175,1,0,0:0:0:0:
64,0,21262,1,0,0:0:0:0:
192,0,21262,1,0,0:0:0:0:
448,0,21350,1,0,0:0:0:0:
320,0,21394,1,0,0:0:0:0:
64,0,21437,1,0,0:0:0:0:
192,0,21525,1,0,0:0:0:0:
320,0,21525,1,0,0:0:0:0:
448,0,21612,1,0,0:0:0:0:
192,0,21700,1,0,0:0:0:0:
320,0,21700,1,0,0:0:0:0:
64,0,21743,1,0,0:0:0:0:
448,0,21787,1,0,0:0:0:0:
64,0,21875,1,0,0:0:0:0:
192,0,21875,1,0,0:0:0:0:
320,0,21961,1,0,0:0:0:0:
448,0,21961,1,0,0:0:0:0:
64,0,22049,1,0,0:0:0:0:
192,0,22049,1,0,0:0:0:0:
320,0,22093,1,0,0:0:0:0:
448,0,22136,1,0,0:0:0:0:
64,0,22224,1,0,0:0:0:0:
192,0,22224,1,0,0:0:0:0:
320,0,22311,1,0,0:0:0:0:
64,0,22399,1,0,0:0:0:0:
448,0,22399,1,0,0:0:0:0:
320,0,22442,1,0,0:0:0:0:
192,0,22486,1,0,0:0:0:0:
64,0,22530,1,0,0:0:0:0:
448,0,22574,1,0,0:0:0:0:
192,0,22617,1,0,0:0:0:0:
320,0,22661,1,0,0:0:0:0:
448,0,22705,1,0,0:0:0:0:
64,0,22749,1,0,0:0:0:0:
320,0,22792,1,0,0:0:0:0:
192,0,22835,1,0,0:0:0:0:
320,0,22923,1,0,0:0:0:0:
448,0,22923,1,0,0:0:0:0:
192,0,23010,1,0,0:0:0:0:
64,0,23098,1,0,0:0:0:0:
320,0,23098,1,0,0:0:0:0:
448,0,23098,1,0,0:0:0:0:
192,0,23185,1,0,0:0:0:0:
320,0,23273,1,0,0:0:0:0:
448,0,23273,1,0,0:0:0:0:
320,0,23360,1,0,0:0:0:0:
448,0,23360,1,0,0:0:0:0:
64,0,23448,1,0,0:0:0:0:
192,0,23448,1,0,0:0:0:0:
448,0,23513,1,0,0:0:0:0:
320,0,23557,1,0,0:0:0:0:
192,0,23622,1,0,0:0:0:0:
64,0,23688,1,0,0:0:0:0:
448,0,23732,1,0,0:0:0:0:
320,0,23797,1,0,0:0:0:0:
192,0,23841,1,0,0:0:0:0:
320,0,23885,1,0,0:0:0:0:
192,0,23929,1,0,0:0:0:0:
448,0,23972,1,0,0:0:0:0:
320,0,24016,1,0,0:0:0:0:
192,0,24060,1,0,0:0:0:0:
64,0,24103,1,0,0:0:0:0:
448,0,24147,1,0,0:0:0:0:
320,0,24190,1,0,0:0:0:0:
192,0,24235,1,0,0:0:0:0:
448,0,24322,1,0,0:0:0:0:
64,0,24365,1,0,0:0:0:0:
192,0,24410,1,0,0:0:0:0:
320,0,24496,1,0,0:0:0:0:
448,0,24496,1,0,0:0:0:0:
64,0,24540,1,0,0:0:0:0:
192,0,24584,1,0,0:0:0:0:
320,0,24671,1,0,0:0:0:0:
448,0,24715,1,0,0:0:0:0:
192,0,24759,1,0,0:0:0:0:
320,0,24846,1,0,0:0:0:0:
320,0,24934,1,0,0:0:0:0:
192,0,25021,1,0,0:0:0:0:
448,0,25021,1,0,0:0:0:0:
192,0,25109,1,0,0:0:0:0:
64,0,25196,1,0,0:0:0:0:
320,0,25240,1,0,0:0:0:0:
448,0,25284,1,0,0:0:0:0:
192,0,25327,1,0,0:0:0:0:
64,0,25370,1,0,0:0:0:0:
320,0,25415,1,0,0:0:0:0:
448,0,25458,1,0,0:0:0:0:
192,0,25502,1,0,0:0:0:0:
64,0,25545,1,0,0:0:0:0:
320,0,25611,1,0,0:0:0:0:
448,0,25655,1,0,0:0:0:0:
64,0,25720,1,0,0:0:0:0:
192,0,25720,1,0,0:0:0:0:
320,0,25720,1,0,0:0:0:0:
64,0,25895,1,0,0:0:0:0:
192,0,25895,1,0,0:0:0:0:
320,0,25895,1,0,0:0:0:0:
448,0,25895,1,0,0:0:0:0:
192,0,26070,1,0,0:0:0:0:
192,0,26158,1,0,0:0:0:0:
320,0,26245,1,0,0:0:0:0:
448,0,26245,1,0,0:0:0:0:
64,0,26289,1,0,0:0:0:0:
192,0,26332,1,0,0:0:0:0:
320,0,26376,1,0,0:0:0:0:
448,0,26420,1,0,0:0:0:0:
192,0,26595,1,0,0:0:0:0:
320,0,26595,1,0,0:0:0:0:
448,0,26638,1,0,0:0:0:0:
64,0,26682,1,0,0:0:0:0:
192,0,26725,1,0,0:0:0:0:
320,0,26770,1,0,0:0:0:0:
448,0,26813,1,0,0:0:0:0:
192,0,26857,1,0,0:0:0:0:
320,0,26900,1,0,0:0:0:0:
64,0,26945,1,0,0:0:0:0:
448,0,26988,1,0,0:0:0:0:
320,0,27032,1,0,0:0:0:0:
192,0,27075,1,0,0:0:0:0:
64,0,27119,1,0,0:0:0:0:
448,0,27119,1,0,0:0:0:0:
64,0,27294,1,0,0:0:0:0:
192,0,27294,1,0,0:0:0:0:
320,0,27294,1,0,0:0:0:0:
448,0,27294,1,0,0:0:0:0:
192,0,27469,1,0,0:0:0:0:
320,0,27469,1,0,0:0:0:0:
448,0,27469,1,0,0:0:0:0:
320,0,27644,1,0,0:0:0:0:
448,0,27644,1,0,0:0:0:0:
192,0,27687,1,0,0:0:0:0:
64,0,27731,1,0,0:0:0:0:
448,0,27775,1,0,0:0:0:0:
192,0,27819,1,0,0:0:0:0:
320,0,27819,1,0,0:0:0:0:
64,0,27993,1,0,0:0:0:0:
448,0,27993,1,0,0:0:0:0:
192,0,28059,1,0,0:0:0:0:
64,0,28103,1,0,0:0:0:0:
192,0,28168,1,0,0:0:0:0:
320,0,28212,1,0,0:0:0:0:
448,0,28255,1,0,0:0:0:0:
64,0,28300,1,0,0:0:0:0:
192,0,28343,1,0,0:0:0:0:
448,0,28386,1,0,0:0:0:0:
320,0,28430,1,0,0:0:0:0:
192,0,28474,1,0,0:0:0:0:
64,0,28518,1,0,0:0:0:0:
192,0,28693,1,0,0:0:0:0:
320,0,28693,1,0,0:0:0:0:
448,0,28693,1,0,0:0:0:0:
64,0,28867,1,0,0:0:0:0:
192,0,28867,1,0,0:0:0:0:
192,0,28955,1,0,0:0:0:0:
320,0,28955,1,0,0:0:0:0:
320,0,29042,1,0,0:0:0:0:
448,0,29042,1,0,0:0:0:0:
64,0,29086,1,0,0:0:0:0:
192,0,29130,1,0,0:0:0:0:
320,0,29174,1,0,0:0:0:0:
448,0,29217,1,0,0:0:0:0:
448,0,29305,1,0,0:0:0:0:
64,0,29392,1,0,0:0:0:0:
192,0,29392,1,0,0:0:0:0:
448,0,29435,1,0,0:0:0:0:
320,0,29480,1,0,0:0:0:0:
192,0,29523,1,0,0:0:0:0:
64,0,29567,1,0,0:0:0:0:
320,0,29654,1,0,0:0:0:0:
448,0,29654,1,0,0:0:0:0:
192,0,29741,1,0,0:0:0:0:
64,0,29785,1,0,0:0:0:0:
320,0,29829,1,0,0:0:0:0:
192,0,29916,1,0,0:0:0:0:
448,0,29960,1,0,0:0:0:0:
64,0,30004,1,0,0:0:0:0:
192,0,30091,1,0,0:0:0:0:
320,0,30091,1,0,0:0:0:0:
448,0,30135,1,0,0:0:0:0:
64,0,30179,1,0,0:0:0:0:
192,0,30266,1,0,0:0:0:0:
320,0,30310,1,0,0:0:0:0:
448,0,30354,1,0,0:0:0:0:
64,0,30441,1,0,0:0:0:0:
192,0,30485,1,0,0:0:0:0:
320,0,30528,1,0,0:0:0:0:
448,0,30572,1,0,0:0:0:0:
64,0,30615,1,0,0:0:0:0:
192,0,30660,1,0,0:0:0:0:
320,0,30703,1,0,0:0:0:0:
448,0,30747,1,0,0:0:0:0:
64,0,30790,1,0,0:0:0:0:
192,0,30790,1,0,0:0:0:0:
320,0,30856,1,0,0:0:0:0:
448,0,30856,1,0,0:0:0:0:
64,0,30900,1,0,0:0:0:0:
192,0,30900,1,0,0:0:0:0:
320,0,30965,1,0,0:0:0:0:
448,0,30965,1,0,0:0:0:0:
64,0,31031,1,0,0:0:0:0:
192,0,31031,1,0,0:0:0:0:
320,0,31075,1,0,0:0:0:0:
448,0,31075,1,0,0:0:0:0:
64,0,31140,1,0,0:0:0:0:
192,0,31140,1,0,0:0:0:0:
320,0,31205,1,0,0:0:0:0:
448,0,31205,1,0,0:0:0:0:
64,0,31250,1,0,0:0:0:0:
192,0,31250,1,0,0:0:0:0:
320,0,31315,1,0,0:0:0:0:
448,0,31315,1,0,0:0:0:0:
64,0,31380,1,0,0:0:0:0:
192,0,31380,1,0,0:0:0:0:
320,0,31425,1,0,0:0:0:0:
448,0,31425,1,0,0:0:0:0:
64,0,31490,1,0,0:0:0:0:
192,0,31490,1,0,0:0:0:0:
64,0,31665,1,0,0:0:0:0:
192,0,31665,1,0,0:0:0:0:
192,0,31752,1,0,0:0:0:0:
320,0,31752,1,0,0:0:0:0:
320,0,31840,1,0,0:0:0:0:
448,0,31840,1,0,0:0:0:0:
64,0,31905,1,0,0:0:0:0:
192,0,31905,1,0,0:0:0:0:
320,0,31949,1,0,0:0:0:0:
448,0,31949,1,0,0:0:0:0:
64,0,32015,1,0,0:0:0:0:
192,0,32015,1,0,0:0:0:0:
320,0,32080,1,0,0:0:0:0:
448,0,32080,1,0,0:0:0:0:
64,0,32189,1,0,0:0:0:0:
192,0,32189,1,0,0:0:0:0:
320,0,32255,1,0,0:0:0:0:
448,0,32255,1,0,0:0:0:0:
64,0,32299,1,0,0:0:0:0:
192,0,32299,1,0,0:0:0:0:
320,0,32364,1,0,0:0:0:0:
448,0,32364,1,0,0:0:0:0:
64,0,32430,1,0,0:0:0:0:
192,0,32430,1,0,0:0:0:0:
320,0,32539,1,0,0:0:0:0:
448,0,32539,1,0,0:0:0:0:
64,0,32605,1,0,0:0:0:0:
192,0,32605,1,0,0:0:0:0:
320,0,32648,1,0,0:0:0:0:
448,0,32648,1,0,0:0:0:0:
64,0,32714,1,0,0:0:0:0:
192,0,32714,1,0,0:0:0:0:
320,0,32780,1,0,0:0:0:0:
448,0,32780,1,0,0:0:0:0:
64,0,32889,1,0,0:0:0:0:
192,0,32889,1,0,0:0:0:0:
192,0,33063,1,0,0:0:0:0:
64,0,33150,1,0,0:0:0:0:
448,0,33150,1,0,0:0:0:0:
320,0,33238,1,0,0:0:0:0:
320,0,33413,1,0,0:0:0:0:
448,0,33413,1,0,0:0:0:0:
192,0,33457,1,0,0:0:0:0:
64,0,33500,1,0,0:0:0:0:
320,0,33544,1,0,0:0:0:0:
64,0,33588,1,0,0:0:0:0:
192,0,33588,1,0,0:0:0:0:
448,0,33588,1,0,0:0:0:0:
320,0,33654,1,0,0:0:0:0:
192,0,33697,1,0,0:0:0:0:
64,0,33763,1,0,0:0:0:0:
320,0,33850,1,0,0:0:0:0:
448,0,33850,1,0,0:0:0:0:
192,0,33937,1,0,0:0:0:0:
320,0,33937,1,0,0:0:0:0:
64,0,34025,1,0,0:0:0:0:
448,0,34025,1,0,0:0:0:0:
192,0,34112,1,0,0:0:0:0:
320,0,34112,1,0,0:0:0:0:
320,0,34287,1,0,0:0:0:0:
448,0,34287,1,0,0:0:0:0:
64,0,34462,1,0,0:0:0:0:
192,0,34462,1,0,0:0:0:0:
192,0,34550,1,0,0:0:0:0:
320,0,34550,1,0,0:0:0:0:
320,0,34637,1,0,0:0:0:0:
448,0,34637,1,0,0:0:0:0:
64,0,34725,1,0,0:0:0:0:
448,0,34725,1,0,0:0:0:0:
64,0,34811,1,0,0:0:0:0:
192,0,34811,1,0,0:0:0:0:
320,0,34986,1,0,0:0:0:0:
448,0,34986,1,0,0:0:0:0:
192,0,35030,1,0,0:0:0:0:
64,0,35074,1,0,0:0:0:0:
448,0,35118,1,0,0:0:0:0:
192,0,35161,1,0,0:0:0:0:
320,0,35161,1,0,0:0:0:0:
64,0,35249,1,0,0:0:0:0:
448,0,35249,1,0,0:0:0:0:
192,0,35336,1,0,0:0:0:0:
320,0,35336,1,0,0:0:0:0:
64,0,35511,1,0,0:0:0:0:
192,0,35511,1,0,0:0:0:0:
320,0,35511,1,0,0:0:0:0:
192,0,35685,1,0,0:0:0:0:
320,0,35685,1,0,0:0:0:0:
448,0,35685,1,0,0:0:0:0:
64,0,35860,1,0,0:0:0:0:
192,0,35860,1,0,0:0:0:0:
320,0,35860,1,0,0:0:0:0:
320,0,36035,1,0,0:0:0:0:
448,0,36035,1,0,0:0:0:0:
320,0,36123,1,0,0:0:0:0:
448,0,36123,1,0,0:0:0:0:
320,0,36210,1,0,0:0:0:0:
448,0,36210,1,0,0:0:0:0:
64,0,36385,1,0,0:0:0:0:
448,0,36385,1,0,0:0:0:0:
320,0,36429,1,0,0:0:0:0:
192,0,36472,1,0,0:0:0:0:
64,0,36516,1,0,0:0:0:0:
448,0,36560,1,0,0:0:0:0:
320,0,36604,1,0,0:0:0:0:
64,0,36647,1,0,0:0:0:0:
192,0,36647,1,0,0:0:0:0:
192,0,36735,1,0,0:0:0:0:
320,0,36735,1,0,0:0:0:0:
64,0,36822,1,0,0:0:0:0:
448,0,36822,1,0,0:0:0:0:
192,0,36910,1,0,0:0:0:0:
320,0,36910,1,0,0:0:0:0:
320,0,37085,1,0,0:0:0:0:
448,0,37085,1,0,0:0:0:0:
64,0,37260,1,0,0:0:0:0:
192,0,37260,1,0,0:0:0:0:
192,0,37346,1,0,0:0:0:0:
320,0,37346,1,0,0:0:0:0:
64,0,37434,1,0,0:0:0:0:
448,0,37434,1,0,0:0:0:0:
320,0,37521,1,0,0:0:0:0:
448,0,37521,1,0,0:0:0:0:
192,0,37609,1,0,0:0:0:0:
320,0,37609,1,0,0:0:0:0:
64,0,37784,1,0,0:0:0:0:
192,0,37784,1,0,0:0:0:0:
320,0,37827,1,0,0:0:0:0:
448,0,37871,1,0,0:0:0:0:
64,0,37915,1,0,0:0:0:0:
192,0,37959,1,0,0:0:0:0:
320,0,37959,1,0,0:0:0:0:
64,0,38046,1,0,0:0:0:0:
448,0,38046,1,0,0:0:0:0:
192,0,38134,1,0,0:0:0:0:
320,0,38134,1,0,0:0:0:0:
64,0,38220,1,0,0:0:0:0:
192,0,38220,1,0,0:0:0:0:
320,0,38308,1,0,0:0:0:0:
448,0,38308,1,0,0:0:0:0:
64,0,38483,1,0,0:0:0:0:
192,0,38483,1,0,0:0:0:0:
64,0,38570,1,0,0:0:0:0:
192,0,38570,1,0,0:0:0:0:
320,0,38658,1,0,0:0:0:0:
448,0,38658,1,0,0:0:0:0:
320,0,38745,1,0,0:0:0:0:
448,0,38745,1,0,0:0:0:0:
64,0,38833,1,0,0:0:0:0:
192,0,38833,1,0,0:0:0:0:
192,0,38920,1,0,0:0:0:0:
320,0,38920,1,0,0:0:0:0:
320,0,39008,1,0,0:0:0:0:
448,0,39008,1,0,0:0:0:0:
192,0,39073,1,0,0:0:0:0:
320,0,39117,1,0,0:0:0:0:
64,0,39182,1,0,0:0:0:0:
64,0,39291,1,0,0:0:0:0:
64,0,39423,1,0,0:0:0:0:
320,0,39445,1,0,0:0:0:0:
448,0,39445,1,0,0:0:0:0:
64,0,39532,1,0,0:0:0:0:
192,0,39532,1,0,0:0:0:0:
320,0,39620,1,0,0:0:0:0:
64,0,39641,1,0,0:0:0:0:
448,0,39707,1,0,0:0:0:0:
64,0,39772,1,0,0:0:0:0:
320,0,39795,1,0,0:0:0:0:
64,0,39882,1,0,0:0:0:0:
448,0,39882,1,0,0:0:0:0:
192,0,39969,1,0,0:0:0:0:
64,0,39991,1,0,0:0:0:0:
320,0,40056,1,0,0:0:0:0:
64,0,40122,1,0,0:0:0:0:
448,0,40144,1,0,0:0:0:0:
64,0,40231,1,0,0:0:0:0:
448,0,40297,1,0,0:0:0:0:
64,0,40340,1,0,0:0:0:0:
448,0,40406,1,0,0:0:0:0:
64,0,40472,1,0,0:0:0:0:
448,0,40581,1,0,0:0:0:0:
320,0,40625,1,0,0:0:0:0:
192,0,40669,1,0,0:0:0:0:
64,0,40712,1,0,0:0:0:0:
320,0,40756,1,0,0:0:0:0:
448,0,40821,1,0,0:0:0:0:
64,0,40930,1,0,0:0:0:0:
192,0,40975,1,0,0:0:0:0:
320,0,41018,1,0,0:0:0:0:
448,0,41040,1,0,0:0:0:0:
64,0,41105,1,0,0:0:0:0:
448,0,41171,1,0,0:0:0:0:
192,0,41193,1,0,0:0:0:0:
320,0,41193,1,0,0:0:0:0:
64,0,41280,1,0,0:0:0:0:
448,0,41280,1,0,0:0:0:0:
64,0,41368,1,0,0:0:0:0:
320,0,41455,1,0,0:0:0:0:
448,0,41455,1,0,0:0:0:0:
448,0,41543,1,0,0:0:0:0:
64,0,41630,1,0,0:0:0:0:
192,0,41630,1,0,0:0:0:0:
320,0,41674,1,0,0:0:0:0:
448,0,41717,1,0,0:0:0:0:
64,0,41761,1,0,0:0:0:0:
192,0,41805,1,0,0:0:0:0:
320,0,41849,1,0,0:0:0:0:
448,0,41892,1,0,0:0:0:0:
64,0,41980,1,0,0:0:0:0:
192,0,41980,1,0,0:0:0:0:
320,0,42024,1,0,0:0:0:0:
448,0,42067,1,0,0:0:0:0:
192,0,42110,1,0,0:0:0:0:
320,0,42155,1,0,0:0:0:0:
64,0,42198,1,0,0:0:0:0:
192,0,42242,1,0,0:0:0:0:
448,0,42285,1,0,0:0:0:0:
320,0,42330,1,0,0:0:0:0:
192,0,42373,1,0,0:0:0:0:
64,0,42417,1,0,0:0:0:0:
448,0,42460,1,0,0:0:0:0:
192,0,42504,1,0,0:0:0:0:
320,0,42548,1,0,0:0:0:0:
64,0,42591,1,0,0:0:0:0:
192,0,42635,1,0,0:0:0:0:
320,0,42679,1,0,0:0:0:0:
448,0,42723,1,0,0:0:0:0:
192,0,42766,1,0,0:0:0:0:
64,0,42810,1,0,0:0:0:0:
448,0,42854,1,0,0:0:0:0:
320,0,42898,1,0,0:0:0:0:
192,0,42941,1,0,0:0:0:0:
64,0,42985,1,0,0:0:0:0:
448,0,43029,1,0,0:0:0:0:
320,0,43072,1,0,0:0:0:0:
192,0,43116,1,0,0:0:0:0:
64,0,43160,1,0,0:0:0:0:
448,0,43204,1,0,0:0:0:0:
320,0,43247,1,0,0:0:0:0:
192,0,43291,1,0,0:0:0:0:
64,0,43335,1,0,0:0:0:0:
320,0,43378,1,0,0:0:0:0:
192,0,43422,1,0,0:0:0:0:
320,0,43465,1,0,0:0:0:0:
192,0,43553,1,0,0:0:0:0:
320,0,43640,1,0,0:0:0:0:
64,0,43728,1,0,0:0:0:0:
448,0,43771,1,0,0:0:0:0:
64,0,43815,1,0,0:0:0:0:
320,0,43903,1,0,0:0:0:0:
192,0,43990,1,0,0:0:0:0:
64,0,44078,1,0,0:0:0:0:
64,0,44187,1,0,0:0:0:0:
64,0,44318,1,0,0:0:0:0:
64,0,44427,1,0,0:0:0:0:
192,0,44427,1,0,0:0:0:0:
320,0,44427,1,0,0:0:0:0:
448,0,44427,1,0,0:0:0:0:
192,0,44602,1,0,0:0:0:0:
64,0,44690,1,0,0:0:0:0:
192,0,44690,1,0,0:0:0:0:
320,0,44690,1,0,0:0:0:0:
448,0,44690,1,0,0:0:0:0:
320,0,44777,1,0,0:0:0:0:
448,0,44777,1,0,0:0:0:0:
192,0,44865,1,0,0:0:0:0:
320,0,44952,1,0,0:0:0:0:
448,0,44952,1,0,0:0:0:0:
64,0,45040,1,0,0:0:0:0:
192,0,45040,1,0,0:0:0:0:
320,0,45040,1,0,0:0:0:0:
448,0,45040,1,0,0:0:0:0:
192,0,45126,1,0,0:0:0:0:
64,0,45214,1,0,0:0:0:0:
64,0,45301,1,0,0:0:0:0:
64,0,45476,1,0,0:0:0:0:
192,0,45476,1,0,0:0:0:0:
320,0,45476,1,0,0:0:0:0:
448,0,45476,1,0,0:0:0:0:
320,0,45716,1,0,0:0:0:0:
448,0,45753,1,0,0:0:0:0:
320,0,45804,1,0,0:0:0:0:
448,0,45840,1,0,0:0:0:0:
192,0,45913,1,0,0:0:0:0:
320,0,46000,1,0,0:0:0:0:
64,0,46045,1,0,0:0:0:0:
192,0,46088,1,0,0:0:0:0:
64,0,46175,1,0,0:0:0:0:
320,0,46175,1,0,0:0:0:0:
448,0,46175,1,0,0:0:0:0:
448,0,46263,1,0,0:0:0:0:
192,0,46350,1,0,0:0:0:0:
192,0,46438,1,0,0:0:0:0:
320,0,46438,1,0,0:0:0:0:
448,0,46481,1,0,0:0:0:0:
64,0,46525,1,0,0:0:0:0:
192,0,46569,1,0,0:0:0:0:
320,0,46613,1,0,0:0:0:0:
448,0,46656,1,0,0:0:0:0:
64,0,46700,1,0,0:0:0:0:
192,0,46744,1,0,0:0:0:0:
320,0,46787,1,0,0:0:0:0:
448,0,46831,1,0,0:0:0:0:
64,0,46875,1,0,0:0:0:0:
192,0,46875,1,0,0:0:0:0:
320,0,46875,1,0,0:0:0:0:
64,0,46962,1,0,0:0:0:0:
192,0,47050,1,0,0:0:0:0:
320,0,47050,1,0,0:0:0:0:
448,0,47050,1,0,0:0:0:0:
320,0,47137,1,0,0:0:0:0:
192,0,47225,1,0,0:0:0:0:
64,0,47312,1,0,0:0:0:0:
320,0,47400,1,0,0:0:0:0:
448,0,47400,1,0,0:0:0:0:
64,0,47487,1,0,0:0:0:0:
192,0,47575,1,0,0:0:0:0:
320,0,47575,1,0,0:0:0:0:
448,0,47575,1,0,0:0:0:0:
192,0,47661,1,0,0:0:0:0:
320,0,47749,1,0,0:0:0:0:
64,0,47836,1,0,0:0:0:0:
192,0,47836,1,0,0:0:0:0:
448,0,47836,1,0,0:0:0:0:
192,0,47924,1,0,0:0:0:0:
320,0,48011,1,0,0:0:0:0:
64,0,48099,1,0,0:0:0:0:
192,0,48099,1,0,0:0:0:0:
448,0,48099,1,0,0:0:0:0:
448,0,48186,1,0,0:0:0:0:
448,0,48274,1,0,0:0:0:0:
64,0,48361,1,0,0:0:0:0:
192,0,48361,1,0,0:0:0:0:
320,0,48361,1,0,0:0:0:0:
448,0,48449,1,0,0:0:0:0:
320,0,48492,1,0,0:0:0:0:
192,0,48535,1,0,0:0:0:0:
64,0,48580,1,0,0:0:0:0:
192,0,48623,1,0,0:0:0:0:
320,0,48623,1,0,0:0:0:0:
448,0,48623,1,0,0:0:0:0:
320,0,48732,1,0,0:0:0:0:
448,0,48732,1,0,0:0:0:0:
64,0,48864,1,0,0:0:0:0:
192,0,48864,1,0,0:0:0:0:
64,0,48973,1,0,0:0:0:0:
192,0,48973,1,0,0:0:0:0:
320,0,48973,1,0,0:0:0:0:
448,0,48973,1,0,0:0:0:0:
448,0,49060,1,0,0:0:0:0:
448,0,49148,1,0,0:0:0:0:
64,0,49235,1,0,0:0:0:0:
192,0,49235,1,0,0:0:0:0:
320,0,49235,1,0,0:0:0:0:
192,0,49323,1,0,0:0:0:0:
192,0,49410,1,0,0:0:0:0:
448,0,49497,1,0,0:0:0:0:
320,0,49541,1,0,0:0:0:0:
64,0,49585,1,0,0:0:0:0:
192,0,49629,1,0,0:0:0:0:
320,0,49672,1,0,0:0:0:0:
448,0,49672,1,0,0:0:0:0:
64,0,49716,1,0,0:0:0:0:
192,0,49716,1,0,0:0:0:0:
448,0,49760,1,0,0:0:0:0:
192,0,49847,1,0,0:0:0:0:
320,0,49847,1,0,0:0:0:0:
320,0,49935,1,0,0:0:0:0:
448,0,49935,1,0,0:0:0:0:
64,0,49978,1,0,0:0:0:0:
192,0,50022,1,0,0:0:0:0:
320,0,50110,1,0,0:0:0:0:
448,0,50110,1,0,0:0:0:0:
320,0,50196,1,0,0:0:0:0:
448,0,50196,1,0,0:0:0:0:
64,0,50240,1,0,0:0:0:0:
192,0,50284,1,0,0:0:0:0:
320,0,50328,1,0,0:0:0:0:
64,0,50371,1,0,0:0:0:0:
448,0,50371,1,0,0:0:0:0:
192,0,50437,1,0,0:0:0:0:
64,0,50480,1,0,0:0:0:0:
320,0,50546,1,0,0:0:0:0:
320,0,50634,1,0,0:0:0:0:
448,0,50634,1,0,0:0:0:0:
64,0,50677,1,0,0:0:0:0:
192,0,50721,1,0,0:0:0:0:
320,0,50765,1,0,0:0:0:0:
448,0,50809,1,0,0:0:0:0:
192,0,50852,1,0,0:0:0:0:
320,0,50896,1,0,0:0:0:0:
448,0,50940,1,0,0:0:0:0:
64,0,50984,1,0,0:0:0:0:
192,0,51027,1,0,0:0:0:0:
320,0,51070,1,0,0:0:0:0:
448,0,51070,1,0,0:0:0:0:
64,0,51245,1,0,0:0:0:0:
192,0,51245,1,0,0:0:0:0:
192,0,51333,1,0,0:0:0:0:
320,0,51333,1,0,0:0:0:0:
320,0,51420,1,0,0:0:0:0:
448,0,51420,1,0,0:0:0:0:
64,0,51508,1,0,0:0:0:0:
448,0,51595,128,0,51683:0:0:0:0:
64,0,51770,1,0,0:0:0:0:
192,0,51770,1,0,0:0:0:0:
320,0,51770,1,0,0:0:0:0:
64,0,51858,1,0,0:0:0:0:
192,0,51858,1,0,0:0:0:0:
320,0,51945,1,0,0:0:0:0:
448,0,51945,1,0,0:0:0:0:
320,0,52032,1,0,0:0:0:0:
448,0,52032,1,0,0:0:0:0:
192,0,52076,1,0,0:0:0:0:
64,0,52120,1,0,0:0:0:0:
448,0,52164,1,0,0:0:0:0:
192,0,52207,1,0,0:0:0:0:
320,0,52251,1,0,0:0:0:0:
64,0,52295,1,0,0:0:0:0:
448,0,52338,1,0,0:0:0:0:
320,0,52382,1,0,0:0:0:0:
192,0,52425,1,0,0:0:0:0:
64,0,52470,1,0,0:0:0:0:
448,0,52470,1,0,0:0:0:0:
320,0,52513,1,0,0:0:0:0:
192,0,52557,1,0,0:0:0:0:
64,0,52645,1,0,0:0:0:0:
448,0,52645,1,0,0:0:0:0:
192,0,52688,1,0,0:0:0:0:
320,0,52732,1,0,0:0:0:0:
448,0,52775,1,0,0:0:0:0:
64,0,52819,1,0,0:0:0:0:
192,0,52819,1,0,0:0:0:0:
320,0,52863,1,0,0:0:0:0:
448,0,52906,1,0,0:0:0:0:
64,0,52950,1,0,0:0:0:0:
192,0,52994,1,0,0:0:0:0:
320,0,52994,1,0,0:0:0:0:
448,0,53038,1,0,0:0:0:0:
64,0,53081,1,0,0:0:0:0:
192,0,53125,1,0,0:0:0:0:
320,0,53169,1,0,0:0:0:0:
448,0,53169,1,0,0:0:0:0:
320,0,53256,1,0,0:0:0:0:
448,0,53256,1,0,0:0:0:0:
64,0,53344,1,0,0:0:0:0:
192,0,53344,1,0,0:0:0:0:
64,0,53431,1,0,0:0:0:0:
192,0,53431,1,0,0:0:0:0:
320,0,53431,1,0,0:0:0:0:
448,0,53431,1,0,0:0:0:0:
320,0,53519,1,0,0:0:0:0:
448,0,53519,1,0,0:0:0:0:
64,0,53606,1,0,0:0:0:0:
192,0,53606,1,0,0:0:0:0:
64,0,53693,1,0,0:0:0:0:
192,0,53693,1,0,0:0:0:0:
320,0,53693,1,0,0:0:0:0:
320,0,53780,1,0,0:0:0:0:
448,0,53780,1,0,0:0:0:0:
64,0,53868,1,0,0:0:0:0:
192,0,53868,1,0,0:0:0:0:
320,0,53955,1,0,0:0:0:0:
448,0,53955,1,0,0:0:0:0:
192,0,54000,1,0,0:0:0:0:
64,0,54043,1,0,0:0:0:0:
448,0,54086,1,0,0:0:0:0:
320,0,54130,1,0,0:0:0:0:
192,0,54174,1,0,0:0:0:0:
64,0,54218,1,0,0:0:0:0:
448,0,54218,1,0,0:0:0:0:
320,0,54327,1,0,0:0:0:0:
448,0,54327,1,0,0:0:0:0:
64,0,54393,1,0,0:0:0:0:
192,0,54393,1,0,0:0:0:0:
64,0,54567,1,0,0:0:0:0:
448,0,54567,1,0,0:0:0:0:
192,0,54611,1,0,0:0:0:0:
320,0,54655,1,0,0:0:0:0:
448,0,54699,1,0,0:0:0:0:
64,0,54742,1,0,0:0:0:0:
192,0,54786,1,0,0:0:0:0:
320,0,54830,1,0,0:0:0:0:
448,0,54874,1,0,0:0:0:0:
192,0,54917,1,0,0:0:0:0:
64,0,54960,1,0,0:0:0:0:
448,0,55005,1,0,0:0:0:0:
320,0,55048,1,0,0:0:0:0:
192,0,55092,1,0,0:0:0:0:
64,0,55135,1,0,0:0:0:0:
448,0,55180,1,0,0:0:0:0:
192,0,55223,1,0,0:0:0:0:
320,0,55267,1,0,0:0:0:0:
64,0,55310,1,0,0:0:0:0:
192,0,55354,1,0,0:0:0:0:
320,0,55398,1,0,0:0:0:0:
448,0,55441,1,0,0:0:0:0:
192,0,55485,1,0,0:0:0:0:
320,0,55529,1,0,0:0:0:0:
64,0,55573,1,0,0:0:0:0:
448,0,55616,1,0,0:0:0:0:
192,0,55660,1,0,0:0:0:0:
320,0,55704,1,0,0:0:0:0:
64,0,55748,1,0,0:0:0:0:
192,0,55791,1,0,0:0:0:0:
320,0,55835,1,0,0:0:0:0:
448,0,55879,1,0,0:0:0:0:
64,0,55922,1,0,0:0:0:0:
192,0,55966,1,0,0:0:0:0:
320,0,55966,1,0,0:0:0:0:
320,0,56054,1,0,0:0:0:0:
192,0,56141,1,0,0:0:0:0:
64,0,56228,1,0,0:0:0:0:
192,0,56228,1,0,0:0:0:0:
448,0,56228,1,0,0:0:0:0:
448,0,56315,1,0,0:0:0:0:
320,0,56360,1,0,0:0:0:0:
192,0,56403,1,0,0:0:0:0:
64,0,56490,1,0,0:0:0:0:
64,0,56665,1,0,0:0:0:0:
192,0,56665,1,0,0:0:0:0:
320,0,56665,1,0,0:0:0:0:
448,0,56665,1,0,0:0:0:0:
192,0,56796,1,0,0:0:0:0:
448,0,56840,128,0,57015:0:0:0:0:
192,0,57015,1,0,0:0:0:0:
192,0,57190,1,0,0:0:0:0:
64,0,57234,1,0,0:0:0:0:
320,0,57277,1,0,0:0:0:0:
448,0,57321,1,0,0:0:0:0:
64,0,57365,1,0,0:0:0:0:
192,0,57365,1,0,0:0:0:0:
192,0,57452,1,0,0:0:0:0:
320,0,57540,1,0,0:0:0:0:
192,0,57627,1,0,0:0:0:0:
320,0,57627,1,0,0:0:0:0:
448,0,57627,1,0,0:0:0:0:
64,0,57715,1,0,0:0:0:0:
192,0,57758,1,0,0:0:0:0:
448,0,57802,1,0,0:0:0:0:
320,0,57845,1,0,0:0:0:0:
192,0,57890,1,0,0:0:0:0:
64,0,57933,1,0,0:0:0:0:
448,0,57976,1,0,0:0:0:0:
192,0,58020,1,0,0:0:0:0:
320,0,58064,1,0,0:0:0:0:
64,0,58151,1,0,0:0:0:0:
448,0,58151,1,0,0:0:0:0:
64,0,58326,1,0,0:0:0:0:
192,0,58326,1,0,0:0:0:0:
320,0,58370,1,0,0:0:0:0:
448,0,58414,1,0,0:0:0:0:
64,0,58457,1,0,0:0:0:0:
192,0,58501,1,0,0:0:0:0:
320,0,58545,1,0,0:0:0:0:
64,0,58589,1,0,0:0:0:0:
448,0,58589,1,0,0:0:0:0:
192,0,58676,1,0,0:0:0:0:
64,0,58763,1,0,0:0:0:0:
192,0,58763,1,0,0:0:0:0:
448,0,58763,1,0,0:0:0:0:
320,0,58850,1,0,0:0:0:0:
320,0,58938,1,0,0:0:0:0:
64,0,59025,1,0,0:0:0:0:
192,0,59025,1,0,0:0:0:0:
448,0,59025,1,0,0:0:0:0:
192,0,59200,1,0,0:0:0:0:
320,0,59200,1,0,0:0:0:0:
64,0,59288,1,0,0:0:0:0:
320,0,59288,1,0,0:0:0:0:
448,0,59288,1,0,0:0:0:0:
64,0,59375,1,0,0:0:0:0:
192,0,59375,1,0,0:0:0:0:
320,0,59463,1,0,0:0:0:0:
64,0,59550,1,0,0:0:0:0:
192,0,59550,1,0,0:0:0:0:
448,0,59550,1,0,0:0:0:0:
320,0,59637,1,0,0:0:0:0:
448,0,59637,1,0,0:0:0:0:
64,0,59725,1,0,0:0:0:0:
192,0,59725,1,0,0:0:0:0:
448,0,59812,1,0,0:0:0:0:
320,0,59856,1,0,0:0:0:0:
192,0,59900,1,0,0:0:0:0:
64,0,59944,1,0,0:0:0:0:
448,0,59987,1,0,0:0:0:0:
192,0,60031,1,0,0:0:0:0:
320,0,60075,1,0,0:0:0:0:
448,0,60118,1,0,0:0:0:0:
64,0,60162,1,0,0:0:0:0:
192,0,60162,1,0,0:0:0:0:
64,0,60250,1,0,0:0:0:0:
64,0,60337,1,0,0:0:0:0:
192,0,60425,1,0,0:0:0:0:
320,0,60425,1,0,0:0:0:0:
448,0,60425,1,0,0:0:0:0:
320,0,60511,1,0,0:0:0:0:
320,0,60599,1,0,0:0:0:0:
64,0,60686,1,0,0:0:0:0:
448,0,60686,1,0,0:0:0:0:
192,0,60730,1,0,0:0:0:0:
320,0,60774,1,0,0:0:0:0:
64,0,60861,1,0,0:0:0:0:
448,0,60861,128,0,61036:0:0:0:0:
192,0,60905,1,0,0:0:0:0:
64,0,61124,1,0,0:0:0:0:
448,0,61124,128,0,61299:0:0:0:0:
192,0,61167,1,0,0:0:0:0:
192,0,61385,1,0,0:0:0:0:
448,0,61385,128,0,61560:0:0:0:0:
320,0,61430,1,0,0:0:0:0:
64,0,61560,1,0,0:0:0:0:
192,0,61560,1,0,0:0:0:0:
320,0,61560,1,0,0:0:0:0:
192,0,61648,1,0,0:0:0:0:
192,0,61735,1,0,0:0:0:0:
320,0,61823,1,0,0:0:0:0:
448,0,61823,1,0,0:0:0:0:
64,0,61866,1,0,0:0:0:0:
192,0,61910,1,0,0:0:0:0:
320,0,61954,1,0,0:0:0:0:
448,0,61998,1,0,0:0:0:0:
192,0,62041,1,0,0:0:0:0:
64,0,62085,1,0,0:0:0:0:
320,0,62085,1,0,0:0:0:0:
448,0,62129,1,0,0:0:0:0:
192,0,62173,1,0,0:0:0:0:
320,0,62216,1,0,0:0:0:0:
64,0,62260,1,0,0:0:0:0:
448,0,62260,1,0,0:0:0:0:
192,0,62347,1,0,0:0:0:0:
320,0,62479,1,0,0:0:0:0:
192,0,62522,1,0,0:0:0:0:
320,0,62610,1,0,0:0:0:0:
448,0,62697,1,0,0:0:0:0:
192,0,62828,1,0,0:0:0:0:
64,0,62960,1,0,0:0:0:0:
320,0,62960,1,0,0:0:0:0:
448,0,62960,1,0,0:0:0:0:
320,0,63046,1,0,0:0:0:0:
192,0,63134,1,0,0:0:0:0:
64,0,63221,1,0,0:0:0:0:
192,0,63221,1,0,0:0:0:0:
320,0,63265,1,0,0:0:0:0:
448,0,63309,1,0,0:0:0:0:
64,0,63353,1,0,0:0:0:0:
192,0,63396,1,0,0:0:0:0:
320,0,63440,1,0,0:0:0:0:
448,0,63484,1,0,0:0:0:0:
192,0,63527,1,0,0:0:0:0:
320,0,63571,1,0,0:0:0:0:
64,0,63615,1,0,0:0:0:0:
192,0,63659,1,0,0:0:0:0:
320,0,63659,1,0,0:0:0:0:
448,0,63702,1,0,0:0:0:0:
64,0,63746,1,0,0:0:0:0:
192,0,63790,1,0,0:0:0:0:
320,0,63834,1,0,0:0:0:0:
448,0,63834,1,0,0:0:0:0:
64,0,63877,1,0,0:0:0:0:
192,0,63920,1,0,0:0:0:0:
320,0,63965,1,0,0:0:0:0:
64,0,64008,1,0,0:0:0:0:
448,0,64008,1,0,0:0:0:0:
192,0,64052,1,0,0:0:0:0:
320,0,64095,1,0,0:0:0:0:
448,0,64140,1,0,0:0:0:0:
64,0,64183,1,0,0:0:0:0:
192,0,64183,1,0,0:0:0:0:
320,0,64227,1,0,0:0:0:0:
448,0,64270,1,0,0:0:0:0:
64,0,64315,1,0,0:0:0:0:
192,0,64358,1,0,0:0:0:0:
320,0,64358,1,0,0:0:0:0:
320,0,64445,1,0,0:0:0:0:
192,0,64533,1,0,0:0:0:0:
64,0,64620,1,0,0:0:0:0:
320,0,64620,1,0,0:0:0:0:
448,0,64620,1,0,0:0:0:0:
320,0,64708,1,0,0:0:0:0:
192,0,64795,1,0,0:0:0:0:
64,0,64882,1,0,0:0:0:0:
320,0,64882,1,0,0:0:0:0:
448,0,64882,1,0,0:0:0:0:
192,0,64970,1,0,0:0:0:0:
192,0,65057,1,0,0:0:0:0:
64,0,65145,1,0,0:0:0:0:
320,0,65145,1,0,0:0:0:0:
448,0,65145,1,0,0:0:0:0:
320,0,65232,1,0,0:0:0:0:
448,0,65232,1,0,0:0:0:0:
64,0,65407,1,0,0:0:0:0:
192,0,65407,1,0,0:0:0:0:
320,0,65407,1,0,0:0:0:0:
448,0,65407,1,0,0:0:0:0:
64,0,65756,1,0,0:0:0:0:
192,0,65756,1,0,0:0:0:0:
320,0,65844,1,0,0:0:0:0:
192,0,65931,1,0,0:0:0:0:
448,0,66019,1,0,0:0:0:0:
320,0,66106,1,0,0:0:0:0:
192,0,66194,1,0,0:0:0:0:
448,0,66281,1,0,0:0:0:0:
64,0,66369,1,0,0:0:0:0:
192,0,66456,1,0,0:0:0:0:
320,0,66456,1,0,0:0:0:0:
448,0,66456,1,0,0:0:0:0:
64,0,66565,1,0,0:0:0:0:
320,0,66630,1,0,0:0:0:0:
64,0,66718,1,0,0:0:0:0:
192,0,66718,1,0,0:0:0:0:
192,0,66805,1,0,0:0:0:0:
448,0,66805,1,0,0:0:0:0:
320,0,66915,1,0,0:0:0:0:
192,0,66980,1,0,0:0:0:0:
448,0,67046,1,0,0:0:0:0:
64,0,67155,1,0,0:0:0:0:
192,0,67155,1,0,0:0:0:0:
448,0,67155,1,0,0:0:0:0:
64,0,67330,1,0,0:0:0:0:
192,0,67330,1,0,0:0:0:0:
320,0,67417,1,0,0:0:0:0:
448,0,67417,1,0,0:0:0:0:
64,0,67505,1,0,0:0:0:0:
192,0,67505,1,0,0:0:0:0:
320,0,67505,1,0,0:0:0:0:
448,0,67505,1,0,0:0:0:0:
64,0,67592,1,0,0:0:0:0:
192,0,67592,1,0,0:0:0:0:
192,0,67680,1,0,0:0:0:0:
320,0,67680,1,0,0:0:0:0:
320,0,67767,1,0,0:0:0:0:
448,0,67767,1,0,0:0:0:0:
64,0,67855,1,0,0:0:0:0:
192,0,67855,1,0,0:0:0:0:
320,0,67855,1,0,0:0:0:0:
448,0,67855,1,0,0:0:0:0:
64,0,68030,1,0,0:0:0:0:
320,0,68030,1,0,0:0:0:0:
448,0,68030,1,0,0:0:0:0:
64,0,68204,1,0,0:0:0:0:
192,0,68204,1,0,0:0:0:0:
320,0,68204,1,0,0:0:0:0:
448,0,68204,1,0,0:0:0:0:
64,0,68379,1,0,0:0:0:0:
192,0,68379,1,0,0:0:0:0:
320,0,68379,1,0,0:0:0:0:
64,0,68554,1,0,0:0:0:0:
192,0,68554,1,0,0:0:0:0:
320,0,68554,1,0,0:0:0:0:
448,0,68554,1,0,0:0:0:0:
64,0,68729,1,0,0:0:0:0:
192,0,68729,1,0,0:0:0:0:
320,0,68816,1,0,0:0:0:0:
448,0,68816,1,0,0:0:0:0:
64,0,68904,1,0,0:0:0:0:
192,0,68904,1,0,0:0:0:0:
320,0,68904,1,0,0:0:0:0:
448,0,68904,1,0,0:0:0:0:
64,0,68991,1,0,0:0:0:0:
192,0,68991,1,0,0:0:0:0:
320,0,69078,1,0,0:0:0:0:
448,0,69078,1,0,0:0:0:0:
192,0,69165,1,0,0:0:0:0:
320,0,69165,1,0,0:0:0:0:
64,0,69253,1,0,0:0:0:0:
192,0,69253,1,0,0:0:0:0:
320,0,69253,1,0,0:0:0:0:
448,0,69253,1,0,0:0:0:0:
64,0,69428,1,0,0:0:0:0:
192,0,69428,1,0,0:0:0:0:
448,0,69428,1,0,0:0:0:0:
64,0,69603,1,0,0:0:0:0:
192,0,69603,1,0,0:0:0:0:
320,0,69669,1,0,0:0:0:0:
448,0,69669,1,0,0:0:0:0:
64,0,69712,1,0,0:0:0:0:
192,0,69712,1,0,0:0:0:0:
320,0,69778,1,0,0:0:0:0:
448,0,69778,1,0,0:0:0:0:
64,0,69843,1,0,0:0:0:0:
192,0,69843,1,0,0:0:0:0:
320,0,69887,1,0,0:0:0:0:
448,0,69887,1,0,0:0:0:0:
64,0,69952,1,0,0:0:0:0:
192,0,69952,1,0,0:0:0:0:
320,0,70040,1,0,0:0:0:0:
448,0,70040,1,0,0:0:0:0:
192,0,70127,1,0,0:0:0:0:
320,0,70127,1,0,0:0:0:0:
64,0,70215,1,0,0:0:0:0:
448,0,70215,1,0,0:0:0:0:
64,0,70302,1,0,0:0:0:0:
192,0,70302,1,0,0:0:0:0:
320,0,70302,1,0,0:0:0:0:
448,0,70302,1,0,0:0:0:0:
192,0,70390,1,0,0:0:0:0:
320,0,70390,1,0,0:0:0:0:
64,0,70477,1,0,0:0:0:0:
448,0,70477,1,0,0:0:0:0:
192,0,70565,1,0,0:0:0:0:
320,0,70565,1,0,0:0:0:0:
64,0,70652,1,0,0:0:0:0:
192,0,70652,1,0,0:0:0:0:
320,0,70652,1,0,0:0:0:0:
448,0,70652,1,0,0:0:0:0:
192,0,70826,1,0,0:0:0:0:
320,0,70826,1,0,0:0:0:0:
448,0,70826,1,0,0:0:0:0:
64,0,70914,1,0,0:0:0:0:
64,0,71001,1,0,0:0:0:0:
192,0,71001,1,0,0:0:0:0:
320,0,71001,1,0,0:0:0:0:
448,0,71001,1,0,0:0:0:0:
64,0,71176,1,0,0:0:0:0:
192,0,71176,1,0,0:0:0:0:
448,0,71176,1,0,0:0:0:0:
64,0,71351,1,0,0:0:0:0:
192,0,71351,1,0,0:0:0:0:
320,0,71351,1,0,0:0:0:0:
448,0,71351,1,0,0:0:0:0:
64,0,71439,1,0,0:0:0:0:
192,0,71439,1,0,0:0:0:0:
320,0,71526,1,0,0:0:0:0:
448,0,71526,1,0,0:0:0:0:
192,0,71613,1,0,0:0:0:0:
320,0,71613,1,0,0:0:0:0:
64,0,71700,1,0,0:0:0:0:
192,0,71700,1,0,0:0:0:0:
448,0,71745,1,0,0:0:0:0:
320,0,71788,1,0,0:0:0:0:
192,0,71832,1,0,0:0:0:0:
64,0,71875,1,0,0:0:0:0:
192,0,71920,1,0,0:0:0:0:
320,0,71963,1,0,0:0:0:0:
448,0,72007,1,0,0:0:0:0:
64,0,72050,1,0,0:0:0:0:
192,0,72050,1,0,0:0:0:0:
320,0,72050,1,0,0:0:0:0:
64,0,72138,1,0,0:0:0:0:
192,0,72138,1,0,0:0:0:0:
320,0,72225,1,0,0:0:0:0:
448,0,72225,1,0,0:0:0:0:
64,0,72313,1,0,0:0:0:0:
192,0,72313,1,0,0:0:0:0:
64,0,72400,1,0,0:0:0:0:
192,0,72400,1,0,0:0:0:0:
320,0,72400,1,0,0:0:0:0:
448,0,72400,1,0,0:0:0:0:
192,0,72575,1,0,0:0:0:0:
320,0,72575,1,0,0:0:0:0:
64,0,72662,1,0,0:0:0:0:
448,0,72662,1,0,0:0:0:0:
64,0,72750,1,0,0:0:0:0:
192,0,72750,1,0,0:0:0:0:
320,0,72750,1,0,0:0:0:0:
448,0,72750,1,0,0:0:0:0:
192,0,72837,1,0,0:0:0:0:
320,0,72837,1,0,0:0:0:0:
64,0,72925,1,0,0:0:0:0:
448,0,72925,1,0,0:0:0:0:
192,0,73012,1,0,0:0:0:0:
320,0,73012,1,0,0:0:0:0:
64,0,73100,1,0,0:0:0:0:
192,0,73100,1,0,0:0:0:0:
320,0,73100,1,0,0:0:0:0:
448,0,73100,1,0,0:0:0:0:
64,0,73187,1,0,0:0:0:0:
448,0,73187,1,0,0:0:0:0:
192,0,73275,1,0,0:0:0:0:
320,0,73275,1,0,0:0:0:0:
64,0,73449,1,0,0:0:0:0:
192,0,73449,1,0,0:0:0:0:
320,0,73449,1,0,0:0:0:0:
448,0,73449,1,0,0:0:0:0:
192,0,73624,1,0,0:0:0:0:
320,0,73624,1,0,0:0:0:0:
448,0,73624,1,0,0:0:0:0:
64,0,73799,1,0,0:0:0:0:
192,0,73799,1,0,0:0:0:0:
320,0,73799,1,0,0:0:0:0:
448,0,73799,1,0,0:0:0:0:
64,0,73974,1,0,0:0:0:0:
320,0,73974,1,0,0:0:0:0:
448,0,73974,1,0,0:0:0:0:
64,0,74149,1,0,0:0:0:0:
192,0,74149,1,0,0:0:0:0:
320,0,74149,1,0,0:0:0:0:
448,0,74149,1,0,0:0:0:0:
64,0,74235,1,0,0:0:0:0:
192,0,74235,1,0,0:0:0:0:
320,0,74323,1,0,0:0:0:0:
448,0,74323,1,0,0:0:0:0:
64,0,74410,1,0,0:0:0:0:
192,0,74410,1,0,0:0:0:0:
64,0,74498,1,0,0:0:0:0:
192,0,74498,1,0,0:0:0:0:
320,0,74498,1,0,0:0:0:0:
448,0,74498,1,0,0:0:0:0:
320,0,74585,1,0,0:0:0:0:
448,0,74585,1,0,0:0:0:0:
64,0,74673,1,0,0:0:0:0:
192,0,74673,1,0,0:0:0:0:
320,0,74760,1,0,0:0:0:0:
448,0,74760,1,0,0:0:0:0:
64,0,74848,1,0,0:0:0:0:
192,0,74848,1,0,0:0:0:0:
320,0,74848,1,0,0:0:0:0:
448,0,74848,1,0,0:0:0:0:
448,0,75023,1,0,0:0:0:0:
320,0,75066,1,0,0:0:0:0:
192,0,75110,1,0,0:0:0:0:
64,0,75154,1,0,0:0:0:0:
192,0,75197,1,0,0:0:0:0:
320,0,75197,1,0,0:0:0:0:
448,0,75197,1,0,0:0:0:0:
320,0,75285,1,0,0:0:0:0:
192,0,75372,1,0,0:0:0:0:
448,0,75460,1,0,0:0:0:0:
64,0,75547,1,0,0:0:0:0:
192,0,75547,1,0,0:0:0:0:
320,0,75547,1,0,0:0:0:0:
448,0,75547,1,0,0:0:0:0:
64,0,75635,1,0,0:0:0:0:
192,0,75635,1,0,0:0:0:0:
192,0,75722,1,0,0:0:0:0:
320,0,75722,1,0,0:0:0:0:
320,0,75810,1,0,0:0:0:0:
448,0,75810,1,0,0:0:0:0:
64,0,75896,1,0,0:0:0:0:
192,0,75896,1,0,0:0:0:0:
320,0,75896,1,0,0:0:0:0:
448,0,75896,1,0,0:0:0:0:
64,0,75984,1,0,0:0:0:0:
192,0,75984,1,0,0:0:0:0:
320,0,76071,1,0,0:0:0:0:
448,0,76071,1,0,0:0:0:0:
64,0,76246,1,0,0:0:0:0:
192,0,76246,1,0,0:0:0:0:
320,0,76246,1,0,0:0:0:0:
448,0,76246,1,0,0:0:0:0:
192,0,76334,1,0,0:0:0:0:
64,0,76421,1,0,0:0:0:0:
320,0,76421,1,0,0:0:0:0:
448,0,76421,1,0,0:0:0:0:
64,0,76596,1,0,0:0:0:0:
192,0,76596,1,0,0:0:0:0:
320,0,76596,1,0,0:0:0:0:
448,0,76596,1,0,0:0:0:0:
64,0,76770,1,0,0:0:0:0:
192,0,76770,1,0,0:0:0:0:
448,0,76770,1,0,0:0:0:0:
64,0,76945,1,0,0:0:0:0:
192,0,76945,1,0,0:0:0:0:
320,0,76945,1,0,0:0:0:0:
448,0,76945,1,0,0:0:0:0:
320,0,77033,1,0,0:0:0:0:
448,0,77033,1,0,0:0:0:0:
64,0,77120,1,0,0:0:0:0:
192,0,77120,1,0,0:0:0:0:
192,0,77208,1,0,0:0:0:0:
320,0,77208,1,0,0:0:0:0:
64,0,77295,1,0,0:0:0:0:
192,0,77295,1,0,0:0:0:0:
320,0,77295,1,0,0:0:0:0:
448,0,77295,1,0,0:0:0:0:
64,0,77383,1,0,0:0:0:0:
448,0,77383,1,0,0:0:0:0:
192,0,77470,1,0,0:0:0:0:
320,0,77470,1,0,0:0:0:0:
64,0,77558,1,0,0:0:0:0:
448,0,77558,1,0,0:0:0:0:
64,0,77645,1,0,0:0:0:0:
192,0,77645,1,0,0:0:0:0:
320,0,77645,1,0,0:0:0:0:
448,0,77645,1,0,0:0:0:0:
320,0,77820,1,0,0:0:0:0:
448,0,77820,1,0,0:0:0:0:
64,0,77864,1,0,0:0:0:0:
192,0,77907,1,0,0:0:0:0:
320,0,77995,1,0,0:0:0:0:
448,0,77995,1,0,0:0:0:0:
192,0,78082,1,0,0:0:0:0:
320,0,78082,1,0,0:0:0:0:
64,0,78170,1,0,0:0:0:0:
192,0,78170,1,0,0:0:0:0:
320,0,78257,1,0,0:0:0:0:
448,0,78257,1,0,0:0:0:0:
64,0,78345,1,0,0:0:0:0:
192,0,78345,1,0,0:0:0:0:
320,0,78345,1,0,0:0:0:0:
448,0,78345,1,0,0:0:0:0:
64,0,78432,1,0,0:0:0:0:
192,0,78432,1,0,0:0:0:0:
320,0,78519,1,0,0:0:0:0:
448,0,78519,1,0,0:0:0:0:
64,0,78606,1,0,0:0:0:0:
192,0,78606,1,0,0:0:0:0:
64,0,78694,1,0,0:0:0:0:
192,0,78694,1,0,0:0:0:0:
320,0,78694,1,0,0:0:0:0:
448,0,78694,1,0,0:0:0:0:
320,0,78781,1,0,0:0:0:0:
448,0,78781,1,0,0:0:0:0:
192,0,78869,1,0,0:0:0:0:
320,0,78869,1,0,0:0:0:0:
64,0,78956,1,0,0:0:0:0:
448,0,78956,1,0,0:0:0:0:
64,0,79044,1,0,0:0:0:0:
192,0,79044,1,0,0:0:0:0:
320,0,79044,1,0,0:0:0:0:
448,0,79044,1,0,0:0:0:0:
64,0,79219,1,0,0:0:0:0:
320,0,79219,1,0,0:0:0:0:
448,0,79219,1,0,0:0:0:0:
64,0,79393,1,0,0:0:0:0:
192,0,79393,1,0,0:0:0:0:
320,0,79393,1,0,0:0:0:0:
448,0,79393,1,0,0:0:0:0:
320,0,79480,1,0,0:0:0:0:
448,0,79480,1,0,0:0:0:0:
64,0,79568,1,0,0:0:0:0:
192,0,79568,1,0,0:0:0:0:
64,0,79743,1,0,0:0:0:0:
192,0,79743,1,0,0:0:0:0:
320,0,79743,1,0,0:0:0:0:
448,0,79743,1,0,0:0:0:0:
192,0,79830,1,0,0:0:0:0:
320,0,79830,1,0,0:0:0:0:
320,0,79918,1,0,0:0:0:0:
448,0,79918,1,0,0:0:0:0:
64,0,80005,1,0,0:0:0:0:
192,0,80005,1,0,0:0:0:0:
64,0,80093,1,0,0:0:0:0:
192,0,80093,1,0,0:0:0:0:
320,0,80093,1,0,0:0:0:0:
448,0,80093,1,0,0:0:0:0:
320,0,80180,1,0,0:0:0:0:
448,0,80180,1,0,0:0:0:0:
64,0,80267,1,0,0:0:0:0:
192,0,80267,1,0,0:0:0:0:
320,0,80355,1,0,0:0:0:0:
448,0,80355,1,0,0:0:0:0:
64,0,80442,1,0,0:0:0:0:
192,0,80442,1,0,0:0:0:0:
320,0,80442,1,0,0:0:0:0:
448,0,80442,1,0,0:0:0:0:
64,0,80617,1,0,0:0:0:0:
192,0,80617,1,0,0:0:0:0:
448,0,80617,1,0,0:0:0:0:
64,0,80792,1,0,0:0:0:0:
192,0,80792,1,0,0:0:0:0:
320,0,80792,1,0,0:0:0:0:
448,0,80835,1,0,0:0:0:0:
320,0,80880,1,0,0:0:0:0:
192,0,80923,1,0,0:0:0:0:
448,0,80967,1,0,0:0:0:0:
64,0,81010,1,0,0:0:0:0:
192,0,81054,1,0,0:0:0:0:
320,0,81098,1,0,0:0:0:0:
64,0,81141,1,0,0:0:0:0:
192,0,81141,1,0,0:0:0:0:
448,0,81141,1,0,0:0:0:0:
64,0,81229,1,0,0:0:0:0:
192,0,81229,1,0,0:0:0:0:
320,0,81316,1,0,0:0:0:0:
448,0,81316,1,0,0:0:0:0:
192,0,81404,1,0,0:0:0:0:
320,0,81404,1,0,0:0:0:0:
64,0,81491,1,0,0:0:0:0:
192,0,81491,1,0,0:0:0:0:
320,0,81491,1,0,0:0:0:0:
448,0,81491,1,0,0:0:0:0:
64,0,81579,1,0,0:0:0:0:
448,0,81579,1,0,0:0:0:0:
192,0,81666,1,0,0:0:0:0:
320,0,81666,1,0,0:0:0:0:
64,0,81754,1,0,0:0:0:0:
448,0,81754,1,0,0:0:0:0:
64,0,81841,1,0,0:0:0:0:
192,0,81841,1,0,0:0:0:0:
320,0,81841,1,0,0:0:0:0:
448,0,81841,1,0,0:0:0:0:
64,0,82015,1,0,0:0:0:0:
192,0,82015,1,0,0:0:0:0:
320,0,82015,1,0,0:0:0:0:
64,0,82190,1,0,0:0:0:0:
192,0,82190,1,0,0:0:0:0:
320,0,82190,1,0,0:0:0:0:
448,0,82190,1,0,0:0:0:0:
320,0,82278,1,0,0:0:0:0:
448,0,82278,1,0,0:0:0:0:
64,0,82365,1,0,0:0:0:0:
192,0,82365,1,0,0:0:0:0:
320,0,82453,1,0,0:0:0:0:
448,0,82453,1,0,0:0:0:0:
64,0,82540,1,0,0:0:0:0:
192,0,82540,1,0,0:0:0:0:
320,0,82540,1,0,0:0:0:0:
448,0,82540,1,0,0:0:0:0:
64,0,82628,1,0,0:0:0:0:
192,0,82628,1,0,0:0:0:0:
192,0,82715,1,0,0:0:0:0:
320,0,82715,1,0,0:0:0:0:
320,0,82802,1,0,0:0:0:0:
448,0,82802,1,0,0:0:0:0:
64,0,82890,1,0,0:0:0:0:
192,0,82890,1,0,0:0:0:0:
320,0,82890,1,0,0:0:0:0:
448,0,82890,1,0,0:0:0:0:
64,0,82977,1,0,0:0:0:0:
192,0,82977,1,0,0:0:0:0:
320,0,83065,1,0,0:0:0:0:
448,0,83065,1,0,0:0:0:0:
64,0,83152,1,0,0:0:0:0:
192,0,83152,1,0,0:0:0:0:
64,0,83240,1,0,0:0:0:0:
192,0,83240,1,0,0:0:0:0:
320,0,83240,1,0,0:0:0:0:
448,0,83240,1,0,0:0:0:0:
64,0,83415,1,0,0:0:0:0:
192,0,83415,1,0,0:0:0:0:
320,0,83502,1,0,0:0:0:0:
448,0,83502,1,0,0:0:0:0:
64,0,83590,1,0,0:0:0:0:
192,0,83590,1,0,0:0:0:0:
320,0,83590,1,0,0:0:0:0:
448,0,83590,1,0,0:0:0:0:
64,0,83676,1,0,0:0:0:0:
192,0,83676,1,0,0:0:0:0:
320,0,83764,1,0,0:0:0:0:
448,0,83764,1,0,0:0:0:0:
64,0,83851,1,0,0:0:0:0:
192,0,83851,1,0,0:0:0:0:
64,0,83939,1,0,0:0:0:0:
192,0,83939,1,0,0:0:0:0:
320,0,83939,1,0,0:0:0:0:
448,0,83939,1,0,0:0:0:0:
448,0,84114,1,0,0:0:0:0:
320,0,84157,1,0,0:0:0:0:
192,0,84201,1,0,0:0:0:0:
64,0,84245,1,0,0:0:0:0:
448,0,84289,1,0,0:0:0:0:
192,0,84332,1,0,0:0:0:0:
320,0,84376,1,0,0:0:0:0:
64,0,84420,1,0,0:0:0:0:
192,0,84464,1,0,0:0:0:0:
320,0,84507,1,0,0:0:0:0:
448,0,84550,1,0,0:0:0:0:
64,0,84595,1,0,0:0:0:0:
192,0,84638,1,0,0:0:0:0:
320,0,84682,1,0,0:0:0:0:
448,0,84725,1,0,0:0:0:0:
192,0,84770,1,0,0:0:0:0:
64,0,84813,128,0,85075:0:0:0:0:
192,0,84988,1,0,0:0:0:0:
448,0,85075,128,0,85250:0:0:0:0:
320,0,85163,1,0,0:0:0:0:
64,0,85337,1,0,0:0:0:0:
192,0,85337,1,0,0:0:0:0:
320,0,85337,1,0,0:0:0:0:
448,0,85337,1,0,0:0:0:0:
64,0,85512,1,0,0:0:0:0:
448,0,85512,1,0,0:0:0:0:
192,0,85600,1,0,0:0:0:0:
320,0,85600,1,0,0:0:0:0:
64,0,85687,1,0,0:0:0:0:
448,0,85687,1,0,0:0:0:0:
64,0,85775,1,0,0:0:0:0:
192,0,85775,1,0,0:0:0:0:
320,0,85862,1,0,0:0:0:0:
448,0,85862,1,0,0:0:0:0:
192,0,85950,1,0,0:0:0:0:
320,0,85950,1,0,0:0:0:0:
64,0,86037,1,0,0:0:0:0:
192,0,86037,1,0,0:0:0:0:
320,0,86125,1,0,0:0:0:0:
448,0,86125,1,0,0:0:0:0:
64,0,86211,1,0,0:0:0:0:
192,0,86255,1,0,0:0:0:0:
448,0,86299,1,0,0:0:0:0:
320,0,86343,1,0,0:0:0:0:
192,0,86386,1,0,0:0:0:0:
64,0,86430,1,0,0:0:0:0:
448,0,86474,1,0,0:0:0:0:
192,0,86518,1,0,0:0:0:0:
320,0,86561,1,0,0:0:0:0:
64,0,86605,1,0,0:0:0:0:
192,0,86649,1,0,0:0:0:0:
320,0,86692,1,0,0:0:0:0:
64,0,86736,1,0,0:0:0:0:
192,0,86736,1,0,0:0:0:0:
448,0,86736,1,0,0:0:0:0:
64,0,86911,1,0,0:0:0:0:
448,0,86911,1,0,0:0:0:0:
192,0,86999,1,0,0:0:0:0:
320,0,86999,1,0,0:0:0:0:
64,0,87085,1,0,0:0:0:0:
192,0,87085,1,0,0:0:0:0:
320,0,87173,1,0,0:0:0:0:
448,0,87173,1,0,0:0:0:0:
64,0,87260,1,0,0:0:0:0:
192,0,87260,1,0,0:0:0:0:
64,0,87435,1,0,0:0:0:0:
192,0,87435,1,0,0:0:0:0:
320,0,87435,1,0,0:0:0:0:
448,0,87435,1,0,0:0:0:0:
320,0,87523,1,0,0:0:0:0:
448,0,87523,1,0,0:0:0:0:
64,0,87610,1,0,0:0:0:0:
192,0,87610,1,0,0:0:0:0:
448,0,87654,1,0,0:0:0:0:
320,0,87698,1,0,0:0:0:0:
192,0,87741,1,0,0:0:0:0:
64,0,87785,1,0,0:0:0:0:
192,0,87873,1,0,0:0:0:0:
320,0,87916,1,0,0:0:0:0:
448,0,87960,1,0,0:0:0:0:
64,0,88004,1,0,0:0:0:0:
192,0,88047,1,0,0:0:0:0:
320,0,88091,1,0,0:0:0:0:
64,0,88135,1,0,0:0:0:0:
192,0,88135,1,0,0:0:0:0:
448,0,88135,1,0,0:0:0:0:
320,0,88200,1,0,0:0:0:0:
64,0,88244,1,0,0:0:0:0:
192,0,88244,1,0,0:0:0:0:
448,0,88310,1,0,0:0:0:0:
192,0,88375,1,0,0:0:0:0:
320,0,88375,1,0,0:0:0:0:
64,0,88419,1,0,0:0:0:0:
192,0,88485,1,0,0:0:0:0:
320,0,88485,1,0,0:0:0:0:
448,0,88485,1,0,0:0:0:0:
64,0,88550,1,0,0:0:0:0:
320,0,88594,1,0,0:0:0:0:
448,0,88594,1,0,0:0:0:0:
192,0,88660,1,0,0:0:0:0:
64,0,88725,1,0,0:0:0:0:
448,0,88725,1,0,0:0:0:0:
64,0,88834,1,0,0:0:0:0:
192,0,88834,1,0,0:0:0:0:
320,0,88834,1,0,0:0:0:0:
448,0,88834,1,0,0:0:0:0:
192,0,88921,1,0,0:0:0:0:
320,0,88921,1,0,0:0:0:0:
320,0,89009,1,0,0:0:0:0:
448,0,89009,1,0,0:0:0:0:
64,0,89096,1,0,0:0:0:0:
192,0,89096,1,0,0:0:0:0:
64,0,89184,1,0,0:0:0:0:
192,0,89184,1,0,0:0:0:0:
320,0,89184,1,0,0:0:0:0:
448,0,89184,1,0,0:0:0:0:
320,0,89271,1,0,0:0:0:0:
448,0,89271,1,0,0:0:0:0:
64,0,89359,1,0,0:0:0:0:
192,0,89359,1,0,0:0:0:0:
320,0,89446,1,0,0:0:0:0:
448,0,89446,1,0,0:0:0:0:
64,0,89534,1,0,0:0:0:0:
192,0,89534,1,0,0:0:0:0:
320,0,89708,1,0,0:0:0:0:
64,0,89883,1,0,0:0:0:0:
320,0,90058,1,0,0:0:0:0:
64,0,90233,1,0,0:0:0:0:
448,0,90233,1,0,0:0:0:0:
320,0,90408,1,0,0:0:0:0:
192,0,90582,1,0,0:0:0:0:
448,0,90757,1,0,0:0:0:0:
64,0,90932,1,0,0:0:0:0:
320,0,91107,1,0,0:0:0:0:
192,0,91282,1,0,0:0:0:0:
448,0,91456,1,0,0:0:0:0:
64,0,91631,1,0,0:0:0:0:
192,0,91631,1,0,0:0:0:0:
320,0,91806,1,0,0:0:0:0:
64,0,91981,1,0,0:0:0:0:
448,0,92156,1,0,0:0:0:0:
192,0,92330,1,0,0:0:0:0:
320,0,92505,1,0,0:0:0:0:
64,0,92680,1,0,0:0:0:0:
320,0,92855,1,0,0:0:0:0:
192,0,93030,1,0,0:0:0:0:
448,0,93205,1,0,0:0:0:0:
64,0,93380,1,0,0:0:0:0:
320,0,93555,1,0,0:0:0:0:
64,0,93730,1,0,0:0:0:0:
320,0,93773,1,0,0:0:0:0:
64,0,93817,1,0,0:0:0:0:
192,0,93904,1,0,0:0:0:0:
192,0,94079,1,0,0:0:0:0:
320,0,94123,1,0,0:0:0:0:
448,0,94166,1,0,0:0:0:0:
192,0,94254,1,0,0:0:0:0:
192,0,94429,1,0,0:0:0:0:
320,0,94429,1,0,0:0:0:0:
448,0,94472,1,0,0:0:0:0:
64,0,94516,1,0,0:0:0:0:
320,0,94604,1,0,0:0:0:0:
192,0,94778,1,0,0:0:0:0:
448,0,94822,1,0,0:0:0:0:
320,0,94865,1,0,0:0:0:0:
320,0,95128,1,0,0:0:0:0:
448,0,95128,1,0,0:0:0:0:
64,0,95172,1,0,0:0:0:0:
192,0,95215,1,0,0:0:0:0:
448,0,95303,1,0,0:0:0:0:
64,0,95390,1,0,0:0:0:0:
320,0,95478,1,0,0:0:0:0:
192,0,95521,1,0,0:0:0:0:
448,0,95565,1,0,0:0:0:0:
64,0,95652,1,0,0:0:0:0:
192,0,95740,1,0,0:0:0:0:
320,0,95827,1,0,0:0:0:0:
448,0,95827,1,0,0:0:0:0:
64,0,95871,1,0,0:0:0:0:
192,0,95915,1,0,0:0:0:0:
320,0,96002,1,0,0:0:0:0:
448,0,96090,1,0,0:0:0:0:
64,0,96177,1,0,0:0:0:0:
320,0,96220,1,0,0:0:0:0:
192,0,96265,1,0,0:0:0:0:
448,0,96352,1,0,0:0:0:0:
320,0,96440,1,0,0:0:0:0:
192,0,96526,1,0,0:0:0:0:
64,0,96570,1,0,0:0:0:0:
448,0,96614,1,0,0:0:0:0:
192,0,96701,1,0,0:0:0:0:
64,0,96789,1,0,0:0:0:0:
192,0,96876,1,0,0:0:0:0:
320,0,96920,1,0,0:0:0:0:
448,0,96964,1,0,0:0:0:0:
192,0,97051,1,0,0:0:0:0:
320,0,97139,1,0,0:0:0:0:
64,0,97226,1,0,0:0:0:0:
448,0,97226,1,0,0:0:0:0:
192,0,97314,1,0,0:0:0:0:
320,0,97400,1,0,0:0:0:0:
192,0,97488,1,0,0:0:0:0:
64,0,97575,1,0,0:0:0:0:
320,0,97663,1,0,0:0:0:0:
192,0,97750,1,0,0:0:0:0:
448,0,97838,1,0,0:0:0:0:
64,0,97925,1,0,0:0:0:0:
192,0,98013,1,0,0:0:0:0:
320,0,98100,1,0,0:0:0:0:
64,0,98187,1,0,0:0:0:0:
448,0,98187,1,0,0:0:0:0:
192,0,98275,1,0,0:0:0:0:
320,0,98362,1,0,0:0:0:0:
448,0,98450,1,0,0:0:0:0:
320,0,98537,1,0,0:0:0:0:
64,0,98625,1,0,0:0:0:0:
192,0,98625,1,0,0:0:0:0:
320,0,98712,1,0,0:0:0:0:
448,0,98800,1,0,0:0:0:0:
192,0,98887,1,0,0:0:0:0:
64,0,98975,1,0,0:0:0:0:
320,0,99149,1,0,0:0:0:0:
448,0,99236,1,0,0:0:0:0:
64,0,99324,1,0,0:0:0:0:
192,0,99368,1,0,0:0:0:0:
448,0,99411,1,0,0:0:0:0:
192,0,99499,1,0,0:0:0:0:
64,0,99586,1,0,0:0:0:0:
320,0,99674,1,0,0:0:0:0:
448,0,99717,1,0,0:0:0:0:
192,0,99761,1,0,0:0:0:0:
448,0,99849,1,0,0:0:0:0:
320,0,99935,1,0,0:0:0:0:
64,0,100023,1,0,0:0:0:0:
192,0,100023,1,0,0:0:0:0:
320,0,100067,1,0,0:0:0:0:
448,0,100110,1,0,0:0:0:0:
192,0,100198,1,0,0:0:0:0:
320,0,100198,1,0,0:0:0:0:
64,0,100285,1,0,0:0:0:0:
448,0,100285,1,0,0:0:0:0:
192,0,100373,1,0,0:0:0:0:
320,0,100373,1,0,0:0:0:0:
448,0,100416,1,0,0:0:0:0:
64,0,100460,1,0,0:0:0:0:
192,0,100548,1,0,0:0:0:0:
192,0,100635,1,0,0:0:0:0:
320,0,100723,1,0,0:0:0:0:
448,0,100723,1,0,0:0:0:0:
64,0,100766,1,0,0:0:0:0:
192,0,100810,1,0,0:0:0:0:
320,0,100897,1,0,0:0:0:0:
320,0,100985,1,0,0:0:0:0:
448,0,100985,1,0,0:0:0:0:
192,0,101072,1,0,0:0:0:0:
64,0,101116,1,0,0:0:0:0:
320,0,101160,1,0,0:0:0:0:
64,0,101247,1,0,0:0:0:0:
448,0,101247,1,0,0:0:0:0:
448,0,101335,1,0,0:0:0:0:
64,0,101422,1,0,0:0:0:0:
192,0,101422,1,0,0:0:0:0:
320,0,101465,1,0,0:0:0:0:
448,0,101510,1,0,0:0:0:0:
192,0,101597,1,0,0:0:0:0:
64,0,101684,1,0,0:0:0:0:
320,0,101684,1,0,0:0:0:0:
192,0,101771,1,0,0:0:0:0:
320,0,101815,1,0,0:0:0:0:
64,0,101859,1,0,0:0:0:0:
192,0,101946,1,0,0:0:0:0:
320,0,101946,1,0,0:0:0:0:
448,0,102034,1,0,0:0:0:0:
192,0,102121,1,0,0:0:0:0:
320,0,102165,1,0,0:0:0:0:
64,0,102209,1,0,0:0:0:0:
448,0,102296,1,0,0:0:0:0:
320,0,102384,1,0,0:0:0:0:
448,0,102384,1,0,0:0:0:0:
192,0,102470,1,0,0:0:0:0:
64,0,102515,1,0,0:0:0:0:
320,0,102558,1,0,0:0:0:0:
64,0,102645,1,0,0:0:0:0:
448,0,102645,1,0,0:0:0:0:
320,0,102733,1,0,0:0:0:0:
64,0,102820,1,0,0:0:0:0:
192,0,102820,1,0,0:0:0:0:
320,0,102865,1,0,0:0:0:0:
448,0,102908,1,0,0:0:0:0:
64,0,102995,1,0,0:0:0:0:
192,0,103083,1,0,0:0:0:0:
320,0,103083,1,0,0:0:0:0:
448,0,103170,1,0,0:0:0:0:
192,0,103214,1,0,0:0:0:0:
64,0,103258,1,0,0:0:0:0:
320,0,103345,1,0,0:0:0:0:
448,0,103345,1,0,0:0:0:0:
192,0,103432,1,0,0:0:0:0:
64,0,103520,1,0,0:0:0:0:
448,0,103520,1,0,0:0:0:0:
320,0,103564,1,0,0:0:0:0:
192,0,103607,1,0,0:0:0:0:
320,0,103695,1,0,0:0:0:0:
192,0,103782,1,0,0:0:0:0:
320,0,103782,1,0,0:0:0:0:
64,0,103870,1,0,0:0:0:0:
448,0,103913,1,0,0:0:0:0:
192,0,103957,1,0,0:0:0:0:
320,0,104045,1,0,0:0:0:0:
448,0,104045,1,0,0:0:0:0:
64,0,104132,1,0,0:0:0:0:
192,0,104219,1,0,0:0:0:0:
320,0,104219,1,0,0:0:0:0:
64,0,104263,1,0,0:0:0:0:
448,0,104306,1,0,0:0:0:0:
320,0,104394,1,0,0:0:0:0:
64,0,104481,1,0,0:0:0:0:
192,0,104481,1,0,0:0:0:0:
320,0,104569,1,0,0:0:0:0:
192,0,104612,1,0,0:0:0:0:
64,0,104656,1,0,0:0:0:0:
320,0,104744,1,0,0:0:0:0:
448,0,104744,1,0,0:0:0:0:
192,0,104831,1,0,0:0:0:0:
320,0,104919,1,0,0:0:0:0:
64,0,104962,1,0,0:0:0:0:
448,0,105006,1,0,0:0:0:0:
64,0,105093,1,0,0:0:0:0:
192,0,105180,1,0,0:0:0:0:
320,0,105180,1,0,0:0:0:0:
64,0,105268,1,0,0:0:0:0:
448,0,105268,1,0,0:0:0:0:
320,0,105312,1,0,0:0:0:0:
192,0,105355,1,0,0:0:0:0:
320,0,105443,1,0,0:0:0:0:
448,0,105443,1,0,0:0:0:0:
64,0,105530,1,0,0:0:0:0:
192,0,105618,1,0,0:0:0:0:
320,0,105661,1,0,0:0:0:0:
448,0,105705,1,0,0:0:0:0:
64,0,105793,1,0,0:0:0:0:
192,0,105793,1,0,0:0:0:0:
320,0,105880,1,0,0:0:0:0:
448,0,105880,1,0,0:0:0:0:
64,0,105967,1,0,0:0:0:0:
192,0,105967,1,0,0:0:0:0:
320,0,106011,1,0,0:0:0:0:
448,0,106055,1,0,0:0:0:0:
192,0,106142,1,0,0:0:0:0:
448,0,106230,1,0,0:0:0:0:
192,0,106317,1,0,0:0:0:0:
320,0,106317,1,0,0:0:0:0:
64,0,106360,1,0,0:0:0:0:
448,0,106405,1,0,0:0:0:0:
192,0,106492,1,0,0:0:0:0:
320,0,106580,1,0,0:0:0:0:
448,0,106580,1,0,0:0:0:0:
64,0,106667,1,0,0:0:0:0:
192,0,106710,1,0,0:0:0:0:
320,0,106754,1,0,0:0:0:0:
64,0,106841,1,0,0:0:0:0:
448,0,106841,1,0,0:0:0:0:
320,0,106929,1,0,0:0:0:0:
64,0,107016,1,0,0:0:0:0:
192,0,107016,1,0,0:0:0:0:
448,0,107060,1,0,0:0:0:0:
320,0,107104,1,0,0:0:0:0:
192,0,107191,1,0,0:0:0:0:
64,0,107279,1,0,0:0:0:0:
320,0,107279,1,0,0:0:0:0:
448,0,107366,1,0,0:0:0:0:
192,0,107410,1,0,0:0:0:0:
64,0,107454,1,0,0:0:0:0:
320,0,107541,1,0,0:0:0:0:
448,0,107541,1,0,0:0:0:0:
192,0,107628,1,0,0:0:0:0:
320,0,107715,1,0,0:0:0:0:
64,0,107760,1,0,0:0:0:0:
192,0,107803,1,0,0:0:0:0:
448,0,107890,1,0,0:0:0:0:
192,0,107978,1,0,0:0:0:0:
320,0,107978,1,0,0:0:0:0:
448,0,108065,1,0,0:0:0:0:
64,0,108109,1,0,0:0:0:0:
192,0,108153,1,0,0:0:0:0:
320,0,108240,1,0,0:0:0:0:
448,0,108240,1,0,0:0:0:0:
64,0,108328,1,0,0:0:0:0:
192,0,108415,1,0,0:0:0:0:
320,0,108415,1,0,0:0:0:0:
64,0,108459,1,0,0:0:0:0:
448,0,108502,1,0,0:0:0:0:
320,0,108590,1,0,0:0:0:0:
64,0,108677,1,0,0:0:0:0:
192,0,108677,1,0,0:0:0:0:
320,0,108765,1,0,0:0:0:0:
448,0,108809,1,0,0:0:0:0:
64,0,108852,1,0,0:0:0:0:
192,0,108940,1,0,0:0:0:0:
320,0,108940,1,0,0:0:0:0:
448,0,109027,1,0,0:0:0:0:
64,0,109115,1,0,0:0:0:0:
192,0,109115,1,0,0:0:0:0:
320,0,109158,1,0,0:0:0:0:
448,0,109202,1,0,0:0:0:0:
192,0,109290,1,0,0:0:0:0:
320,0,109376,1,0,0:0:0:0:
448,0,109376,1,0,0:0:0:0:
64,0,109464,1,0,0:0:0:0:
320,0,109508,1,0,0:0:0:0:
192,0,109551,1,0,0:0:0:0:
64,0,109639,1,0,0:0:0:0:
448,0,109639,1,0,0:0:0:0:
320,0,109726,1,0,0:0:0:0:
64,0,109814,1,0,0:0:0:0:
192,0,109814,1,0,0:0:0:0:
448,0,109857,1,0,0:0:0:0:
320,0,109901,1,0,0:0:0:0:
64,0,109989,1,0,0:0:0:0:
192,0,110076,1,0,0:0:0:0:
320,0,110076,1,0,0:0:0:0:
448,0,110164,1,0,0:0:0:0:
64,0,110207,1,0,0:0:0:0:
192,0,110250,1,0,0:0:0:0:
320,0,110338,1,0,0:0:0:0:
448,0,110338,1,0,0:0:0:0:
64,0,110425,1,0,0:0:0:0:
320,0,110513,1,0,0:0:0:0:
192,0,110557,1,0,0:0:0:0:
448,0,110600,1,0,0:0:0:0:
320,0,110688,1,0,0:0:0:0:
64,0,110775,1,0,0:0:0:0:
192,0,110775,1,0,0:0:0:0:
448,0,110863,1,0,0:0:0:0:
320,0,110906,1,0,0:0:0:0:
64,0,110950,1,0,0:0:0:0:
192,0,111037,1,0,0:0:0:0:
320,0,111037,1,0,0:0:0:0:
448,0,111125,1,0,0:0:0:0:
192,0,111212,1,0,0:0:0:0:
320,0,111212,1,0,0:0:0:0:
64,0,111256,1,0,0:0:0:0:
448,0,111300,1,0,0:0:0:0:
64,0,111387,1,0,0:0:0:0:
192,0,111387,1,0,0:0:0:0:
320,0,111475,1,0,0:0:0:0:
448,0,111475,1,0,0:0:0:0:
64,0,111562,1,0,0:0:0:0:
192,0,111562,1,0,0:0:0:0:
320,0,111605,1,0,0:0:0:0:
448,0,111650,1,0,0:0:0:0:
64,0,111737,1,0,0:0:0:0:
192,0,111737,1,0,0:0:0:0:
320,0,111825,1,0,0:0:0:0:
64,0,111911,1,0,0:0:0:0:
448,0,111911,1,0,0:0:0:0:
320,0,111955,1,0,0:0:0:0:
192,0,111999,1,0,0:0:0:0:
64,0,112043,1,0,0:0:0:0:
448,0,112086,1,0,0:0:0:0:
192,0,112130,1,0,0:0:0:0:
320,0,112174,1,0,0:0:0:0:
448,0,112218,1,0,0:0:0:0:
64,0,112261,1,0,0:0:0:0:
320,0,112305,1,0,0:0:0:0:
192,0,112349,1,0,0:0:0:0:
320,0,112436,1,0,0:0:0:0:
448,0,112436,1,0,0:0:0:0:
192,0,112524,1,0,0:0:0:0:
64,0,112611,1,0,0:0:0:0:
320,0,112611,1,0,0:0:0:0:
448,0,112611,1,0,0:0:0:0:
192,0,112699,1,0,0:0:0:0:
320,0,112785,1,0,0:0:0:0:
448,0,112785,1,0,0:0:0:0:
320,0,112873,1,0,0:0:0:0:
448,0,112873,1,0,0:0:0:0:
64,0,112960,1,0,0:0:0:0:
192,0,112960,1,0,0:0:0:0:
448,0,113026,1,0,0:0:0:0:
320,0,113070,1,0,0:0:0:0:
192,0,113135,1,0,0:0:0:0:
64,0,113201,1,0,0:0:0:0:
448,0,113245,1,0,0:0:0:0:
320,0,113310,1,0,0:0:0:0:
192,0,113354,1,0,0:0:0:0:
320,0,113398,1,0,0:0:0:0:
192,0,113441,1,0,0:0:0:0:
448,0,113485,1,0,0:0:0:0:
320,0,113529,1,0,0:0:0:0:
192,0,113573,1,0,0:0:0:0:
64,0,113616,1,0,0:0:0:0:
448,0,113660,1,0,0:0:0:0:
320,0,113704,1,0,0:0:0:0:
192,0,113747,1,0,0:0:0:0:
448,0,113835,1,0,0:0:0:0:
64,0,113879,1,0,0:0:0:0:
192,0,113922,1,0,0:0:0:0:
320,0,114010,1,0,0:0:0:0:
448,0,114010,1,0,0:0:0:0:
64,0,114053,1,0,0:0:0:0:
192,0,114097,1,0,0:0:0:0:
320,0,114185,1,0,0:0:0:0:
448,0,114228,1,0,0:0:0:0:
192,0,114272,1,0,0:0:0:0:
320,0,114360,1,0,0:0:0:0:
320,0,114447,1,0,0:0:0:0:
192,0,114534,1,0,0:0:0:0:
448,0,114534,1,0,0:0:0:0:
192,0,114621,1,0,0:0:0:0:
64,0,114709,1,0,0:0:0:0:
320,0,114753,1,0,0:0:0:0:
448,0,114796,1,0,0:0:0:0:
192,0,114840,1,0,0:0:0:0:
64,0,114884,1,0,0:0:0:0:
320,0,114927,1,0,0:0:0:0:
448,0,114971,1,0,0:0:0:0:
192,0,115015,1,0,0:0:0:0:
64,0,115059,1,0,0:0:0:0:
320,0,115124,1,0,0:0:0:0:
448,0,115168,1,0,0:0:0:0:
64,0,115234,1,0,0:0:0:0:
192,0,115234,1,0,0:0:0:0:
320,0,115234,1,0,0:0:0:0:
64,0,115408,1,0,0:0:0:0:
192,0,115408,1,0,0:0:0:0:
320,0,115408,1,0,0:0:0:0:
448,0,115408,1,0,0:0:0:0:
192,0,115583,1,0,0:0:0:0:
192,0,115670,1,0,0:0:0:0:
320,0,115758,1,0,0:0:0:0:
448,0,115758,1,0,0:0:0:0:
64,0,115801,1,0,0:0:0:0:
192,0,115845,1,0,0:0:0:0:
320,0,115889,1,0,0:0:0:0:
448,0,115933,1,0,0:0:0:0:
192,0,116108,1,0,0:0:0:0:
320,0,116108,1,0,0:0:0:0:
448,0,116151,1,0,0:0:0:0:
64,0,116195,1,0,0:0:0:0:
192,0,116239,1,0,0:0:0:0:
320,0,116282,1,0,0:0:0:0:
448,0,116326,1,0,0:0:0:0:
192,0,116370,1,0,0:0:0:0:
320,0,116414,1,0,0:0:0:0:
64,0,116457,1,0,0:0:0:0:
448,0,116501,1,0,0:0:0:0:
320,0,116545,1,0,0:0:0:0:
192,0,116589,1,0,0:0:0:0:
64,0,116632,1,0,0:0:0:0:
448,0,116632,1,0,0:0:0:0:
64,0,116807,1,0,0:0:0:0:
192,0,116807,1,0,0:0:0:0:
320,0,116807,1,0,0:0:0:0:
448,0,116807,1,0,0:0:0:0:
192,0,116982,1,0,0:0:0:0:
320,0,116982,1,0,0:0:0:0:
448,0,116982,1,0,0:0:0:0:
320,0,117156,1,0,0:0:0:0:
448,0,117156,1,0,0:0:0:0:
192,0,117200,1,0,0:0:0:0:
64,0,117244,1,0,0:0:0:0:
448,0,117288,1,0,0:0:0:0:
192,0,117331,1,0,0:0:0:0:
320,0,117331,1,0,0:0:0:0:
64,0,117506,1,0,0:0:0:0:
448,0,117506,1,0,0:0:0:0:
192,0,117572,1,0,0:0:0:0:
64,0,117615,1,0,0:0:0:0:
192,0,117681,1,0,0:0:0:0:
320,0,117725,1,0,0:0:0:0:
448,0,117769,1,0,0:0:0:0:
64,0,117812,1,0,0:0:0:0:
192,0,117856,1,0,0:0:0:0:
448,0,117900,1,0,0:0:0:0:
320,0,117943,1,0,0:0:0:0:
192,0,117987,1,0,0:0:0:0:
64,0,118030,1,0,0:0:0:0:
192,0,118205,1,0,0:0:0:0:
320,0,118205,1,0,0:0:0:0:
64,0,118380,1,0,0:0:0:0:
192,0,118380,1,0,0:0:0:0:
192,0,118468,1,0,0:0:0:0:
320,0,118468,1,0,0:0:0:0:
320,0,118555,1,0,0:0:0:0:
448,0,118555,1,0,0:0:0:0:
64,0,118599,1,0,0:0:0:0:
192,0,118643,1,0,0:0:0:0:
320,0,118686,1,0,0:0:0:0:
448,0,118730,1,0,0:0:0:0:
448,0,118817,1,0,0:0:0:0:
64,0,118905,1,0,0:0:0:0:
192,0,118905,1,0,0:0:0:0:
448,0,118949,1,0,0:0:0:0:
320,0,118992,1,0,0:0:0:0:
192,0,119036,1,0,0:0:0:0:
64,0,119080,1,0,0:0:0:0:
320,0,119167,1,0,0:0:0:0:
448,0,119167,1,0,0:0:0:0:
192,0,119255,1,0,0:0:0:0:
64,0,119298,1,0,0:0:0:0:
320,0,119342,1,0,0:0:0:0:
192,0,119430,1,0,0:0:0:0:
448,0,119473,1,0,0:0:0:0:
64,0,119517,1,0,0:0:0:0:
192,0,119604,1,0,0:0:0:0:
320,0,119604,1,0,0:0:0:0:
448,0,119648,1,0,0:0:0:0:
64,0,119691,1,0,0:0:0:0:
192,0,119779,1,0,0:0:0:0:
320,0,119823,1,0,0:0:0:0:
448,0,119866,1,0,0:0:0:0:
64,0,119954,1,0,0:0:0:0:
192,0,119998,1,0,0:0:0:0:
320,0,120041,1,0,0:0:0:0:
448,0,120085,1,0,0:0:0:0:
64,0,120129,1,0,0:0:0:0:
192,0,120172,1,0,0:0:0:0:
320,0,120216,1,0,0:0:0:0:
448,0,120260,1,0,0:0:0:0:
64,0,120304,1,0,0:0:0:0:
192,0,120304,1,0,0:0:0:0:
320,0,120369,1,0,0:0:0:0:
448,0,120369,1,0,0:0:0:0:
64,0,120413,1,0,0:0:0:0:
192,0,120413,1,0,0:0:0:0:
320,0,120478,1,0,0:0:0:0:
448,0,120478,1,0,0:0:0:0:
64,0,120544,1,0,0:0:0:0:
192,0,120544,1,0,0:0:0:0:
320,0,120588,1,0,0:0:0:0:
448,0,120588,1,0,0:0:0:0:
64,0,120653,1,0,0:0:0:0:
192,0,120653,1,0,0:0:0:0:
320,0,120719,1,0,0:0:0:0:
448,0,120719,1,0,0:0:0:0:
64,0,120762,1,0,0:0:0:0:
192,0,120762,1,0,0:0:0:0:
320,0,120828,1,0,0:0:0:0:
448,0,120828,1,0,0:0:0:0:
64,0,120894,1,0,0:0:0:0:
192,0,120894,1,0,0:0:0:0:
320,0,120937,1,0,0:0:0:0:
448,0,120937,1,0,0:0:0:0:
64,0,121003,1,0,0:0:0:0:
192,0,121003,1,0,0:0:0:0:
64,0,121178,1,0,0:0:0:0:
192,0,121178,1,0,0:0:0:0:
192,0,121265,1,0,0:0:0:0:
320,0,121265,1,0,0:0:0:0:
320,0,121352,1,0,0:0:0:0:
448,0,121352,1,0,0:0:0:0:
64,0,121418,1,0,0:0:0:0:
192,0,121418,1,0,0:0:0:0:
320,0,121462,1,0,0:0:0:0:
448,0,121462,1,0,0:0:0:0:
64,0,121527,1,0,0:0:0:0:
192,0,121527,1,0,0:0:0:0:
320,0,121593,1,0,0:0:0:0:
448,0,121593,1,0,0:0:0:0:
64,0,121702,1,0,0:0:0:0:
192,0,121702,1,0,0:0:0:0:
320,0,121768,1,0,0:0:0:0:
448,0,121768,1,0,0:0:0:0:
64,0,121811,1,0,0:0:0:0:
192,0,121811,1,0,0:0:0:0:
320,0,121877,1,0,0:0:0:0:
448,0,121877,1,0,0:0:0:0:
64,0,121943,1,0,0:0:0:0:
192,0,121943,1,0,0:0:0:0:
320,0,122052,1,0,0:0:0:0:
448,0,122052,1,0,0:0:0:0:
64,0,122117,1,0,0:0:0:0:
192,0,122117,1,0,0:0:0:0:
320,0,122161,1,0,0:0:0:0:
448,0,122161,1,0,0:0:0:0:
64,0,122226,1,0,0:0:0:0:
192,0,122226,1,0,0:0:0:0:
320,0,122292,1,0,0:0:0:0:
448,0,122292,1,0,0:0:0:0:
64,0,122401,1,0,0:0:0:0:
192,0,122401,1,0,0:0:0:0:
192,0,122576,1,0,0:0:0:0:
64,0,122664,1,0,0:0:0:0:
448,0,122664,1,0,0:0:0:0:
320,0,122751,1,0,0:0:0:0:
320,0,122926,1,0,0:0:0:0:
448,0,122926,1,0,0:0:0:0:
192,0,122970,1,0,0:0:0:0:
64,0,123014,1,0,0:0:0:0:
320,0,123057,1,0,0:0:0:0:
64,0,123100,1,0,0:0:0:0:
192,0,123100,1,0,0:0:0:0:
448,0,123100,1,0,0:0:0:0:
320,0,123166,1,0,0:0:0:0:
192,0,123210,1,0,0:0:0:0:
64,0,123275,1,0,0:0:0:0:
320,0,123363,1,0,0:0:0:0:
448,0,123363,1,0,0:0:0:0:
192,0,123450,1,0,0:0:0:0:
320,0,123450,1,0,0:0:0:0:
64,0,123538,1,0,0:0:0:0:
448,0,123538,1,0,0:0:0:0:
192,0,123625,1,0,0:0:0:0:
320,0,123625,1,0,0:0:0:0:
320,0,123800,1,0,0:0:0:0:
448,0,123800,1,0,0:0:0:0:
64,0,123975,1,0,0:0:0:0:
192,0,123975,1,0,0:0:0:0:
192,0,124062,1,0,0:0:0:0:
320,0,124062,1,0,0:0:0:0:
320,0,124150,1,0,0:0:0:0:
448,0,124150,1,0,0:0:0:0:
64,0,124237,1,0,0:0:0:0:
448,0,124237,1,0,0:0:0:0:
64,0,124325,1,0,0:0:0:0:
192,0,124325,1,0,0:0:0:0:
320,0,124500,1,0,0:0:0:0:
448,0,124500,1,0,0:0:0:0:
192,0,124543,1,0,0:0:0:0:
64,0,124587,1,0,0:0:0:0:
448,0,124630,1,0,0:0:0:0:
192,0,124675,1,0,0:0:0:0:
320,0,124675,1,0,0:0:0:0:
64,0,124761,1,0,0:0:0:0:
448,0,124761,1,0,0:0:0:0:
192,0,124849,1,0,0:0:0:0:
320,0,124849,1,0,0:0:0:0:
64,0,125024,1,0,0:0:0:0:
192,0,125024,1,0,0:0:0:0:
320,0,125024,1,0,0:0:0:0:
192,0,125199,1,0,0:0:0:0:
320,0,125199,1,0,0:0:0:0:
448,0,125199,1,0,0:0:0:0:
64,0,125374,1,0,0:0:0:0:
192,0,125374,1,0,0:0:0:0:
320,0,125374,1,0,0:0:0:0:
320,0,125549,1,0,0:0:0:0:
448,0,125549,1,0,0:0:0:0:
320,0,125635,1,0,0:0:0:0:
448,0,125635,1,0,0:0:0:0:
320,0,125723,1,0,0:0:0:0:
448,0,125723,1,0,0:0:0:0:
64,0,125898,1,0,0:0:0:0:
448,0,125898,1,0,0:0:0:0:
320,0,125942,1,0,0:0:0:0:
192,0,125985,1,0,0:0:0:0:
64,0,126029,1,0,0:0:0:0:
448,0,126073,1,0,0:0:0:0:
320,0,126116,1,0,0:0:0:0:
64,0,126160,1,0,0:0:0:0:
192,0,126160,1,0,0:0:0:0:
192,0,126248,1,0,0:0:0:0:
320,0,126248,1,0,0:0:0:0:
64,0,126335,1,0,0:0:0:0:
448,0,126335,1,0,0:0:0:0:
192,0,126423,1,0,0:0:0:0:
320,0,126423,1,0,0:0:0:0:
64,0,126597,1,0,0:0:0:0:
320,0,126597,1,0,0:0:0:0:
448,0,126597,1,0,0:0:0:0:
64,0,126772,1,0,0:0:0:0:
192,0,126772,1,0,0:0:0:0:
192,0,126860,1,0,0:0:0:0:
320,0,126860,1,0,0:0:0:0:
64,0,126947,1,0,0:0:0:0:
448,0,126947,1,0,0:0:0:0:
320,0,127035,1,0,0:0:0:0:
448,0,127035,1,0,0:0:0:0:
192,0,127122,1,0,0:0:0:0:
320,0,127122,1,0,0:0:0:0:
64,0,127297,1,0,0:0:0:0:
192,0,127297,1,0,0:0:0:0:
320,0,127340,1,0,0:0:0:0:
448,0,127384,1,0,0:0:0:0:
64,0,127428,1,0,0:0:0:0:
192,0,127471,1,0,0:0:0:0:
320,0,127471,1,0,0:0:0:0:
64,0,127559,1,0,0:0:0:0:
448,0,127559,1,0,0:0:0:0:
192,0,127646,1,0,0:0:0:0:
320,0,127646,1,0,0:0:0:0:
64,0,127734,1,0,0:0:0:0:
192,0,127734,1,0,0:0:0:0:
320,0,127821,1,0,0:0:0:0:
448,0,127821,1,0,0:0:0:0:
64,0,127996,1,0,0:0:0:0:
192,0,127996,1,0,0:0:0:0:
64,0,128084,1,0,0:0:0:0:
192,0,128084,1,0,0:0:0:0:
320,0,128171,1,0,0:0:0:0:
448,0,128171,1,0,0:0:0:0:
320,0,128258,1,0,0:0:0:0:
448,0,128258,1,0,0:0:0:0:
64,0,128345,1,0,0:0:0:0:
192,0,128345,1,0,0:0:0:0:
192,0,128433,1,0,0:0:0:0:
320,0,128433,1,0,0:0:0:0:
320,0,128520,1,0,0:0:0:0:
448,0,128520,1,0,0:0:0:0:
192,0,128586,1,0,0:0:0:0:
320,0,128630,1,0,0:0:0:0:
64,0,128695,1,0,0:0:0:0:
64,0,128805,1,0,0:0:0:0:
64,0,128935,1,0,0:0:0:0:
320,0,128958,1,0,0:0:0:0:
448,0,128958,1,0,0:0:0:0:
64,0,129045,1,0,0:0:0:0:
192,0,129045,1,0,0:0:0:0:
320,0,129132,1,0,0:0:0:0:
64,0,129155,1,0,0:0:0:0:
448,0,129220,1,0,0:0:0:0:
64,0,129285,1,0,0:0:0:0:
320,0,129307,1,0,0:0:0:0:
64,0,129395,1,0,0:0:0:0:
448,0,129395,1,0,0:0:0:0:
192,0,129482,1,0,0:0:0:0:
64,0,129504,1,0,0:0:0:0:
320,0,129570,1,0,0:0:0:0:
64,0,129635,1,0,0:0:0:0:
448,0,129657,1,0,0:0:0:0:
64,0,129745,1,0,0:0:0:0:
448,0,129810,1,0,0:0:0:0:
64,0,129854,1,0,0:0:0:0:
448,0,129919,1,0,0:0:0:0:
64,0,129985,1,0,0:0:0:0:
448,0,130094,1,0,0:0:0:0:
320,0,130138,1,0,0:0:0:0:
192,0,130181,1,0,0:0:0:0:
64,0,130225,1,0,0:0:0:0:
320,0,130269,1,0,0:0:0:0:
448,0,130335,1,0,0:0:0:0:
64,0,130444,1,0,0:0:0:0:
192,0,130487,1,0,0:0:0:0:
320,0,130531,1,0,0:0:0:0:
448,0,130553,1,0,0:0:0:0:
64,0,130619,1,0,0:0:0:0:
448,0,130684,1,0,0:0:0:0:
192,0,130706,1,0,0:0:0:0:
320,0,130706,1,0,0:0:0:0:
64,0,130793,1,0,0:0:0:0:
448,0,130793,1,0,0:0:0:0:
64,0,130880,1,0,0:0:0:0:
320,0,130968,1,0,0:0:0:0:
448,0,130968,1,0,0:0:0:0:
448,0,131055,1,0,0:0:0:0:
64,0,131143,1,0,0:0:0:0:
192,0,131143,1,0,0:0:0:0:
320,0,131186,1,0,0:0:0:0:
448,0,131230,1,0,0:0:0:0:
64,0,131274,1,0,0:0:0:0:
192,0,131318,1,0,0:0:0:0:
320,0,131361,1,0,0:0:0:0:
448,0,131405,1,0,0:0:0:0:
64,0,131493,1,0,0:0:0:0:
192,0,131493,1,0,0:0:0:0:
320,0,131536,1,0,0:0:0:0:
448,0,131580,1,0,0:0:0:0:
192,0,131624,1,0,0:0:0:0:
320,0,131667,1,0,0:0:0:0:
64,0,131711,1,0,0:0:0:0:
192,0,131755,1,0,0:0:0:0:
448,0,131799,1,0,0:0:0:0:
320,0,131842,1,0,0:0:0:0:
192,0,131886,1,0,0:0:0:0:
64,0,131930,1,0,0:0:0:0:
448,0,131974,1,0,0:0:0:0:
192,0,132017,1,0,0:0:0:0:
320,0,132060,1,0,0:0:0:0:
64,0,132105,1,0,0:0:0:0:
192,0,132148,1,0,0:0:0:0:
320,0,132192,1,0,0:0:0:0:
448,0,132235,1,0,0:0:0:0:
192,0,132280,1,0,0:0:0:0:
64,0,132323,1,0,0:0:0:0:
448,0,132367,1,0,0:0:0:0:
320,0,132410,1,0,0:0:0:0:
192,0,132455,1,0,0:0:0:0:
64,0,132498,1,0,0:0:0:0:
448,0,132541,1,0,0:0:0:0:
320,0,132585,1,0,0:0:0:0:
192,0,132629,1,0,0:0:0:0:
64,0,132673,1,0,0:0:0:0:
448,0,132716,1,0,0:0:0:0:
320,0,132760,1,0,0:0:0:0:
192,0,132804,1,0,0:0:0:0:
64,0,132848,1,0,0:0:0:0:
320,0,132891,1,0,0:0:0:0:
192,0,132935,1,0,0:0:0:0:
320,0,132979,1,0,0:0:0:0:
192,0,133066,1,0,0:0:0:0:
320,0,133154,1,0,0:0:0:0:
64,0,133241,1,0,0:0:0:0:
448,0,133285,1,0,0:0:0:0:
64,0,133328,1,0,0:0:0:0:
320,0,133415,1,0,0:0:0:0:
192,0,133503,1,0,0:0:0:0:
64,0,133590,1,0,0:0:0:0:
64,0,133700,1,0,0:0:0:0:
64,0,133831,1,0,0:0:0:0:
64,0,133940,1,0,0:0:0:0:
192,0,133940,1,0,0:0:0:0:
320,0,133940,1,0,0:0:0:0:
448,0,133940,1,0,0:0:0:0:
192,0,134115,1,0,0:0:0:0:
192,0,134202,1,0,0:0:0:0:
320,0,134202,1,0,0:0:0:0:
448,0,134202,1,0,0:0:0:0:
64,0,134290,1,0,0:0:0:0:
192,0,134334,1,0,0:0:0:0:
320,0,134377,1,0,0:0:0:0:
448,0,134421,1,0,0:0:0:0:
64,0,134465,1,0,0:0:0:0:
320,0,134552,1,0,0:0:0:0:
448,0,134552,1,0,0:0:0:0:
64,0,134596,1,0,0:0:0:0:
192,0,134640,1,0,0:0:0:0:
320,0,134683,1,0,0:0:0:0:
448,0,134727,1,0,0:0:0:0:
64,0,134815,1,0,0:0:0:0:
320,0,134815,1,0,0:0:0:0:
448,0,134858,1,0,0:0:0:0:
192,0,134902,1,0,0:0:0:0:
64,0,134990,1,0,0:0:0:0:
320,0,134990,1,0,0:0:0:0:
448,0,134990,1,0,0:0:0:0:
192,0,135033,1,0,0:0:0:0:
320,0,135076,1,0,0:0:0:0:
448,0,135120,1,0,0:0:0:0:
64,0,135164,1,0,0:0:0:0:
320,0,135251,1,0,0:0:0:0:
448,0,135251,1,0,0:0:0:0:
64,0,135295,1,0,0:0:0:0:
192,0,135339,1,0,0:0:0:0:
320,0,135383,1,0,0:0:0:0:
448,0,135426,1,0,0:0:0:0:
64,0,135514,1,0,0:0:0:0:
192,0,135514,1,0,0:0:0:0:
448,0,135557,1,0,0:0:0:0:
320,0,135601,1,0,0:0:0:0:
64,0,135645,1,0,0:0:0:0:
192,0,135689,1,0,0:0:0:0:
448,0,135732,1,0,0:0:0:0:
320,0,135776,1,0,0:0:0:0:
192,0,135820,1,0,0:0:0:0:
64,0,135864,1,0,0:0:0:0:
320,0,135950,1,0,0:0:0:0:
448,0,135950,1,0,0:0:0:0:
64,0,136038,1,0,0:0:0:0:
448,0,136038,1,0,0:0:0:0:
192,0,136082,1,0,0:0:0:0:
320,0,136125,1,0,0:0:0:0:
64,0,136213,1,0,0:0:0:0:
448,0,136213,1,0,0:0:0:0:
192,0,136257,1,0,0:0:0:0:
320,0,136300,1,0,0:0:0:0:
64,0,136388,1,0,0:0:0:0:
192,0,136388,1,0,0:0:0:0:
448,0,136388,1,0,0:0:0:0:
320,0,136431,1,0,0:0:0:0:
192,0,136475,1,0,0:0:0:0:
64,0,136519,1,0,0:0:0:0:
448,0,136563,1,0,0:0:0:0:
320,0,136606,1,0,0:0:0:0:
64,0,136650,1,0,0:0:0:0:
192,0,136650,1,0,0:0:0:0:
448,0,136738,1,0,0:0:0:0:
320,0,136825,1,0,0:0:0:0:
64,0,136912,1,0,0:0:0:0:
192,0,136912,1,0,0:0:0:0:
192,0,137000,1,0,0:0:0:0:
64,0,137087,1,0,0:0:0:0:
448,0,137087,1,0,0:0:0:0:
192,0,137131,1,0,0:0:0:0:
320,0,137175,1,0,0:0:0:0:
448,0,137262,1,0,0:0:0:0:
192,0,137305,1,0,0:0:0:0:
320,0,137350,1,0,0:0:0:0:
448,0,137437,1,0,0:0:0:0:
192,0,137480,1,0,0:0:0:0:
320,0,137525,1,0,0:0:0:0:
448,0,137611,1,0,0:0:0:0:
192,0,137655,1,0,0:0:0:0:
320,0,137699,1,0,0:0:0:0:
64,0,137786,1,0,0:0:0:0:
192,0,137786,1,0,0:0:0:0:
448,0,137786,1,0,0:0:0:0:
64,0,137961,1,0,0:0:0:0:
192,0,137961,1,0,0:0:0:0:
320,0,138049,1,0,0:0:0:0:
448,0,138049,1,0,0:0:0:0:
64,0,138136,1,0,0:0:0:0:
192,0,138136,1,0,0:0:0:0:
448,0,138180,1,0,0:0:0:0:
320,0,138224,1,0,0:0:0:0:
192,0,138267,1,0,0:0:0:0:
64,0,138311,1,0,0:0:0:0:
448,0,138355,1,0,0:0:0:0:
320,0,138399,1,0,0:0:0:0:
192,0,138442,1,0,0:0:0:0:
64,0,138485,1,0,0:0:0:0:
448,0,138485,1,0,0:0:0:0:
192,0,138573,1,0,0:0:0:0:
320,0,138573,1,0,0:0:0:0:
64,0,138726,1,0,0:0:0:0:
192,0,138748,1,0,0:0:0:0:
320,0,138770,1,0,0:0:0:0:
448,0,138814,1,0,0:0:0:0:
64,0,138835,1,0,0:0:0:0:
192,0,138857,1,0,0:0:0:0:
320,0,138901,1,0,0:0:0:0:
448,0,138923,1,0,0:0:0:0:
64,0,138945,1,0,0:0:0:0:
192,0,138989,1,0,0:0:0:0:
320,0,139010,1,0,0:0:0:0:
448,0,139032,1,0,0:0:0:0:
64,0,139076,1,0,0:0:0:0:
192,0,139098,1,0,0:0:0:0:
320,0,139120,1,0,0:0:0:0:
448,0,139163,1,0,0:0:0:0:
64,0,139185,1,0,0:0:0:0:
192,0,139185,1,0,0:0:0:0:
64,0,139360,1,0,0:0:0:0:
448,0,139360,1,0,0:0:0:0:
192,0,139447,1,0,0:0:0:0:
320,0,139447,1,0,0:0:0:0:
448,0,139447,1,0,0:0:0:0:
64,0,139535,1,0,0:0:0:0:
192,0,139535,1,0,0:0:0:0:
320,0,139535,1,0,0:0:0:0:
192,0,139710,1,0,0:0:0:0:
320,0,139710,1,0,0:0:0:0:
448,0,139710,1,0,0:0:0:0:
64,0,139885,1,0,0:0:0:0:
192,0,139885,1,0,0:0:0:0:
448,0,139885,1,0,0:0:0:0:
320,0,139928,1,0,0:0:0:0:
448,0,139972,1,0,0:0:0:0:
64,0,140015,1,0,0:0:0:0:
192,0,140060,1,0,0:0:0:0:
320,0,140103,1,0,0:0:0:0:
64,0,140147,1,0,0:0:0:0:
448,0,140147,1,0,0:0:0:0:
192,0,140234,1,0,0:0:0:0:
320,0,140234,1,0,0:0:0:0:
448,0,140409,128,0,140584:0:0:0:0:
64,0,140584,1,0,0:0:0:0:
192,0,140584,1,0,0:0:0:0:
320,0,140584,128,0,140759:0:0:0:0:
192,0,140759,128,0,140934:0:0:0:0:
320,0,140846,1,0,0:0:0:0:
448,0,140846,1,0,0:0:0:0:
64,0,140934,128,0,141108:0:0:0:0:
192,0,141108,1,0,0:0:0:0:
320,0,141108,128,0,141283:0:0:0:0:
64,0,141283,1,0,0:0:0:0:
192,0,141283,1,0,0:0:0:0:
320,0,141327,1,0,0:0:0:0:
448,0,141370,1,0,0:0:0:0:
64,0,141415,1,0,0:0:0:0:
192,0,141458,1,0,0:0:0:0:
320,0,141501,1,0,0:0:0:0:
448,0,141545,1,0,0:0:0:0:
64,0,141633,128,0,141982:0:0:0:0:
192,0,141633,1,0,0:0:0:0:
320,0,141633,1,0,0:0:0:0:
320,0,141720,1,0,0:0:0:0:
192,0,141808,1,0,0:0:0:0:
320,0,141895,1,0,0:0:0:0:
192,0,141982,1,0,0:0:0:0:
320,0,141982,1,0,0:0:0:0:
448,0,141982,1,0,0:0:0:0:
64,0,142070,1,0,0:0:0:0:
192,0,142070,1,0,0:0:0:0:
320,0,142157,1,0,0:0:0:0:
448,0,142157,1,0,0:0:0:0:
192,0,142245,1,0,0:0:0:0:
320,0,142245,1,0,0:0:0:0:
64,0,142332,1,0,0:0:0:0:
192,0,142332,1,0,0:0:0:0:
64,0,142420,1,0,0:0:0:0:
448,0,142420,1,0,0:0:0:0:
320,0,142507,1,0,0:0:0:0:
448,0,142507,1,0,0:0:0:0:
64,0,142595,1,0,0:0:0:0:
192,0,142595,1,0,0:0:0:0:
320,0,142682,1,0,0:0:0:0:
448,0,142682,1,0,0:0:0:0:
64,0,142725,1,0,0:0:0:0:
192,0,142769,1,0,0:0:0:0:
320,0,142813,1,0,0:0:0:0:
448,0,142856,1,0,0:0:0:0:
64,0,143031,1,0,0:0:0:0:
320,0,143031,1,0,0:0:0:0:
448,0,143031,1,0,0:0:0:0:
192,0,143140,1,0,0:0:0:0:
320,0,143140,1,0,0:0:0:0:
448,0,143140,1,0,0:0:0:0:
64,0,143272,1,0,0:0:0:0:
192,0,143272,1,0,0:0:0:0:
320,0,143272,1,0,0:0:0:0:
64,0,143381,1,0,0:0:0:0:
192,0,143381,1,0,0:0:0:0:
448,0,143381,1,0,0:0:0:0:
320,0,143425,1,0,0:0:0:0:
448,0,143469,1,0,0:0:0:0:
64,0,143512,1,0,0:0:0:0:
192,0,143556,1,0,0:0:0:0:
320,0,143643,1,0,0:0:0:0:
448,0,143643,1,0,0:0:0:0:
192,0,143687,1,0,0:0:0:0:
64,0,143730,1,0,0:0:0:0:
448,0,143775,1,0,0:0:0:0:
192,0,143818,1,0,0:0:0:0:
64,0,143905,1,0,0:0:0:0:
448,0,143905,1,0,0:0:0:0:
320,0,143950,1,0,0:0:0:0:
192,0,143993,1,0,0:0:0:0:
320,0,144080,1,0,0:0:0:0:
448,0,144080,1,0,0:0:0:0:
64,0,144124,1,0,0:0:0:0:
192,0,144168,1,0,0:0:0:0:
320,0,144211,1,0,0:0:0:0:
448,0,144255,1,0,0:0:0:0:
64,0,144299,1,0,0:0:0:0:
192,0,144343,1,0,0:0:0:0:
320,0,144386,1,0,0:0:0:0:
448,0,144430,1,0,0:0:0:0:
64,0,144474,1,0,0:0:0:0:
192,0,144517,1,0,0:0:0:0:
320,0,144605,1,0,0:0:0:0:
448,0,144692,1,0,0:0:0:0:
64,0,144780,1,0,0:0:0:0:
192,0,144780,1,0,0:0:0:0:
320,0,144780,1,0,0:0:0:0:
64,0,144955,1,0,0:0:0:0:
192,0,144955,1,0,0:0:0:0:
448,0,144955,1,0,0:0:0:0:
64,0,145042,1,0,0:0:0:0:
192,0,145042,1,0,0:0:0:0:
448,0,145042,1,0,0:0:0:0:
64,0,145130,1,0,0:0:0:0:
192,0,145130,1,0,0:0:0:0:
320,0,145173,1,0,0:0:0:0:
448,0,145217,1,0,0:0:0:0:
64,0,145260,1,0,0:0:0:0:
192,0,145305,1,0,0:0:0:0:
320,0,145305,1,0,0:0:0:0:
64,0,145391,1,0,0:0:0:0:
448,0,145391,1,0,0:0:0:0:
320,0,145479,1,0,0:0:0:0:
448,0,145479,1,0,0:0:0:0:
64,0,145545,1,0,0:0:0:0:
192,0,145545,1,0,0:0:0:0:
320,0,145588,1,0,0:0:0:0:
448,0,145588,1,0,0:0:0:0:
64,0,145654,1,0,0:0:0:0:
192,0,145654,1,0,0:0:0:0:
320,0,145720,1,0,0:0:0:0:
448,0,145720,1,0,0:0:0:0:
64,0,145763,1,0,0:0:0:0:
192,0,145763,1,0,0:0:0:0:
320,0,145829,1,0,0:0:0:0:
448,0,145829,1,0,0:0:0:0:
192,0,146004,1,0,0:0:0:0:
320,0,146004,1,0,0:0:0:0:
64,0,146091,1,0,0:0:0:0:
192,0,146178,1,0,0:0:0:0:
320,0,146178,1,0,0:0:0:0:
448,0,146178,1,0,0:0:0:0:
64,0,146353,1,0,0:0:0:0:
192,0,146353,1,0,0:0:0:0:
448,0,146353,1,0,0:0:0:0:
320,0,146440,1,0,0:0:0:0:
448,0,146440,1,0,0:0:0:0:
64,0,146528,1,0,0:0:0:0:
192,0,146528,1,0,0:0:0:0:
320,0,146528,1,0,0:0:0:0:
192,0,146703,1,0,0:0:0:0:
320,0,146703,1,0,0:0:0:0:
448,0,146703,1,0,0:0:0:0:
64,0,146878,1,0,0:0:0:0:
320,0,146878,1,0,0:0:0:0:
448,0,146878,1,0,0:0:0:0:
192,0,146921,1,0,0:0:0:0:
320,0,146965,1,0,0:0:0:0:
448,0,147009,1,0,0:0:0:0:
64,0,147052,1,0,0:0:0:0:
192,0,147096,1,0,0:0:0:0:
320,0,147140,1,0,0:0:0:0:
192,0,147184,1,0,0:0:0:0:
320,0,147227,1,0,0:0:0:0:
448,0,147227,1,0,0:0:0:0:
192,0,147402,1,0,0:0:0:0:
64,0,147577,1,0,0:0:0:0:
192,0,147577,1,0,0:0:0:0:
448,0,147577,1,0,0:0:0:0:
192,0,147752,1,0,0:0:0:0:
320,0,147752,1,0,0:0:0:0:
448,0,147752,1,0,0:0:0:0:
64,0,147840,1,0,0:0:0:0:
448,0,147840,1,0,0:0:0:0:
64,0,147926,1,0,0:0:0:0:
192,0,147926,1,0,0:0:0:0:
320,0,147926,1,0,0:0:0:0:
192,0,148101,1,0,0:0:0:0:
320,0,148101,1,0,0:0:0:0:
448,0,148101,1,0,0:0:0:0:
64,0,148276,128,0,148626:0:0:0:0:
320,0,148276,1,0,0:0:0:0:
448,0,148276,1,0,0:0:0:0:
192,0,148385,1,0,0:0:0:0:
320,0,148517,1,0,0:0:0:0:
192,0,148626,1,0,0:0:0:0:
448,0,148626,1,0,0:0:0:0:
192,0,148800,1,0,0:0:0:0:
320,0,148800,1,0,0:0:0:0:
64,0,148975,1,0,0:0:0:0:
320,0,148975,1,0,0:0:0:0:
448,0,148975,1,0,0:0:0:0:
64,0,149150,1,0,0:0:0:0:
192,0,149150,1,0,0:0:0:0:
320,0,149150,1,0,0:0:0:0:
64,0,149238,1,0,0:0:0:0:
448,0,149238,1,0,0:0:0:0:
192,0,149325,1,0,0:0:0:0:
320,0,149325,1,0,0:0:0:0:
448,0,149325,1,0,0:0:0:0:
64,0,149500,1,0,0:0:0:0:
320,0,149500,1,0,0:0:0:0:
448,0,149500,1,0,0:0:0:0:
64,0,149675,1,0,0:0:0:0:
192,0,149675,1,0,0:0:0:0:
320,0,149675,1,0,0:0:0:0:
448,0,149719,1,0,0:0:0:0:
64,0,149762,1,0,0:0:0:0:
192,0,149806,1,0,0:0:0:0:
320,0,149850,1,0,0:0:0:0:
448,0,149894,1,0,0:0:0:0:
192,0,149937,1,0,0:0:0:0:
320,0,149981,1,0,0:0:0:0:
64,0,150025,1,0,0:0:0:0:
448,0,150025,1,0,0:0:0:0:
192,0,150090,1,0,0:0:0:0:
320,0,150134,1,0,0:0:0:0:
64,0,150200,1,0,0:0:0:0:
448,0,150200,1,0,0:0:0:0:
320,0,150265,1,0,0:0:0:0:
192,0,150309,1,0,0:0:0:0:
64,0,150375,1,0,0:0:0:0:
320,0,150375,1,0,0:0:0:0:
448,0,150375,1,0,0:0:0:0:
448,0,150461,1,0,0:0:0:0:
64,0,150549,1,0,0:0:0:0:
192,0,150549,1,0,0:0:0:0:
320,0,150549,1,0,0:0:0:0:
64,0,150636,1,0,0:0:0:0:
448,0,150636,1,0,0:0:0:0:
192,0,150724,1,0,0:0:0:0:
320,0,150724,1,0,0:0:0:0:
448,0,150724,1,0,0:0:0:0:
192,0,150811,1,0,0:0:0:0:
64,0,150899,1,0,0:0:0:0:
320,0,150899,1,0,0:0:0:0:
448,0,150899,1,0,0:0:0:0:
320,0,150986,1,0,0:0:0:0:
64,0,151074,1,0,0:0:0:0:
192,0,151074,1,0,0:0:0:0:
448,0,151074,1,0,0:0:0:0:
320,0,151117,1,0,0:0:0:0:
64,0,151161,1,0,0:0:0:0:
192,0,151205,1,0,0:0:0:0:
320,0,151249,1,0,0:0:0:0:
448,0,151292,1,0,0:0:0:0:
64,0,151335,1,0,0:0:0:0:
192,0,151380,1,0,0:0:0:0:
320,0,151423,1,0,0:0:0:0:
448,0,151467,1,0,0:0:0:0:
64,0,151510,1,0,0:0:0:0:
192,0,151555,1,0,0:0:0:0:
320,0,151598,1,0,0:0:0:0:
448,0,151642,1,0,0:0:0:0:
192,0,151685,1,0,0:0:0:0:
64,0,151730,1,0,0:0:0:0:
320,0,151773,1,0,0:0:0:0:
448,0,151773,1,0,0:0:0:0:
192,0,151816,1,0,0:0:0:0:
64,0,151860,1,0,0:0:0:0:
448,0,151904,1,0,0:0:0:0:
192,0,151948,1,0,0:0:0:0:
320,0,151991,1,0,0:0:0:0:
64,0,152035,1,0,0:0:0:0:
192,0,152079,1,0,0:0:0:0:
320,0,152123,1,0,0:0:0:0:
448,0,152166,1,0,0:0:0:0:
64,0,152210,1,0,0:0:0:0:
192,0,152254,1,0,0:0:0:0:
320,0,152297,1,0,0:0:0:0:
64,0,152341,1,0,0:0:0:0:
448,0,152385,1,0,0:0:0:0:
320,0,152429,1,0,0:0:0:0:
64,0,152472,1,0,0:0:0:0:
192,0,152472,1,0,0:0:0:0:
448,0,152516,1,0,0:0:0:0:
320,0,152560,1,0,0:0:0:0:
64,0,152603,1,0,0:0:0:0:
192,0,152647,1,0,0:0:0:0:
448,0,152690,1,0,0:0:0:0:
64,0,152735,1,0,0:0:0:0:
320,0,152778,1,0,0:0:0:0:
192,0,152822,1,0,0:0:0:0:
448,0,152865,1,0,0:0:0:0:
320,0,152910,1,0,0:0:0:0:
192,0,152953,1,0,0:0:0:0:
64,0,152997,1,0,0:0:0:0:
448,0,153040,1,0,0:0:0:0:
320,0,153084,1,0,0:0:0:0:
192,0,153128,1,0,0:0:0:0:
64,0,153171,1,0,0:0:0:0:
448,0,153171,1,0,0:0:0:0:
320,0,153215,1,0,0:0:0:0:
192,0,153259,1,0,0:0:0:0:
448,0,153303,1,0,0:0:0:0:
64,0,153346,1,0,0:0:0:0:
192,0,153390,1,0,0:0:0:0:
320,0,153434,1,0,0:0:0:0:
448,0,153477,1,0,0:0:0:0:
64,0,153521,1,0,0:0:0:0:
192,0,153565,1,0,0:0:0:0:
320,0,153609,1,0,0:0:0:0:
448,0,153652,1,0,0:0:0:0:
64,0,153696,1,0,0:0:0:0:
192,0,153740,1,0,0:0:0:0:
320,0,153784,1,0,0:0:0:0:
64,0,153827,1,0,0:0:0:0:
192,0,153871,1,0,0:0:0:0:
448,0,153871,1,0,0:0:0:0:
320,0,153915,1,0,0:0:0:0:
64,0,153958,1,0,0:0:0:0:
448,0,154002,1,0,0:0:0:0:
320,0,154045,1,0,0:0:0:0:
192,0,154090,1,0,0:0:0:0:
64,0,154133,1,0,0:0:0:0:
448,0,154177,1,0,0:0:0:0:
192,0,154220,1,0,0:0:0:0:
320,0,154220,1,0,0:0:0:0:
64,0,154265,1,0,0:0:0:0:
448,0,154308,1,0,0:0:0:0:
192,0,154351,1,0,0:0:0:0:
320,0,154395,1,0,0:0:0:0:
64,0,154439,1,0,0:0:0:0:
192,0,154483,1,0,0:0:0:0:
320,0,154526,1,0,0:0:0:0:
64,0,154570,1,0,0:0:0:0:
448,0,154570,1,0,0:0:0:0:
192,0,154614,1,0,0:0:0:0:
320,0,154658,1,0,0:0:0:0:
448,0,154701,1,0,0:0:0:0:
192,0,154745,1,0,0:0:0:0:
64,0,154789,1,0,0:0:0:0:
320,0,154832,1,0,0:0:0:0:
192,0,154876,1,0,0:0:0:0:
64,0,154920,1,0,0:0:0:0:
448,0,154920,1,0,0:0:0:0:
320,0,154964,1,0,0:0:0:0:
192,0,155007,1,0,0:0:0:0:
448,0,155051,1,0,0:0:0:0:
64,0,155095,1,0,0:0:0:0:
192,0,155139,1,0,0:0:0:0:
320,0,155182,1,0,0:0:0:0:
448,0,155225,1,0,0:0:0:0:
64,0,155270,1,0,0:0:0:0:
192,0,155270,1,0,0:0:0:0:
320,0,155313,1,0,0:0:0:0:
448,0,155357,1,0,0:0:0:0:
64,0,155400,1,0,0:0:0:0:
192,0,155445,1,0,0:0:0:0:
320,0,155445,1,0,0:0:0:0:
448,0,155488,1,0,0:0:0:0:
64,0,155532,1,0,0:0:0:0:
192,0,155575,1,0,0:0:0:0:
320,0,155619,1,0,0:0:0:0:
448,0,155619,1,0,0:0:0:0:
64,0,155663,1,0,0:0:0:0:
192,0,155706,1,0,0:0:0:0:
320,0,155750,1,0,0:0:0:0:
64,0,155794,1,0,0:0:0:0:
448,0,155794,1,0,0:0:0:0:
192,0,155838,1,0,0:0:0:0:
320,0,155881,1,0,0:0:0:0:
448,0,155925,1,0,0:0:0:0:
64,0,155969,1,0,0:0:0:0:
192,0,155969,1,0,0:0:0:0:
320,0,156013,1,0,0:0:0:0:
448,0,156056,1,0,0:0:0:0:
64,0,156100,1,0,0:0:0:0:
192,0,156144,1,0,0:0:0:0:
320,0,156144,1,0,0:0:0:0:
448,0,156187,1,0,0:0:0:0:
64,0,156231,1,0,0:0:0:0:
192,0,156275,1,0,0:0:0:0:
320,0,156319,1,0,0:0:0:0:
448,0,156319,1,0,0:0:0:0:
64,0,156362,1,0,0:0:0:0:
192,0,156362,1,0,0:0:0:0:
320,0,156406,1,0,0:0:0:0:
448,0,156406,1,0,0:0:0:0:
64,0,156493,1,0,0:0:0:0:
192,0,156493,1,0,0:0:0:0:
320,0,156537,1,0,0:0:0:0:
448,0,156537,1,0,0:0:0:0:
64,0,156580,1,0,0:0:0:0:
192,0,156580,1,0,0:0:0:0:
64,0,156668,1,0,0:0:0:0:
320,0,156668,1,0,0:0:0:0:
448,0,156668,1,0,0:0:0:0:
192,0,156712,1,0,0:0:0:0:
320,0,156755,1,0,0:0:0:0:
192,0,156800,1,0,0:0:0:0:
448,0,156843,1,0,0:0:0:0:
64,0,156886,1,0,0:0:0:0:
320,0,156930,1,0,0:0:0:0:
64,0,157018,1,0,0:0:0:0:
448,0,157018,1,0,0:0:0:0:
192,0,157061,1,0,0:0:0:0:
320,0,157105,1,0,0:0:0:0:
448,0,157149,1,0,0:0:0:0:
64,0,157193,1,0,0:0:0:0:
192,0,157236,1,0,0:0:0:0:
320,0,157280,1,0,0:0:0:0:
64,0,157367,1,0,0:0:0:0:
448,0,157367,1,0,0:0:0:0:
192,0,157411,1,0,0:0:0:0:
320,0,157455,1,0,0:0:0:0:
192,0,157499,1,0,0:0:0:0:
64,0,157542,1,0,0:0:0:0:
448,0,157586,1,0,0:0:0:0:
320,0,157630,1,0,0:0:0:0:
64,0,157717,1,0,0:0:0:0:
192,0,157717,1,0,0:0:0:0:
448,0,157760,1,0,0:0:0:0:
320,0,157805,1,0,0:0:0:0:
192,0,157848,1,0,0:0:0:0:
64,0,157892,1,0,0:0:0:0:
448,0,157935,1,0,0:0:0:0:
192,0,157980,1,0,0:0:0:0:
64,0,158067,1,0,0:0:0:0:
320,0,158067,1,0,0:0:0:0:
448,0,158067,1,0,0:0:0:0:
192,0,158155,1,0,0:0:0:0:
320,0,158155,1,0,0:0:0:0:
64,0,158241,1,0,0:0:0:0:
192,0,158241,1,0,0:0:0:0:
320,0,158329,1,0,0:0:0:0:
448,0,158329,1,0,0:0:0:0:
64,0,158416,1,0,0:0:0:0:
192,0,158416,1,0,0:0:0:0:
320,0,158416,1,0,0:0:0:0:
64,0,158504,1,0,0:0:0:0:
448,0,158504,1,0,0:0:0:0:
192,0,158591,1,0,0:0:0:0:
320,0,158591,1,0,0:0:0:0:
64,0,158679,1,0,0:0:0:0:
320,0,158679,1,0,0:0:0:0:
448,0,158679,1,0,0:0:0:0:
64,0,158766,1,0,0:0:0:0:
192,0,158766,1,0,0:0:0:0:
320,0,158766,1,0,0:0:0:0:
64,0,158941,1,0,0:0:0:0:
192,0,158941,1,0,0:0:0:0:
64,0,159115,1,0,0:0:0:0:
192,0,159115,1,0,0:0:0:0:
320,0,159115,1,0,0:0:0:0:
448,0,159115,1,0,0:0:0:0:
448,0,159290,1,0,0:0:0:0:
64,0,159335,1,0,0:0:0:0:
320,0,159465,1,0,0:0:0:0:
448,0,159465,1,0,0:0:0:0:
64,0,159509,1,0,0:0:0:0:
192,0,159553,1,0,0:0:0:0:
320,0,159596,1,0,0:0:0:0:
448,0,159640,1,0,0:0:0:0:
192,0,159684,1,0,0:0:0:0:
320,0,159728,1,0,0:0:0:0:
64,0,159815,1,0,0:0:0:0:
192,0,159815,1,0,0:0:0:0:
448,0,159859,1,0,0:0:0:0:
320,0,159902,1,0,0:0:0:0:
192,0,159946,1,0,0:0:0:0:
64,0,159990,1,0,0:0:0:0:
448,0,160034,1,0,0:0:0:0:
192,0,160077,1,0,0:0:0:0:
320,0,160165,1,0,0:0:0:0:
448,0,160165,1,0,0:0:0:0:
64,0,160209,1,0,0:0:0:0:
192,0,160252,1,0,0:0:0:0:
448,0,160296,1,0,0:0:0:0:
320,0,160340,1,0,0:0:0:0:
64,0,160383,1,0,0:0:0:0:
192,0,160427,1,0,0:0:0:0:
64,0,160515,1,0,0:0:0:0:
448,0,160515,1,0,0:0:0:0:
320,0,160558,1,0,0:0:0:0:
192,0,160602,1,0,0:0:0:0:
64,0,160645,1,0,0:0:0:0:
448,0,160690,1,0,0:0:0:0:
320,0,160733,1,0,0:0:0:0:
192,0,160776,1,0,0:0:0:0:
320,0,160864,1,0,0:0:0:0:
448,0,160864,1,0,0:0:0:0:
64,0,160951,1,0,0:0:0:0:
192,0,160951,1,0,0:0:0:0:
192,0,161039,1,0,0:0:0:0:
320,0,161039,1,0,0:0:0:0:
64,0,161126,1,0,0:0:0:0:
448,0,161126,1,0,0:0:0:0:
192,0,161214,1,0,0:0:0:0:
320,0,161214,1,0,0:0:0:0:
448,0,161214,1,0,0:0:0:0:
192,0,161301,1,0,0:0:0:0:
320,0,161301,1,0,0:0:0:0:
64,0,161389,1,0,0:0:0:0:
448,0,161389,1,0,0:0:0:0:
64,0,161476,1,0,0:0:0:0:
192,0,161476,1,0,0:0:0:0:
320,0,161564,1,0,0:0:0:0:
448,0,161564,1,0,0:0:0:0:
320,0,161650,1,0,0:0:0:0:
448,0,161650,1,0,0:0:0:0:
320,0,161825,1,0,0:0:0:0:
448,0,161825,1,0,0:0:0:0:
320,0,161913,1,0,0:0:0:0:
448,0,161913,1,0,0:0:0:0:
64,0,161957,1,0,0:0:0:0:
192,0,161957,1,0,0:0:0:0:
320,0,162000,1,0,0:0:0:0:
448,0,162000,1,0,0:0:0:0:
64,0,162088,1,0,0:0:0:0:
192,0,162088,1,0,0:0:0:0:
320,0,162131,1,0,0:0:0:0:
448,0,162131,1,0,0:0:0:0:
64,0,162175,1,0,0:0:0:0:
192,0,162175,1,0,0:0:0:0:
320,0,162263,1,0,0:0:0:0:
448,0,162263,1,0,0:0:0:0:
64,0,162306,1,0,0:0:0:0:
192,0,162350,1,0,0:0:0:0:
320,0,162394,1,0,0:0:0:0:
448,0,162438,1,0,0:0:0:0:
64,0,162481,1,0,0:0:0:0:
320,0,162525,1,0,0:0:0:0:
64,0,162612,1,0,0:0:0:0:
448,0,162612,1,0,0:0:0:0:
192,0,162656,1,0,0:0:0:0:
320,0,162700,1,0,0:0:0:0:
192,0,162744,1,0,0:0:0:0:
448,0,162787,1,0,0:0:0:0:
320,0,162831,1,0,0:0:0:0:
192,0,162875,1,0,0:0:0:0:
64,0,162962,1,0,0:0:0:0:
448,0,162962,1,0,0:0:0:0:
320,0,163005,1,0,0:0:0:0:
192,0,163050,1,0,0:0:0:0:
64,0,163093,1,0,0:0:0:0:
448,0,163137,1,0,0:0:0:0:
192,0,163180,1,0,0:0:0:0:
320,0,163225,1,0,0:0:0:0:
64,0,163311,1,0,0:0:0:0:
192,0,163311,1,0,0:0:0:0:
448,0,163355,1,0,0:0:0:0:
320,0,163399,1,0,0:0:0:0:
64,0,163443,1,0,0:0:0:0:
192,0,163486,1,0,0:0:0:0:
320,0,163530,1,0,0:0:0:0:
448,0,163574,1,0,0:0:0:0:
64,0,163661,1,0,0:0:0:0:
192,0,163661,1,0,0:0:0:0:
192,0,163749,1,0,0:0:0:0:
320,0,163749,1,0,0:0:0:0:
64,0,163836,1,0,0:0:0:0:
448,0,163836,1,0,0:0:0:0:
192,0,163924,1,0,0:0:0:0:
320,0,163924,1,0,0:0:0:0:
64,0,164011,1,0,0:0:0:0:
320,0,164011,1,0,0:0:0:0:
448,0,164011,1,0,0:0:0:0:
64,0,164099,1,0,0:0:0:0:
448,0,164099,1,0,0:0:0:0:
192,0,164185,1,0,0:0:0:0:
320,0,164185,1,0,0:0:0:0:
320,0,164273,1,0,0:0:0:0:
448,0,164273,1,0,0:0:0:0:
64,0,164360,1,0,0:0:0:0:
192,0,164360,1,0,0:0:0:0:
448,0,164360,1,0,0:0:0:0:
64,0,164535,1,0,0:0:0:0:
448,0,164535,1,0,0:0:0:0:
320,0,164580,1,0,0:0:0:0:
192,0,164623,1,0,0:0:0:0:
64,0,164666,1,0,0:0:0:0:
320,0,164710,1,0,0:0:0:0:
448,0,164710,1,0,0:0:0:0:
192,0,164754,1,0,0:0:0:0:
64,0,164798,1,0,0:0:0:0:
448,0,164841,1,0,0:0:0:0:
192,0,164885,1,0,0:0:0:0:
320,0,164885,1,0,0:0:0:0:
64,0,164929,1,0,0:0:0:0:
448,0,164973,1,0,0:0:0:0:
320,0,165016,1,0,0:0:0:0:
64,0,165060,1,0,0:0:0:0:
192,0,165060,1,0,0:0:0:0:
192,0,165147,1,0,0:0:0:0:
320,0,165147,1,0,0:0:0:0:
320,0,165235,1,0,0:0:0:0:
448,0,165235,1,0,0:0:0:0:
64,0,165322,1,0,0:0:0:0:
192,0,165322,1,0,0:0:0:0:
192,0,165410,1,0,0:0:0:0:
320,0,165410,1,0,0:0:0:0:
448,0,165410,1,0,0:0:0:0:
448,0,165497,1,0,0:0:0:0:
64,0,165585,1,0,0:0:0:0:
192,0,165585,1,0,0:0:0:0:
64,0,165760,1,0,0:0:0:0:
320,0,165760,1,0,0:0:0:0:
448,0,165760,1,0,0:0:0:0:
192,0,165847,1,0,0:0:0:0:
320,0,165847,1,0,0:0:0:0:
64,0,166021,1,0,0:0:0:0:
192,0,166021,1,0,0:0:0:0:
64,0,166109,1,0,0:0:0:0:
192,0,166109,1,0,0:0:0:0:
320,0,166153,1,0,0:0:0:0:
448,0,166196,1,0,0:0:0:0:
64,0,166240,1,0,0:0:0:0:
192,0,166284,1,0,0:0:0:0:
320,0,166327,1,0,0:0:0:0:
448,0,166371,1,0,0:0:0:0:
64,0,166459,1,0,0:0:0:0:
192,0,166459,1,0,0:0:0:0:
320,0,166459,1,0,0:0:0:0:
192,0,166546,1,0,0:0:0:0:
448,0,166546,1,0,0:0:0:0:
64,0,166634,1,0,0:0:0:0:
320,0,166634,1,0,0:0:0:0:
192,0,166721,1,0,0:0:0:0:
448,0,166721,1,0,0:0:0:0:
64,0,166808,1,0,0:0:0:0:
448,0,166808,1,0,0:0:0:0:
192,0,166895,1,0,0:0:0:0:
320,0,166895,1,0,0:0:0:0:
64,0,166983,1,0,0:0:0:0:
448,0,166983,1,0,0:0:0:0:
64,0,167070,1,0,0:0:0:0:
192,0,167070,1,0,0:0:0:0:
320,0,167158,1,0,0:0:0:0:
448,0,167158,1,0,0:0:0:0:
320,0,167245,1,0,0:0:0:0:
448,0,167245,1,0,0:0:0:0:
320,0,167420,1,0,0:0:0:0:
448,0,167420,1,0,0:0:0:0:
320,0,167508,1,0,0:0:0:0:
448,0,167508,1,0,0:0:0:0:
64,0,167551,1,0,0:0:0:0:
192,0,167551,1,0,0:0:0:0:
320,0,167595,1,0,0:0:0:0:
448,0,167595,1,0,0:0:0:0:
64,0,167682,1,0,0:0:0:0:
192,0,167682,1,0,0:0:0:0:
320,0,167726,1,0,0:0:0:0:
448,0,167726,1,0,0:0:0:0:
64,0,167770,1,0,0:0:0:0:
192,0,167770,1,0,0:0:0:0:
192,0,167857,1,0,0:0:0:0:
320,0,167857,1,0,0:0:0:0:
448,0,167857,1,0,0:0:0:0:
64,0,167945,1,0,0:0:0:0:
448,0,167945,1,0,0:0:0:0:
192,0,168032,1,0,0:0:0:0:
320,0,168032,1,0,0:0:0:0:
64,0,168120,1,0,0:0:0:0:
192,0,168120,1,0,0:0:0:0:
320,0,168207,1,0,0:0:0:0:
448,0,168207,1,0,0:0:0:0:
64,0,168295,1,0,0:0:0:0:
192,0,168295,1,0,0:0:0:0:
64,0,168382,1,0,0:0:0:0:
320,0,168382,1,0,0:0:0:0:
448,0,168382,1,0,0:0:0:0:
192,0,168469,1,0,0:0:0:0:
64,0,168556,1,0,0:0:0:0:
320,0,168556,1,0,0:0:0:0:
448,0,168556,1,0,0:0:0:0:
192,0,168819,1,0,0:0:0:0:
320,0,168819,1,0,0:0:0:0:
448,0,168819,1,0,0:0:0:0:
64,0,168906,1,0,0:0:0:0:
192,0,168906,1,0,0:0:0:0:
320,0,168906,1,0,0:0:0:0:
448,0,168906,1,0,0:0:0:0:
64,0,169081,1,0,0:0:0:0:
192,0,169125,1,0,0:0:0:0:
320,0,169169,1,0,0:0:0:0:
448,0,169212,1,0,0:0:0:0:
64,0,169256,1,0,0:0:0:0:
192,0,169256,1,0,0:0:0:0:
320,0,169256,1,0,0:0:0:0:
192,0,169343,1,0,0:0:0:0:
448,0,169430,1,0,0:0:0:0:
320,0,169518,1,0,0:0:0:0:
64,0,169605,1,0,0:0:0:0:
448,0,169605,1,0,0:0:0:0:
192,0,169693,1,0,0:0:0:0:
320,0,169780,1,0,0:0:0:0:
448,0,169780,1,0,0:0:0:0:
64,0,169868,1,0,0:0:0:0:
192,0,169868,1,0,0:0:0:0:
64,0,169955,1,0,0:0:0:0:
192,0,169955,1,0,0:0:0:0:
320,0,169955,1,0,0:0:0:0:
448,0,169955,1,0,0:0:0:0:
320,0,170043,1,0,0:0:0:0:
64,0,170130,1,0,0:0:0:0:
192,0,170130,1,0,0:0:0:0:
320,0,170217,1,0,0:0:0:0:
448,0,170217,1,0,0:0:0:0:
64,0,170305,1,0,0:0:0:0:
192,0,170305,1,0,0:0:0:0:
320,0,170349,1,0,0:0:0:0:
448,0,170349,1,0,0:0:0:0:
64,0,170392,1,0,0:0:0:0:
192,0,170392,1,0,0:0:0:0:
320,0,170480,1,0,0:0:0:0:
448,0,170480,1,0,0:0:0:0:
64,0,170524,1,0,0:0:0:0:
192,0,170524,1,0,0:0:0:0:
320,0,170567,1,0,0:0:0:0:
448,0,170567,1,0,0:0:0:0:
64,0,170655,1,0,0:0:0:0:
192,0,170655,1,0,0:0:0:0:
192,0,170742,1,0,0:0:0:0:
320,0,170830,1,0,0:0:0:0:
320,0,170917,1,0,0:0:0:0:
64,0,171005,1,0,0:0:0:0:
448,0,171005,1,0,0:0:0:0:
64,0,171091,1,0,0:0:0:0:
320,0,171179,1,0,0:0:0:0:
448,0,171179,1,0,0:0:0:0:
64,0,171354,1,0,0:0:0:0:
192,0,171354,1,0,0:0:0:0:
320,0,171354,1,0,0:0:0:0:
448,0,171354,1,0,0:0:0:0:
192,0,171616,1,0,0:0:0:0:
320,0,171616,1,0,0:0:0:0:
64,0,171704,1,0,0:0:0:0:
192,0,171704,1,0,0:0:0:0:
320,0,171704,1,0,0:0:0:0:
448,0,171704,1,0,0:0:0:0:
64,0,171879,1,0,0:0:0:0:
192,0,171879,1,0,0:0:0:0:
64,0,172053,1,0,0:0:0:0:
192,0,172053,1,0,0:0:0:0:
320,0,172053,1,0,0:0:0:0:
448,0,172053,1,0,0:0:0:0:
320,0,172140,1,0,0:0:0:0:
192,0,172228,1,0,0:0:0:0:
320,0,172315,1,0,0:0:0:0:
192,0,172403,1,0,0:0:0:0:
448,0,172403,1,0,0:0:0:0:
64,0,172490,1,0,0:0:0:0:
192,0,172534,1,0,0:0:0:0:
320,0,172578,1,0,0:0:0:0:
448,0,172621,1,0,0:0:0:0:
64,0,172665,1,0,0:0:0:0:
192,0,172709,1,0,0:0:0:0:
320,0,172752,1,0,0:0:0:0:
448,0,172752,1,0,0:0:0:0:
320,0,172840,1,0,0:0:0:0:
448,0,172840,1,0,0:0:0:0:
320,0,173015,1,0,0:0:0:0:
448,0,173015,1,0,0:0:0:0:
320,0,173102,1,0,0:0:0:0:
448,0,173102,1,0,0:0:0:0:
64,0,173146,1,0,0:0:0:0:
192,0,173146,1,0,0:0:0:0:
320,0,173190,1,0,0:0:0:0:
448,0,173190,1,0,0:0:0:0:
64,0,173277,1,0,0:0:0:0:
192,0,173277,1,0,0:0:0:0:
320,0,173320,1,0,0:0:0:0:
448,0,173320,1,0,0:0:0:0:
64,0,173365,1,0,0:0:0:0:
192,0,173365,1,0,0:0:0:0:
320,0,173452,1,0,0:0:0:0:
448,0,173452,1,0,0:0:0:0:
64,0,173495,1,0,0:0:0:0:
192,0,173540,1,0,0:0:0:0:
320,0,173583,1,0,0:0:0:0:
448,0,173626,1,0,0:0:0:0:
192,0,173670,1,0,0:0:0:0:
320,0,173714,1,0,0:0:0:0:
64,0,173758,1,0,0:0:0:0:
448,0,173801,1,0,0:0:0:0:
320,0,173845,1,0,0:0:0:0:
192,0,173889,1,0,0:0:0:0:
64,0,173933,1,0,0:0:0:0:
448,0,173976,1,0,0:0:0:0:
320,0,174020,1,0,0:0:0:0:
192,0,174064,1,0,0:0:0:0:
64,0,174107,1,0,0:0:0:0:
320,0,174151,1,0,0:0:0:0:
448,0,174151,1,0,0:0:0:0:
192,0,174195,1,0,0:0:0:0:
64,0,174239,1,0,0:0:0:0:
448,0,174282,1,0,0:0:0:0:
192,0,174326,1,0,0:0:0:0:
64,0,174370,1,0,0:0:0:0:
320,0,174414,1,0,0:0:0:0:
448,0,174457,1,0,0:0:0:0:
64,0,174500,1,0,0:0:0:0:
192,0,174500,1,0,0:0:0:0:
320,0,174545,1,0,0:0:0:0:
448,0,174545,1,0,0:0:0:0:
64,0,174588,1,0,0:0:0:0:
192,0,174588,1,0,0:0:0:0:
320,0,174675,1,0,0:0:0:0:
448,0,174675,1,0,0:0:0:0:
64,0,174720,1,0,0:0:0:0:
192,0,174720,1,0,0:0:0:0:
320,0,174763,1,0,0:0:0:0:
448,0,174763,1,0,0:0:0:0:
64,0,174850,1,0,0:0:0:0:
192,0,174850,1,0,0:0:0:0:
320,0,174894,1,0,0:0:0:0:
448,0,174938,1,0,0:0:0:0:
64,0,174981,1,0,0:0:0:0:
192,0,175025,1,0,0:0:0:0:
320,0,175069,1,0,0:0:0:0:
448,0,175113,1,0,0:0:0:0:
192,0,175156,1,0,0:0:0:0:
64,0,175200,1,0,0:0:0:0:
448,0,175244,1,0,0:0:0:0:
320,0,175288,1,0,0:0:0:0:
192,0,175331,1,0,0:0:0:0:
64,0,175375,1,0,0:0:0:0:
448,0,175419,1,0,0:0:0:0:
320,0,175462,1,0,0:0:0:0:
192,0,175506,1,0,0:0:0:0:
64,0,175550,1,0,0:0:0:0:
448,0,175550,1,0,0:0:0:0:
320,0,175594,1,0,0:0:0:0:
192,0,175637,1,0,0:0:0:0:
448,0,175681,1,0,0:0:0:0:
64,0,175725,1,0,0:0:0:0:
192,0,175768,1,0,0:0:0:0:
320,0,175812,1,0,0:0:0:0:
448,0,175855,1,0,0:0:0:0:
64,0,175900,1,0,0:0:0:0:
192,0,175900,1,0,0:0:0:0:
320,0,175943,1,0,0:0:0:0:
448,0,175943,1,0,0:0:0:0:
64,0,175987,1,0,0:0:0:0:
192,0,175987,1,0,0:0:0:0:
320,0,176075,1,0,0:0:0:0:
448,0,176075,1,0,0:0:0:0:
64,0,176118,1,0,0:0:0:0:
192,0,176118,1,0,0:0:0:0:
320,0,176162,1,0,0:0:0:0:
448,0,176162,1,0,0:0:0:0:
64,0,176249,1,0,0:0:0:0:
192,0,176249,1,0,0:0:0:0:
192,0,176359,1,0,0:0:0:0:
320,0,176359,1,0,0:0:0:0:
448,0,176359,1,0,0:0:0:0:
64,0,176490,1,0,0:0:0:0:
320,0,176490,1,0,0:0:0:0:
448,0,176490,1,0,0:0:0:0:
320,0,176599,1,0,0:0:0:0:
448,0,176599,1,0,0:0:0:0:
64,0,176642,1,0,0:0:0:0:
192,0,176642,1,0,0:0:0:0:
320,0,176686,1,0,0:0:0:0:
448,0,176686,1,0,0:0:0:0:
64,0,176774,1,0,0:0:0:0:
192,0,176774,1,0,0:0:0:0:
320,0,176817,1,0,0:0:0:0:
448,0,176817,1,0,0:0:0:0:
64,0,176861,1,0,0:0:0:0:
192,0,176861,1,0,0:0:0:0:
320,0,176949,1,0,0:0:0:0:
448,0,176949,1,0,0:0:0:0:
64,0,177058,1,0,0:0:0:0:
192,0,177058,1,0,0:0:0:0:
320,0,177058,1,0,0:0:0:0:
64,0,177189,1,0,0:0:0:0:
192,0,177189,1,0,0:0:0:0:
448,0,177189,1,0,0:0:0:0:
320,0,177298,1,0,0:0:0:0:
448,0,177298,1,0,0:0:0:0:
64,0,177342,1,0,0:0:0:0:
192,0,177342,1,0,0:0:0:0:
320,0,177385,1,0,0:0:0:0:
448,0,177385,1,0,0:0:0:0:
64,0,177473,1,0,0:0:0:0:
192,0,177473,1,0,0:0:0:0:
320,0,177516,1,0,0:0:0:0:
448,0,177516,1,0,0:0:0:0:
64,0,177560,1,0,0:0:0:0:
192,0,177560,1,0,0:0:0:0:
320,0,177648,1,0,0:0:0:0:
448,0,177648,1,0,0:0:0:0:
64,0,177691,1,0,0:0:0:0:
192,0,177735,1,0,0:0:0:0:
320,0,177779,1,0,0:0:0:0:
448,0,177823,1,0,0:0:0:0:
64,0,177866,1,0,0:0:0:0:
320,0,177910,1,0,0:0:0:0:
192,0,177954,1,0,0:0:0:0:
64,0,177997,1,0,0:0:0:0:
448,0,177997,1,0,0:0:0:0:
320,0,178041,1,0,0:0:0:0:
192,0,178085,1,0,0:0:0:0:
64,0,178129,1,0,0:0:0:0:
448,0,178172,1,0,0:0:0:0:
320,0,178216,1,0,0:0:0:0:
64,0,178260,1,0,0:0:0:0:
192,0,178304,1,0,0:0:0:0:
320,0,178347,1,0,0:0:0:0:
448,0,178347,1,0,0:0:0:0:
64,0,178390,1,0,0:0:0:0:
192,0,178435,1,0,0:0:0:0:
448,0,178478,1,0,0:0:0:0:
64,0,178522,1,0,0:0:0:0:
192,0,178565,1,0,0:0:0:0:
320,0,178610,1,0,0:0:0:0:
448,0,178653,1,0,0:0:0:0:
64,0,178697,1,0,0:0:0:0:
192,0,178697,1,0,0:0:0:0:
320,0,178740,1,0,0:0:0:0:
448,0,178740,1,0,0:0:0:0:
64,0,178784,1,0,0:0:0:0:
192,0,178784,1,0,0:0:0:0:
320,0,178871,1,0,0:0:0:0:
448,0,178871,1,0,0:0:0:0:
64,0,178915,1,0,0:0:0:0:
192,0,178915,1,0,0:0:0:0:
320,0,178959,1,0,0:0:0:0:
448,0,178959,1,0,0:0:0:0:
64,0,179046,128,0,180969:0:0:0:0:
192,0,179046,128,0,180969:0:0:0:0:
320,0,179046,128,0,180969:0:0:0:0:
448,0,179046,128,0,180969:0:0:0:0:
