osu file format v14

[General]
AudioFilename: 07. Valley of Shadows (Original Mix)_1.15.mp3
AudioLeadIn: 1500
PreviewTime: 69565
Countdown: 0
SampleSet: Normal
StackLeniency: 0.7
Mode: 3
LetterboxInBreaks: 0
SpecialStyle: 0
WidescreenStoryboard: 0

[Editor]
DistanceSpacing: 0.8
BeatDivisor: 8
GridSize: 16
TimelineZoom: 3.899998

[Metadata]
Title:Valley of Shadows
TitleUnicode:Valley of Shadows
Artist:Savant
ArtistUnicode:Savant
Creator:booty
Version:Hard x1.15
Source:
Tags:
BeatmapID:1935051
BeatmapSetID:926400

[Difficulty]
HPDrainRate:7
CircleSize:4
OverallDifficulty:7
ApproachRate:9
SliderMultiplier:1.4
SliderTickRate:1

[Events]
//Background and Video events
0,0,"bg.jpg",0,0
//Break Periods
//Storyboard Layer 0 (Background)
//Storyboard Layer 1 (Fail)
//Storyboard Layer 2 (Pass)
//Storyboard Layer 3 (Foreground)
//Storyboard Sound Samples

[TimingPoints]
67,364.862608695652,4,1,0,15,1,0

[HitObjects]
64,0,21,5,0,0:0:0:0:
448,0,21,1,0,0:0:0:0:
64,0,113,1,0,0:0:0:0:
320,0,204,1,0,0:0:0:0:
192,0,295,1,0,0:0:0:0:
320,0,295,1,0,0:0:0:0:
64,0,386,1,0,0:0:0:0:
64,0,478,1,0,0:0:0:0:
320,0,568,1,0,0:0:0:0:
448,0,568,1,0,0:0:0:0:
320,0,660,1,0,0:0:0:0:
64,0,751,1,0,0:0:0:0:
192,0,751,1,0,0:0:0:0:
64,0,842,1,0,0:0:0:0:
320,0,933,1,0,0:0:0:0:
320,0,1025,1,0,0:0:0:0:
448,0,1025,1,0,0:0:0:0:
192,0,1116,1,0,0:0:0:0:
192,0,1207,1,0,0:0:0:0:
320,0,1299,1,0,0:0:0:0:
448,0,1299,1,0,0:0:0:0:
448,0,1390,1,0,0:0:0:0:
64,0,1480,1,0,0:0:0:0:
64,0,1572,1,0,0:0:0:0:
320,0,1663,1,0,0:0:0:0:
64,0,1754,1,0,0:0:0:0:
320,0,1754,1,0,0:0:0:0:
192,0,1846,1,0,0:0:0:0:
192,0,1937,1,0,0:0:0:0:
320,0,2028,1,0,0:0:0:0:
448,0,2028,1,0,0:0:0:0:
448,0,2120,1,0,0:0:0:0:
64,0,2211,1,0,0:0:0:0:
192,0,2211,1,0,0:0:0:0:
192,0,2301,1,0,0:0:0:0:
320,0,2393,1,0,0:0:0:0:
320,0,2484,1,0,0:0:0:0:
448,0,2484,1,0,0:0:0:0:
64,0,2575,1,0,0:0:0:0:
64,0,2666,1,0,0:0:0:0:
320,0,2758,1,0,0:0:0:0:
448,0,2758,1,0,0:0:0:0:
448,0,2849,1,0,0:0:0:0:
64,0,2940,1,0,0:0:0:0:
192,0,2940,1,0,0:0:0:0:
192,0,3032,1,0,0:0:0:0:
320,0,3123,1,0,0:0:0:0:
320,0,3213,1,0,0:0:0:0:
448,0,3213,1,0,0:0:0:0:
64,0,3305,1,0,0:0:0:0:
64,0,3396,1,0,0:0:0:0:
320,0,3487,1,0,0:0:0:0:
448,0,3487,1,0,0:0:0:0:
320,0,3579,1,0,0:0:0:0:
64,0,3670,1,0,0:0:0:0:
192,0,3670,1,0,0:0:0:0:
192,0,3761,1,0,0:0:0:0:
448,0,3853,1,0,0:0:0:0:
320,0,3944,1,0,0:0:0:0:
448,0,3944,1,0,0:0:0:0:
64,0,4035,1,0,0:0:0:0:
64,0,4126,1,0,0:0:0:0:
320,0,4217,1,0,0:0:0:0:
448,0,4217,1,0,0:0:0:0:
320,0,4308,1,0,0:0:0:0:
64,0,4400,1,0,0:0:0:0:
192,0,4400,1,0,0:0:0:0:
64,0,4491,1,0,0:0:0:0:
192,0,4582,1,0,0:0:0:0:
320,0,4582,1,0,0:0:0:0:
320,0,4673,1,0,0:0:0:0:
448,0,4673,1,0,0:0:0:0:
192,0,4765,1,0,0:0:0:0:
320,0,4810,1,0,0:0:0:0:
448,0,4856,1,0,0:0:0:0:
64,0,4947,1,0,0:0:0:0:
192,0,4947,1,0,0:0:0:0:
320,0,5129,1,0,0:0:0:0:
448,0,5175,1,0,0:0:0:0:
64,0,5220,1,0,0:0:0:0:
192,0,5312,1,0,0:0:0:0:
320,0,5312,1,0,0:0:0:0:
64,0,5403,1,0,0:0:0:0:
448,0,5403,1,0,0:0:0:0:
192,0,5494,1,0,0:0:0:0:
320,0,5494,1,0,0:0:0:0:
448,0,5540,1,0,0:0:0:0:
64,0,5586,1,0,0:0:0:0:
320,0,5860,1,0,0:0:0:0:
448,0,5860,1,0,0:0:0:0:
64,0,5905,1,0,0:0:0:0:
192,0,5950,1,0,0:0:0:0:
64,0,6133,1,0,0:0:0:0:
192,0,6133,1,0,0:0:0:0:
320,0,6224,1,0,0:0:0:0:
192,0,6270,1,0,0:0:0:0:
448,0,6315,1,0,0:0:0:0:
192,0,6406,1,0,0:0:0:0:
320,0,6406,1,0,0:0:0:0:
192,0,6589,1,0,0:0:0:0:
320,0,6589,1,0,0:0:0:0:
448,0,6634,1,0,0:0:0:0:
64,0,6680,1,0,0:0:0:0:
64,0,6771,1,0,0:0:0:0:
320,0,6862,1,0,0:0:0:0:
448,0,6862,1,0,0:0:0:0:
64,0,6953,1,0,0:0:0:0:
320,0,7000,1,0,0:0:0:0:
192,0,7045,1,0,0:0:0:0:
64,0,7136,1,0,0:0:0:0:
448,0,7136,1,0,0:0:0:0:
192,0,7227,1,0,0:0:0:0:
320,0,7319,1,0,0:0:0:0:
448,0,7364,1,0,0:0:0:0:
192,0,7410,1,0,0:0:0:0:
192,0,7501,1,0,0:0:0:0:
64,0,7593,1,0,0:0:0:0:
448,0,7593,1,0,0:0:0:0:
192,0,7683,1,0,0:0:0:0:
320,0,7729,1,0,0:0:0:0:
448,0,7774,1,0,0:0:0:0:
64,0,7866,1,0,0:0:0:0:
192,0,7866,1,0,0:0:0:0:
320,0,7957,1,0,0:0:0:0:
64,0,8048,1,0,0:0:0:0:
448,0,8048,1,0,0:0:0:0:
64,0,8140,1,0,0:0:0:0:
320,0,8231,1,0,0:0:0:0:
192,0,8322,1,0,0:0:0:0:
320,0,8322,1,0,0:0:0:0:
64,0,8413,1,0,0:0:0:0:
64,0,8505,1,0,0:0:0:0:
320,0,8595,1,0,0:0:0:0:
448,0,8595,1,0,0:0:0:0:
448,0,8686,1,0,0:0:0:0:
64,0,8778,1,0,0:0:0:0:
192,0,8778,1,0,0:0:0:0:
192,0,8869,1,0,0:0:0:0:
320,0,8960,1,0,0:0:0:0:
64,0,9052,1,0,0:0:0:0:
448,0,9052,1,0,0:0:0:0:
64,0,9143,1,0,0:0:0:0:
320,0,9234,1,0,0:0:0:0:
192,0,9326,1,0,0:0:0:0:
448,0,9326,1,0,0:0:0:0:
320,0,9417,1,0,0:0:0:0:
64,0,9507,1,0,0:0:0:0:
192,0,9507,1,0,0:0:0:0:
192,0,9599,1,0,0:0:0:0:
448,0,9690,1,0,0:0:0:0:
320,0,9781,1,0,0:0:0:0:
448,0,9781,1,0,0:0:0:0:
192,0,10055,1,0,0:0:0:0:
320,0,10055,1,0,0:0:0:0:
448,0,10146,1,0,0:0:0:0:
64,0,10238,1,0,0:0:0:0:
192,0,10283,1,0,0:0:0:0:
448,0,10329,1,0,0:0:0:0:
192,0,10420,1,0,0:0:0:0:
64,0,10511,1,0,0:0:0:0:
192,0,10511,1,0,0:0:0:0:
320,0,10602,1,0,0:0:0:0:
448,0,10648,1,0,0:0:0:0:
192,0,10693,1,0,0:0:0:0:
64,0,10785,1,0,0:0:0:0:
448,0,10785,1,0,0:0:0:0:
192,0,10876,1,0,0:0:0:0:
320,0,10967,1,0,0:0:0:0:
192,0,11013,1,0,0:0:0:0:
448,0,11059,1,0,0:0:0:0:
192,0,11150,1,0,0:0:0:0:
320,0,11150,1,0,0:0:0:0:
64,0,11240,1,0,0:0:0:0:
448,0,11240,1,0,0:0:0:0:
192,0,11332,1,0,0:0:0:0:
320,0,11332,1,0,0:0:0:0:
448,0,11378,1,0,0:0:0:0:
64,0,11423,1,0,0:0:0:0:
192,0,11514,1,0,0:0:0:0:
192,0,11606,1,0,0:0:0:0:
320,0,11697,1,0,0:0:0:0:
448,0,11697,1,0,0:0:0:0:
64,0,11742,1,0,0:0:0:0:
192,0,11788,1,0,0:0:0:0:
320,0,11880,1,0,0:0:0:0:
320,0,11971,1,0,0:0:0:0:
448,0,11971,1,0,0:0:0:0:
192,0,12062,1,0,0:0:0:0:
64,0,12107,1,0,0:0:0:0:
320,0,12153,1,0,0:0:0:0:
64,0,12244,1,0,0:0:0:0:
448,0,12244,1,0,0:0:0:0:
448,0,12335,1,0,0:0:0:0:
64,0,12426,1,0,0:0:0:0:
192,0,12426,1,0,0:0:0:0:
320,0,12473,1,0,0:0:0:0:
448,0,12518,1,0,0:0:0:0:
192,0,12609,1,0,0:0:0:0:
64,0,12700,1,0,0:0:0:0:
320,0,12700,1,0,0:0:0:0:
192,0,12792,1,0,0:0:0:0:
320,0,12837,1,0,0:0:0:0:
64,0,12883,1,0,0:0:0:0:
192,0,12974,1,0,0:0:0:0:
320,0,12974,1,0,0:0:0:0:
448,0,13065,1,0,0:0:0:0:
192,0,13156,1,0,0:0:0:0:
320,0,13202,1,0,0:0:0:0:
64,0,13247,1,0,0:0:0:0:
448,0,13339,1,0,0:0:0:0:
320,0,13430,1,0,0:0:0:0:
448,0,13430,1,0,0:0:0:0:
192,0,13521,1,0,0:0:0:0:
64,0,13566,1,0,0:0:0:0:
320,0,13613,1,0,0:0:0:0:
64,0,13704,1,0,0:0:0:0:
448,0,13704,1,0,0:0:0:0:
320,0,13795,1,0,0:0:0:0:
64,0,13886,1,0,0:0:0:0:
192,0,13886,1,0,0:0:0:0:
320,0,13932,1,0,0:0:0:0:
448,0,13977,1,0,0:0:0:0:
64,0,14068,1,0,0:0:0:0:
192,0,14160,1,0,0:0:0:0:
320,0,14160,1,0,0:0:0:0:
448,0,14251,1,0,0:0:0:0:
192,0,14297,1,0,0:0:0:0:
64,0,14342,1,0,0:0:0:0:
320,0,14433,1,0,0:0:0:0:
448,0,14433,1,0,0:0:0:0:
192,0,14525,1,0,0:0:0:0:
64,0,14616,1,0,0:0:0:0:
448,0,14616,1,0,0:0:0:0:
320,0,14661,1,0,0:0:0:0:
192,0,14707,1,0,0:0:0:0:
320,0,14799,1,0,0:0:0:0:
192,0,14889,1,0,0:0:0:0:
320,0,14889,1,0,0:0:0:0:
64,0,14980,1,0,0:0:0:0:
448,0,15026,1,0,0:0:0:0:
192,0,15072,1,0,0:0:0:0:
320,0,15163,1,0,0:0:0:0:
448,0,15163,1,0,0:0:0:0:
64,0,15254,1,0,0:0:0:0:
192,0,15346,1,0,0:0:0:0:
320,0,15346,1,0,0:0:0:0:
64,0,15391,1,0,0:0:0:0:
448,0,15437,1,0,0:0:0:0:
320,0,15528,1,0,0:0:0:0:
64,0,15620,1,0,0:0:0:0:
192,0,15620,1,0,0:0:0:0:
320,0,15710,1,0,0:0:0:0:
192,0,15756,1,0,0:0:0:0:
64,0,15801,1,0,0:0:0:0:
320,0,15893,1,0,0:0:0:0:
448,0,15893,1,0,0:0:0:0:
192,0,15984,1,0,0:0:0:0:
320,0,16075,1,0,0:0:0:0:
64,0,16121,1,0,0:0:0:0:
448,0,16166,1,0,0:0:0:0:
64,0,16258,1,0,0:0:0:0:
192,0,16349,1,0,0:0:0:0:
320,0,16349,1,0,0:0:0:0:
64,0,16440,1,0,0:0:0:0:
448,0,16440,1,0,0:0:0:0:
320,0,16486,1,0,0:0:0:0:
192,0,16532,1,0,0:0:0:0:
320,0,16622,1,0,0:0:0:0:
448,0,16622,1,0,0:0:0:0:
64,0,16713,1,0,0:0:0:0:
192,0,16805,1,0,0:0:0:0:
320,0,16851,1,0,0:0:0:0:
448,0,16896,1,0,0:0:0:0:
64,0,16987,1,0,0:0:0:0:
192,0,16987,1,0,0:0:0:0:
320,0,17079,1,0,0:0:0:0:
448,0,17079,1,0,0:0:0:0:
64,0,17170,1,0,0:0:0:0:
192,0,17170,1,0,0:0:0:0:
320,0,17215,1,0,0:0:0:0:
448,0,17261,1,0,0:0:0:0:
192,0,17353,1,0,0:0:0:0:
448,0,17444,1,0,0:0:0:0:
192,0,17534,1,0,0:0:0:0:
320,0,17534,1,0,0:0:0:0:
64,0,17580,1,0,0:0:0:0:
448,0,17626,1,0,0:0:0:0:
192,0,17717,1,0,0:0:0:0:
320,0,17808,1,0,0:0:0:0:
448,0,17808,1,0,0:0:0:0:
64,0,17900,1,0,0:0:0:0:
192,0,17945,1,0,0:0:0:0:
320,0,17991,1,0,0:0:0:0:
64,0,18082,1,0,0:0:0:0:
448,0,18082,1,0,0:0:0:0:
320,0,18173,1,0,0:0:0:0:
64,0,18265,1,0,0:0:0:0:
192,0,18265,1,0,0:0:0:0:
448,0,18310,1,0,0:0:0:0:
320,0,18356,1,0,0:0:0:0:
192,0,18446,1,0,0:0:0:0:
64,0,18538,1,0,0:0:0:0:
320,0,18538,1,0,0:0:0:0:
448,0,18629,1,0,0:0:0:0:
192,0,18675,1,0,0:0:0:0:
64,0,18720,1,0,0:0:0:0:
320,0,18812,1,0,0:0:0:0:
448,0,18812,1,0,0:0:0:0:
192,0,18903,1,0,0:0:0:0:
320,0,18994,1,0,0:0:0:0:
64,0,19040,1,0,0:0:0:0:
192,0,19086,1,0,0:0:0:0:
448,0,19177,1,0,0:0:0:0:
192,0,19268,1,0,0:0:0:0:
320,0,19268,1,0,0:0:0:0:
448,0,19359,1,0,0:0:0:0:
64,0,19405,1,0,0:0:0:0:
192,0,19450,1,0,0:0:0:0:
320,0,19541,1,0,0:0:0:0:
448,0,19541,1,0,0:0:0:0:
64,0,19633,1,0,0:0:0:0:
192,0,19724,1,0,0:0:0:0:
320,0,19724,1,0,0:0:0:0:
64,0,19769,1,0,0:0:0:0:
448,0,19815,1,0,0:0:0:0:
320,0,19906,1,0,0:0:0:0:
64,0,19998,1,0,0:0:0:0:
192,0,19998,1,0,0:0:0:0:
320,0,20089,1,0,0:0:0:0:
448,0,20134,1,0,0:0:0:0:
64,0,20180,1,0,0:0:0:0:
192,0,20271,1,0,0:0:0:0:
320,0,20271,1,0,0:0:0:0:
448,0,20362,1,0,0:0:0:0:
64,0,20453,1,0,0:0:0:0:
192,0,20453,1,0,0:0:0:0:
320,0,20500,1,0,0:0:0:0:
448,0,20545,1,0,0:0:0:0:
192,0,20636,1,0,0:0:0:0:
320,0,20727,1,0,0:0:0:0:
448,0,20727,1,0,0:0:0:0:
64,0,20819,1,0,0:0:0:0:
320,0,20864,1,0,0:0:0:0:
192,0,20910,1,0,0:0:0:0:
64,0,21001,1,0,0:0:0:0:
448,0,21001,1,0,0:0:0:0:
320,0,21092,1,0,0:0:0:0:
64,0,21183,1,0,0:0:0:0:
192,0,21183,1,0,0:0:0:0:
448,0,21229,1,0,0:0:0:0:
320,0,21274,1,0,0:0:0:0:
64,0,21366,1,0,0:0:0:0:
192,0,21457,1,0,0:0:0:0:
320,0,21457,1,0,0:0:0:0:
448,0,21548,1,0,0:0:0:0:
64,0,21593,1,0,0:0:0:0:
192,0,21640,1,0,0:0:0:0:
320,0,21731,1,0,0:0:0:0:
448,0,21731,1,0,0:0:0:0:
64,0,21822,1,0,0:0:0:0:
320,0,21913,1,0,0:0:0:0:
192,0,21959,1,0,0:0:0:0:
448,0,22004,1,0,0:0:0:0:
320,0,22095,1,0,0:0:0:0:
64,0,22186,1,0,0:0:0:0:
192,0,22186,1,0,0:0:0:0:
448,0,22278,1,0,0:0:0:0:
320,0,22324,1,0,0:0:0:0:
64,0,22369,1,0,0:0:0:0:
192,0,22460,1,0,0:0:0:0:
320,0,22460,1,0,0:0:0:0:
448,0,22552,1,0,0:0:0:0:
192,0,22643,1,0,0:0:0:0:
320,0,22643,1,0,0:0:0:0:
64,0,22688,1,0,0:0:0:0:
448,0,22734,1,0,0:0:0:0:
64,0,22826,1,0,0:0:0:0:
192,0,22826,1,0,0:0:0:0:
320,0,22916,1,0,0:0:0:0:
448,0,22916,1,0,0:0:0:0:
64,0,23007,1,0,0:0:0:0:
192,0,23007,1,0,0:0:0:0:
320,0,23053,1,0,0:0:0:0:
448,0,23099,1,0,0:0:0:0:
64,0,23190,1,0,0:0:0:0:
192,0,23190,1,0,0:0:0:0:
320,0,23281,1,0,0:0:0:0:
64,0,23373,1,0,0:0:0:0:
448,0,23373,1,0,0:0:0:0:
320,0,23418,1,0,0:0:0:0:
192,0,23464,1,0,0:0:0:0:
64,0,23509,1,0,0:0:0:0:
448,0,23555,1,0,0:0:0:0:
192,0,23600,1,0,0:0:0:0:
320,0,23646,1,0,0:0:0:0:
448,0,23692,1,0,0:0:0:0:
64,0,23738,1,0,0:0:0:0:
320,0,23783,1,0,0:0:0:0:
192,0,23828,1,0,0:0:0:0:
320,0,23920,1,0,0:0:0:0:
448,0,23920,1,0,0:0:0:0:
192,0,24011,1,0,0:0:0:0:
64,0,24102,1,0,0:0:0:0:
320,0,24102,1,0,0:0:0:0:
448,0,24102,1,0,0:0:0:0:
192,0,24193,1,0,0:0:0:0:
320,0,24285,1,0,0:0:0:0:
448,0,24285,1,0,0:0:0:0:
320,0,24376,1,0,0:0:0:0:
448,0,24376,1,0,0:0:0:0:
64,0,24467,1,0,0:0:0:0:
192,0,24467,1,0,0:0:0:0:
448,0,24535,1,0,0:0:0:0:
320,0,24581,1,0,0:0:0:0:
192,0,24649,1,0,0:0:0:0:
64,0,24718,1,0,0:0:0:0:
448,0,24764,1,0,0:0:0:0:
320,0,24832,1,0,0:0:0:0:
192,0,24878,1,0,0:0:0:0:
320,0,24923,1,0,0:0:0:0:
192,0,24969,1,0,0:0:0:0:
448,0,25014,1,0,0:0:0:0:
320,0,25060,1,0,0:0:0:0:
192,0,25106,1,0,0:0:0:0:
64,0,25151,1,0,0:0:0:0:
448,0,25197,1,0,0:0:0:0:
320,0,25242,1,0,0:0:0:0:
192,0,25288,1,0,0:0:0:0:
448,0,25380,1,0,0:0:0:0:
64,0,25425,1,0,0:0:0:0:
192,0,25471,1,0,0:0:0:0:
320,0,25561,1,0,0:0:0:0:
448,0,25561,1,0,0:0:0:0:
64,0,25607,1,0,0:0:0:0:
192,0,25653,1,0,0:0:0:0:
320,0,25744,1,0,0:0:0:0:
448,0,25790,1,0,0:0:0:0:
192,0,25835,1,0,0:0:0:0:
320,0,25926,1,0,0:0:0:0:
320,0,26018,1,0,0:0:0:0:
192,0,26109,1,0,0:0:0:0:
448,0,26109,1,0,0:0:0:0:
192,0,26200,1,0,0:0:0:0:
64,0,26292,1,0,0:0:0:0:
320,0,26337,1,0,0:0:0:0:
448,0,26383,1,0,0:0:0:0:
192,0,26428,1,0,0:0:0:0:
64,0,26473,1,0,0:0:0:0:
320,0,26520,1,0,0:0:0:0:
448,0,26565,1,0,0:0:0:0:
192,0,26611,1,0,0:0:0:0:
64,0,26656,1,0,0:0:0:0:
320,0,26725,1,0,0:0:0:0:
448,0,26770,1,0,0:0:0:0:
64,0,26839,1,0,0:0:0:0:
192,0,26839,1,0,0:0:0:0:
320,0,26839,1,0,0:0:0:0:
64,0,27021,1,0,0:0:0:0:
192,0,27021,1,0,0:0:0:0:
320,0,27021,1,0,0:0:0:0:
448,0,27021,1,0,0:0:0:0:
192,0,27204,1,0,0:0:0:0:
192,0,27295,1,0,0:0:0:0:
320,0,27386,1,0,0:0:0:0:
448,0,27386,1,0,0:0:0:0:
64,0,27432,1,0,0:0:0:0:
192,0,27477,1,0,0:0:0:0:
320,0,27523,1,0,0:0:0:0:
448,0,27568,1,0,0:0:0:0:
192,0,27751,1,0,0:0:0:0:
320,0,27751,1,0,0:0:0:0:
448,0,27796,1,0,0:0:0:0:
64,0,27842,1,0,0:0:0:0:
192,0,27887,1,0,0:0:0:0:
320,0,27933,1,0,0:0:0:0:
448,0,27979,1,0,0:0:0:0:
192,0,28025,1,0,0:0:0:0:
320,0,28070,1,0,0:0:0:0:
64,0,28116,1,0,0:0:0:0:
448,0,28161,1,0,0:0:0:0:
320,0,28207,1,0,0:0:0:0:
192,0,28253,1,0,0:0:0:0:
64,0,28298,1,0,0:0:0:0:
448,0,28298,1,0,0:0:0:0:
64,0,28480,1,0,0:0:0:0:
192,0,28480,1,0,0:0:0:0:
320,0,28480,1,0,0:0:0:0:
448,0,28480,1,0,0:0:0:0:
192,0,28663,1,0,0:0:0:0:
320,0,28663,1,0,0:0:0:0:
448,0,28663,1,0,0:0:0:0:
320,0,28846,1,0,0:0:0:0:
448,0,28846,1,0,0:0:0:0:
192,0,28891,1,0,0:0:0:0:
64,0,28937,1,0,0:0:0:0:
448,0,28982,1,0,0:0:0:0:
192,0,29028,1,0,0:0:0:0:
320,0,29028,1,0,0:0:0:0:
64,0,29210,1,0,0:0:0:0:
448,0,29210,1,0,0:0:0:0:
192,0,29279,1,0,0:0:0:0:
64,0,29325,1,0,0:0:0:0:
192,0,29393,1,0,0:0:0:0:
320,0,29439,1,0,0:0:0:0:
448,0,29484,1,0,0:0:0:0:
64,0,29530,1,0,0:0:0:0:
192,0,29575,1,0,0:0:0:0:
448,0,29620,1,0,0:0:0:0:
320,0,29666,1,0,0:0:0:0:
192,0,29712,1,0,0:0:0:0:
64,0,29758,1,0,0:0:0:0:
192,0,29940,1,0,0:0:0:0:
320,0,29940,1,0,0:0:0:0:
448,0,29940,1,0,0:0:0:0:
64,0,30122,1,0,0:0:0:0:
192,0,30122,1,0,0:0:0:0:
192,0,30213,1,0,0:0:0:0:
320,0,30213,1,0,0:0:0:0:
320,0,30305,1,0,0:0:0:0:
448,0,30305,1,0,0:0:0:0:
64,0,30351,1,0,0:0:0:0:
192,0,30396,1,0,0:0:0:0:
320,0,30442,1,0,0:0:0:0:
448,0,30487,1,0,0:0:0:0:
448,0,30579,1,0,0:0:0:0:
64,0,30670,1,0,0:0:0:0:
192,0,30670,1,0,0:0:0:0:
448,0,30715,1,0,0:0:0:0:
320,0,30761,1,0,0:0:0:0:
192,0,30806,1,0,0:0:0:0:
64,0,30853,1,0,0:0:0:0:
320,0,30943,1,0,0:0:0:0:
448,0,30943,1,0,0:0:0:0:
192,0,31034,1,0,0:0:0:0:
64,0,31080,1,0,0:0:0:0:
320,0,31126,1,0,0:0:0:0:
192,0,31217,1,0,0:0:0:0:
448,0,31263,1,0,0:0:0:0:
64,0,31308,1,0,0:0:0:0:
192,0,31400,1,0,0:0:0:0:
320,0,31400,1,0,0:0:0:0:
448,0,31445,1,0,0:0:0:0:
64,0,31491,1,0,0:0:0:0:
192,0,31582,1,0,0:0:0:0:
320,0,31627,1,0,0:0:0:0:
448,0,31673,1,0,0:0:0:0:
64,0,31765,1,0,0:0:0:0:
192,0,31810,1,0,0:0:0:0:
320,0,31855,1,0,0:0:0:0:
448,0,31901,1,0,0:0:0:0:
64,0,31946,1,0,0:0:0:0:
192,0,31993,1,0,0:0:0:0:
320,0,32038,1,0,0:0:0:0:
448,0,32084,1,0,0:0:0:0:
64,0,32129,1,0,0:0:0:0:
192,0,32129,1,0,0:0:0:0:
320,0,32198,1,0,0:0:0:0:
448,0,32198,1,0,0:0:0:0:
64,0,32243,1,0,0:0:0:0:
192,0,32243,1,0,0:0:0:0:
320,0,32312,1,0,0:0:0:0:
448,0,32312,1,0,0:0:0:0:
64,0,32380,1,0,0:0:0:0:
192,0,32380,1,0,0:0:0:0:
320,0,32426,1,0,0:0:0:0:
448,0,32426,1,0,0:0:0:0:
64,0,32494,1,0,0:0:0:0:
192,0,32494,1,0,0:0:0:0:
320,0,32562,1,0,0:0:0:0:
448,0,32562,1,0,0:0:0:0:
64,0,32608,1,0,0:0:0:0:
192,0,32608,1,0,0:0:0:0:
320,0,32677,1,0,0:0:0:0:
448,0,32677,1,0,0:0:0:0:
64,0,32745,1,0,0:0:0:0:
192,0,32745,1,0,0:0:0:0:
320,0,32791,1,0,0:0:0:0:
448,0,32791,1,0,0:0:0:0:
64,0,32859,1,0,0:0:0:0:
192,0,32859,1,0,0:0:0:0:
64,0,33041,1,0,0:0:0:0:
192,0,33041,1,0,0:0:0:0:
192,0,33133,1,0,0:0:0:0:
320,0,33133,1,0,0:0:0:0:
320,0,33224,1,0,0:0:0:0:
448,0,33224,1,0,0:0:0:0:
64,0,33293,1,0,0:0:0:0:
192,0,33293,1,0,0:0:0:0:
320,0,33338,1,0,0:0:0:0:
448,0,33338,1,0,0:0:0:0:
64,0,33406,1,0,0:0:0:0:
192,0,33406,1,0,0:0:0:0:
320,0,33474,1,0,0:0:0:0:
448,0,33474,1,0,0:0:0:0:
64,0,33588,1,0,0:0:0:0:
192,0,33588,1,0,0:0:0:0:
320,0,33657,1,0,0:0:0:0:
448,0,33657,1,0,0:0:0:0:
64,0,33703,1,0,0:0:0:0:
192,0,33703,1,0,0:0:0:0:
320,0,33771,1,0,0:0:0:0:
448,0,33771,1,0,0:0:0:0:
64,0,33840,1,0,0:0:0:0:
192,0,33840,1,0,0:0:0:0:
320,0,33953,1,0,0:0:0:0:
448,0,33953,1,0,0:0:0:0:
64,0,34022,1,0,0:0:0:0:
192,0,34022,1,0,0:0:0:0:
320,0,34067,1,0,0:0:0:0:
448,0,34067,1,0,0:0:0:0:
64,0,34136,1,0,0:0:0:0:
192,0,34136,1,0,0:0:0:0:
320,0,34205,1,0,0:0:0:0:
448,0,34205,1,0,0:0:0:0:
64,0,34319,1,0,0:0:0:0:
192,0,34319,1,0,0:0:0:0:
192,0,34500,1,0,0:0:0:0:
64,0,34592,1,0,0:0:0:0:
448,0,34592,1,0,0:0:0:0:
320,0,34683,1,0,0:0:0:0:
320,0,34866,1,0,0:0:0:0:
448,0,34866,1,0,0:0:0:0:
192,0,34912,1,0,0:0:0:0:
64,0,34957,1,0,0:0:0:0:
320,0,35002,1,0,0:0:0:0:
64,0,35048,1,0,0:0:0:0:
192,0,35048,1,0,0:0:0:0:
448,0,35048,1,0,0:0:0:0:
320,0,35117,1,0,0:0:0:0:
192,0,35162,1,0,0:0:0:0:
64,0,35231,1,0,0:0:0:0:
320,0,35322,1,0,0:0:0:0:
448,0,35322,1,0,0:0:0:0:
192,0,35413,1,0,0:0:0:0:
320,0,35413,1,0,0:0:0:0:
64,0,35504,1,0,0:0:0:0:
448,0,35504,1,0,0:0:0:0:
192,0,35595,1,0,0:0:0:0:
320,0,35595,1,0,0:0:0:0:
320,0,35778,1,0,0:0:0:0:
448,0,35778,1,0,0:0:0:0:
64,0,35960,1,0,0:0:0:0:
192,0,35960,1,0,0:0:0:0:
192,0,36052,1,0,0:0:0:0:
320,0,36052,1,0,0:0:0:0:
320,0,36143,1,0,0:0:0:0:
448,0,36143,1,0,0:0:0:0:
64,0,36234,1,0,0:0:0:0:
448,0,36234,1,0,0:0:0:0:
64,0,36325,1,0,0:0:0:0:
192,0,36325,1,0,0:0:0:0:
320,0,36507,1,0,0:0:0:0:
448,0,36507,1,0,0:0:0:0:
192,0,36553,1,0,0:0:0:0:
64,0,36599,1,0,0:0:0:0:
448,0,36645,1,0,0:0:0:0:
192,0,36690,1,0,0:0:0:0:
320,0,36690,1,0,0:0:0:0:
64,0,36781,1,0,0:0:0:0:
448,0,36781,1,0,0:0:0:0:
192,0,36873,1,0,0:0:0:0:
320,0,36873,1,0,0:0:0:0:
64,0,37055,1,0,0:0:0:0:
192,0,37055,1,0,0:0:0:0:
320,0,37055,1,0,0:0:0:0:
192,0,37237,1,0,0:0:0:0:
320,0,37237,1,0,0:0:0:0:
448,0,37237,1,0,0:0:0:0:
64,0,37420,1,0,0:0:0:0:
192,0,37420,1,0,0:0:0:0:
320,0,37420,1,0,0:0:0:0:
320,0,37602,1,0,0:0:0:0:
448,0,37602,1,0,0:0:0:0:
320,0,37693,1,0,0:0:0:0:
448,0,37693,1,0,0:0:0:0:
320,0,37785,1,0,0:0:0:0:
448,0,37785,1,0,0:0:0:0:
64,0,37967,1,0,0:0:0:0:
448,0,37967,1,0,0:0:0:0:
320,0,38013,1,0,0:0:0:0:
192,0,38058,1,0,0:0:0:0:
64,0,38104,1,0,0:0:0:0:
448,0,38149,1,0,0:0:0:0:
320,0,38195,1,0,0:0:0:0:
64,0,38240,1,0,0:0:0:0:
192,0,38240,1,0,0:0:0:0:
192,0,38332,1,0,0:0:0:0:
320,0,38332,1,0,0:0:0:0:
64,0,38423,1,0,0:0:0:0:
448,0,38423,1,0,0:0:0:0:
192,0,38514,1,0,0:0:0:0:
320,0,38514,1,0,0:0:0:0:
320,0,38697,1,0,0:0:0:0:
448,0,38697,1,0,0:0:0:0:
64,0,38880,1,0,0:0:0:0:
192,0,38880,1,0,0:0:0:0:
192,0,38970,1,0,0:0:0:0:
320,0,38970,1,0,0:0:0:0:
64,0,39061,1,0,0:0:0:0:
448,0,39061,1,0,0:0:0:0:
320,0,39153,1,0,0:0:0:0:
448,0,39153,1,0,0:0:0:0:
192,0,39244,1,0,0:0:0:0:
320,0,39244,1,0,0:0:0:0:
64,0,39426,1,0,0:0:0:0:
192,0,39426,1,0,0:0:0:0:
320,0,39472,1,0,0:0:0:0:
448,0,39518,1,0,0:0:0:0:
64,0,39563,1,0,0:0:0:0:
192,0,39609,1,0,0:0:0:0:
320,0,39609,1,0,0:0:0:0:
64,0,39700,1,0,0:0:0:0:
448,0,39700,1,0,0:0:0:0:
192,0,39792,1,0,0:0:0:0:
320,0,39792,1,0,0:0:0:0:
64,0,39882,1,0,0:0:0:0:
192,0,39882,1,0,0:0:0:0:
320,0,39973,1,0,0:0:0:0:
448,0,39973,1,0,0:0:0:0:
64,0,40156,1,0,0:0:0:0:
192,0,40156,1,0,0:0:0:0:
64,0,40247,1,0,0:0:0:0:
192,0,40247,1,0,0:0:0:0:
320,0,40339,1,0,0:0:0:0:
448,0,40339,1,0,0:0:0:0:
320,0,40430,1,0,0:0:0:0:
448,0,40430,1,0,0:0:0:0:
64,0,40521,1,0,0:0:0:0:
192,0,40521,1,0,0:0:0:0:
192,0,40613,1,0,0:0:0:0:
320,0,40613,1,0,0:0:0:0:
320,0,40704,1,0,0:0:0:0:
448,0,40704,1,0,0:0:0:0:
192,0,40772,1,0,0:0:0:0:
320,0,40818,1,0,0:0:0:0:
64,0,40886,1,0,0:0:0:0:
64,0,41000,1,0,0:0:0:0:
64,0,41137,1,0,0:0:0:0:
320,0,41160,1,0,0:0:0:0:
448,0,41160,1,0,0:0:0:0:
64,0,41251,1,0,0:0:0:0:
192,0,41251,1,0,0:0:0:0:
320,0,41342,1,0,0:0:0:0:
64,0,41365,1,0,0:0:0:0:
448,0,41433,1,0,0:0:0:0:
64,0,41501,1,0,0:0:0:0:
320,0,41525,1,0,0:0:0:0:
64,0,41616,1,0,0:0:0:0:
448,0,41616,1,0,0:0:0:0:
192,0,41706,1,0,0:0:0:0:
64,0,41730,1,0,0:0:0:0:
320,0,41798,1,0,0:0:0:0:
64,0,41866,1,0,0:0:0:0:
448,0,41889,1,0,0:0:0:0:
64,0,41980,1,0,0:0:0:0:
448,0,42049,1,0,0:0:0:0:
64,0,42094,1,0,0:0:0:0:
448,0,42163,1,0,0:0:0:0:
64,0,42232,1,0,0:0:0:0:
448,0,42346,1,0,0:0:0:0:
320,0,42391,1,0,0:0:0:0:
192,0,42437,1,0,0:0:0:0:
64,0,42482,1,0,0:0:0:0:
320,0,42528,1,0,0:0:0:0:
448,0,42596,1,0,0:0:0:0:
64,0,42710,1,0,0:0:0:0:
192,0,42756,1,0,0:0:0:0:
320,0,42801,1,0,0:0:0:0:
448,0,42824,1,0,0:0:0:0:
64,0,42893,1,0,0:0:0:0:
448,0,42961,1,0,0:0:0:0:
192,0,42984,1,0,0:0:0:0:
320,0,42984,1,0,0:0:0:0:
64,0,43075,1,0,0:0:0:0:
448,0,43075,1,0,0:0:0:0:
64,0,43166,1,0,0:0:0:0:
320,0,43258,1,0,0:0:0:0:
448,0,43258,1,0,0:0:0:0:
448,0,43349,1,0,0:0:0:0:
64,0,43440,1,0,0:0:0:0:
192,0,43440,1,0,0:0:0:0:
320,0,43486,1,0,0:0:0:0:
448,0,43531,1,0,0:0:0:0:
64,0,43577,1,0,0:0:0:0:
192,0,43622,1,0,0:0:0:0:
320,0,43668,1,0,0:0:0:0:
448,0,43713,1,0,0:0:0:0:
64,0,43805,1,0,0:0:0:0:
192,0,43805,1,0,0:0:0:0:
320,0,43851,1,0,0:0:0:0:
448,0,43896,1,0,0:0:0:0:
192,0,43941,1,0,0:0:0:0:
320,0,43987,1,0,0:0:0:0:
64,0,44033,1,0,0:0:0:0:
192,0,44079,1,0,0:0:0:0:
448,0,44124,1,0,0:0:0:0:
320,0,44170,1,0,0:0:0:0:
192,0,44215,1,0,0:0:0:0:
64,0,44261,1,0,0:0:0:0:
448,0,44306,1,0,0:0:0:0:
192,0,44352,1,0,0:0:0:0:
320,0,44398,1,0,0:0:0:0:
64,0,44443,1,0,0:0:0:0:
192,0,44489,1,0,0:0:0:0:
320,0,44534,1,0,0:0:0:0:
448,0,44580,1,0,0:0:0:0:
192,0,44626,1,0,0:0:0:0:
64,0,44672,1,0,0:0:0:0:
448,0,44717,1,0,0:0:0:0:
320,0,44763,1,0,0:0:0:0:
192,0,44808,1,0,0:0:0:0:
64,0,44853,1,0,0:0:0:0:
448,0,44900,1,0,0:0:0:0:
320,0,44945,1,0,0:0:0:0:
192,0,44991,1,0,0:0:0:0:
64,0,45036,1,0,0:0:0:0:
448,0,45082,1,0,0:0:0:0:
320,0,45127,1,0,0:0:0:0:
192,0,45173,1,0,0:0:0:0:
64,0,45219,1,0,0:0:0:0:
320,0,45264,1,0,0:0:0:0:
192,0,45310,1,0,0:0:0:0:
320,0,45355,1,0,0:0:0:0:
192,0,45446,1,0,0:0:0:0:
320,0,45538,1,0,0:0:0:0:
64,0,45629,1,0,0:0:0:0:
448,0,45674,1,0,0:0:0:0:
64,0,45720,1,0,0:0:0:0:
320,0,45812,1,0,0:0:0:0:
192,0,45903,1,0,0:0:0:0:
64,0,45994,1,0,0:0:0:0:
64,0,46108,1,0,0:0:0:0:
64,0,46245,1,0,0:0:0:0:
64,0,46359,1,0,0:0:0:0:
192,0,46359,1,0,0:0:0:0:
320,0,46359,1,0,0:0:0:0:
448,0,46359,1,0,0:0:0:0:
192,0,46541,1,0,0:0:0:0:
64,0,46633,1,0,0:0:0:0:
192,0,46633,1,0,0:0:0:0:
320,0,46633,1,0,0:0:0:0:
448,0,46633,1,0,0:0:0:0:
320,0,46724,1,0,0:0:0:0:
448,0,46724,1,0,0:0:0:0:
192,0,46815,1,0,0:0:0:0:
320,0,46906,1,0,0:0:0:0:
448,0,46906,1,0,0:0:0:0:
64,0,46998,1,0,0:0:0:0:
192,0,46998,1,0,0:0:0:0:
320,0,46998,1,0,0:0:0:0:
448,0,46998,1,0,0:0:0:0:
192,0,47088,1,0,0:0:0:0:
64,0,47180,1,0,0:0:0:0:
64,0,47271,1,0,0:0:0:0:
64,0,47453,1,0,0:0:0:0:
192,0,47453,1,0,0:0:0:0:
320,0,47453,1,0,0:0:0:0:
448,0,47453,1,0,0:0:0:0:
320,0,47704,1,0,0:0:0:0:
448,0,47742,1,0,0:0:0:0:
320,0,47795,1,0,0:0:0:0:
448,0,47833,1,0,0:0:0:0:
192,0,47909,1,0,0:0:0:0:
320,0,48000,1,0,0:0:0:0:
64,0,48046,1,0,0:0:0:0:
192,0,48092,1,0,0:0:0:0:
64,0,48183,1,0,0:0:0:0:
320,0,48183,1,0,0:0:0:0:
448,0,48183,1,0,0:0:0:0:
448,0,48274,1,0,0:0:0:0:
192,0,48366,1,0,0:0:0:0:
192,0,48457,1,0,0:0:0:0:
320,0,48457,1,0,0:0:0:0:
448,0,48502,1,0,0:0:0:0:
64,0,48548,1,0,0:0:0:0:
192,0,48593,1,0,0:0:0:0:
320,0,48640,1,0,0:0:0:0:
448,0,48685,1,0,0:0:0:0:
64,0,48731,1,0,0:0:0:0:
192,0,48776,1,0,0:0:0:0:
320,0,48821,1,0,0:0:0:0:
448,0,48867,1,0,0:0:0:0:
64,0,48913,1,0,0:0:0:0:
192,0,48913,1,0,0:0:0:0:
320,0,48913,1,0,0:0:0:0:
64,0,49004,1,0,0:0:0:0:
192,0,49095,1,0,0:0:0:0:
320,0,49095,1,0,0:0:0:0:
448,0,49095,1,0,0:0:0:0:
320,0,49186,1,0,0:0:0:0:
192,0,49278,1,0,0:0:0:0:
64,0,49369,1,0,0:0:0:0:
320,0,49460,1,0,0:0:0:0:
448,0,49460,1,0,0:0:0:0:
64,0,49552,1,0,0:0:0:0:
192,0,49643,1,0,0:0:0:0:
320,0,49643,1,0,0:0:0:0:
448,0,49643,1,0,0:0:0:0:
192,0,49733,1,0,0:0:0:0:
320,0,49825,1,0,0:0:0:0:
64,0,49916,1,0,0:0:0:0:
192,0,49916,1,0,0:0:0:0:
448,0,49916,1,0,0:0:0:0:
192,0,50007,1,0,0:0:0:0:
320,0,50099,1,0,0:0:0:0:
64,0,50190,1,0,0:0:0:0:
192,0,50190,1,0,0:0:0:0:
448,0,50190,1,0,0:0:0:0:
448,0,50281,1,0,0:0:0:0:
448,0,50373,1,0,0:0:0:0:
64,0,50464,1,0,0:0:0:0:
192,0,50464,1,0,0:0:0:0:
320,0,50464,1,0,0:0:0:0:
448,0,50555,1,0,0:0:0:0:
320,0,50600,1,0,0:0:0:0:
192,0,50646,1,0,0:0:0:0:
64,0,50692,1,0,0:0:0:0:
192,0,50737,1,0,0:0:0:0:
320,0,50737,1,0,0:0:0:0:
448,0,50737,1,0,0:0:0:0:
320,0,50851,1,0,0:0:0:0:
448,0,50851,1,0,0:0:0:0:
64,0,50988,1,0,0:0:0:0:
192,0,50988,1,0,0:0:0:0:
64,0,51102,1,0,0:0:0:0:
192,0,51102,1,0,0:0:0:0:
320,0,51102,1,0,0:0:0:0:
448,0,51102,1,0,0:0:0:0:
448,0,51193,1,0,0:0:0:0:
448,0,51285,1,0,0:0:0:0:
64,0,51376,1,0,0:0:0:0:
192,0,51376,1,0,0:0:0:0:
320,0,51376,1,0,0:0:0:0:
192,0,51467,1,0,0:0:0:0:
192,0,51558,1,0,0:0:0:0:
448,0,51649,1,0,0:0:0:0:
320,0,51695,1,0,0:0:0:0:
64,0,51740,1,0,0:0:0:0:
192,0,51786,1,0,0:0:0:0:
320,0,51832,1,0,0:0:0:0:
448,0,51832,1,0,0:0:0:0:
64,0,51878,1,0,0:0:0:0:
192,0,51878,1,0,0:0:0:0:
448,0,51923,1,0,0:0:0:0:
192,0,52014,1,0,0:0:0:0:
320,0,52014,1,0,0:0:0:0:
320,0,52106,1,0,0:0:0:0:
448,0,52106,1,0,0:0:0:0:
64,0,52151,1,0,0:0:0:0:
192,0,52197,1,0,0:0:0:0:
320,0,52288,1,0,0:0:0:0:
448,0,52288,1,0,0:0:0:0:
320,0,52379,1,0,0:0:0:0:
448,0,52379,1,0,0:0:0:0:
64,0,52425,1,0,0:0:0:0:
192,0,52470,1,0,0:0:0:0:
320,0,52516,1,0,0:0:0:0:
64,0,52561,1,0,0:0:0:0:
448,0,52561,1,0,0:0:0:0:
192,0,52630,1,0,0:0:0:0:
64,0,52675,1,0,0:0:0:0:
320,0,52744,1,0,0:0:0:0:
320,0,52835,1,0,0:0:0:0:
448,0,52835,1,0,0:0:0:0:
64,0,52880,1,0,0:0:0:0:
192,0,52926,1,0,0:0:0:0:
320,0,52972,1,0,0:0:0:0:
448,0,53018,1,0,0:0:0:0:
192,0,53063,1,0,0:0:0:0:
320,0,53109,1,0,0:0:0:0:
448,0,53154,1,0,0:0:0:0:
64,0,53200,1,0,0:0:0:0:
192,0,53246,1,0,0:0:0:0:
320,0,53291,1,0,0:0:0:0:
448,0,53291,1,0,0:0:0:0:
64,0,53473,1,0,0:0:0:0:
192,0,53473,1,0,0:0:0:0:
192,0,53565,1,0,0:0:0:0:
320,0,53565,1,0,0:0:0:0:
320,0,53656,1,0,0:0:0:0:
448,0,53656,1,0,0:0:0:0:
64,0,53747,1,0,0:0:0:0:
448,0,53839,128,0,53930:0:0:0:0:
64,0,54021,1,0,0:0:0:0:
192,0,54021,1,0,0:0:0:0:
320,0,54021,1,0,0:0:0:0:
64,0,54113,1,0,0:0:0:0:
192,0,54113,1,0,0:0:0:0:
320,0,54203,1,0,0:0:0:0:
448,0,54203,1,0,0:0:0:0:
320,0,54294,1,0,0:0:0:0:
448,0,54294,1,0,0:0:0:0:
192,0,54340,1,0,0:0:0:0:
64,0,54386,1,0,0:0:0:0:
448,0,54432,1,0,0:0:0:0:
192,0,54477,1,0,0:0:0:0:
320,0,54523,1,0,0:0:0:0:
64,0,54568,1,0,0:0:0:0:
448,0,54613,1,0,0:0:0:0:
320,0,54660,1,0,0:0:0:0:
192,0,54705,1,0,0:0:0:0:
64,0,54751,1,0,0:0:0:0:
448,0,54751,1,0,0:0:0:0:
320,0,54796,1,0,0:0:0:0:
192,0,54842,1,0,0:0:0:0:
64,0,54933,1,0,0:0:0:0:
448,0,54933,1,0,0:0:0:0:
192,0,54979,1,0,0:0:0:0:
320,0,55025,1,0,0:0:0:0:
448,0,55070,1,0,0:0:0:0:
64,0,55115,1,0,0:0:0:0:
192,0,55115,1,0,0:0:0:0:
320,0,55161,1,0,0:0:0:0:
448,0,55206,1,0,0:0:0:0:
64,0,55253,1,0,0:0:0:0:
192,0,55298,1,0,0:0:0:0:
320,0,55298,1,0,0:0:0:0:
448,0,55344,1,0,0:0:0:0:
64,0,55389,1,0,0:0:0:0:
192,0,55435,1,0,0:0:0:0:
320,0,55480,1,0,0:0:0:0:
448,0,55480,1,0,0:0:0:0:
320,0,55572,1,0,0:0:0:0:
448,0,55572,1,0,0:0:0:0:
64,0,55663,1,0,0:0:0:0:
192,0,55663,1,0,0:0:0:0:
64,0,55754,1,0,0:0:0:0:
192,0,55754,1,0,0:0:0:0:
320,0,55754,1,0,0:0:0:0:
448,0,55754,1,0,0:0:0:0:
320,0,55846,1,0,0:0:0:0:
448,0,55846,1,0,0:0:0:0:
64,0,55937,1,0,0:0:0:0:
192,0,55937,1,0,0:0:0:0:
64,0,56027,1,0,0:0:0:0:
192,0,56027,1,0,0:0:0:0:
320,0,56027,1,0,0:0:0:0:
320,0,56119,1,0,0:0:0:0:
448,0,56119,1,0,0:0:0:0:
64,0,56210,1,0,0:0:0:0:
192,0,56210,1,0,0:0:0:0:
320,0,56301,1,0,0:0:0:0:
448,0,56301,1,0,0:0:0:0:
192,0,56347,1,0,0:0:0:0:
64,0,56393,1,0,0:0:0:0:
448,0,56438,1,0,0:0:0:0:
320,0,56484,1,0,0:0:0:0:
192,0,56529,1,0,0:0:0:0:
64,0,56575,1,0,0:0:0:0:
448,0,56575,1,0,0:0:0:0:
320,0,56689,1,0,0:0:0:0:
448,0,56689,1,0,0:0:0:0:
64,0,56758,1,0,0:0:0:0:
192,0,56758,1,0,0:0:0:0:
64,0,56940,1,0,0:0:0:0:
448,0,56940,1,0,0:0:0:0:
192,0,56986,1,0,0:0:0:0:
320,0,57031,1,0,0:0:0:0:
448,0,57077,1,0,0:0:0:0:
64,0,57122,1,0,0:0:0:0:
192,0,57168,1,0,0:0:0:0:
320,0,57213,1,0,0:0:0:0:
448,0,57260,1,0,0:0:0:0:
192,0,57305,1,0,0:0:0:0:
64,0,57350,1,0,0:0:0:0:
448,0,57396,1,0,0:0:0:0:
320,0,57441,1,0,0:0:0:0:
192,0,57487,1,0,0:0:0:0:
64,0,57533,1,0,0:0:0:0:
448,0,57579,1,0,0:0:0:0:
192,0,57624,1,0,0:0:0:0:
320,0,57670,1,0,0:0:0:0:
64,0,57715,1,0,0:0:0:0:
192,0,57760,1,0,0:0:0:0:
320,0,57806,1,0,0:0:0:0:
448,0,57852,1,0,0:0:0:0:
192,0,57898,1,0,0:0:0:0:
320,0,57943,1,0,0:0:0:0:
64,0,57989,1,0,0:0:0:0:
448,0,58034,1,0,0:0:0:0:
192,0,58080,1,0,0:0:0:0:
320,0,58126,1,0,0:0:0:0:
64,0,58172,1,0,0:0:0:0:
192,0,58217,1,0,0:0:0:0:
320,0,58262,1,0,0:0:0:0:
448,0,58308,1,0,0:0:0:0:
64,0,58353,1,0,0:0:0:0:
192,0,58400,1,0,0:0:0:0:
320,0,58400,1,0,0:0:0:0:
320,0,58491,1,0,0:0:0:0:
192,0,58582,1,0,0:0:0:0:
64,0,58673,1,0,0:0:0:0:
192,0,58673,1,0,0:0:0:0:
448,0,58673,1,0,0:0:0:0:
448,0,58764,1,0,0:0:0:0:
320,0,58810,1,0,0:0:0:0:
192,0,58855,1,0,0:0:0:0:
64,0,58946,1,0,0:0:0:0:
64,0,59129,1,0,0:0:0:0:
192,0,59129,1,0,0:0:0:0:
320,0,59129,1,0,0:0:0:0:
448,0,59129,1,0,0:0:0:0:
192,0,59266,1,0,0:0:0:0:
448,0,59312,128,0,59494:0:0:0:0:
192,0,59494,1,0,0:0:0:0:
192,0,59676,1,0,0:0:0:0:
64,0,59722,1,0,0:0:0:0:
320,0,59767,1,0,0:0:0:0:
448,0,59813,1,0,0:0:0:0:
64,0,59859,1,0,0:0:0:0:
192,0,59859,1,0,0:0:0:0:
192,0,59950,1,0,0:0:0:0:
320,0,60041,1,0,0:0:0:0:
192,0,60133,1,0,0:0:0:0:
320,0,60133,1,0,0:0:0:0:
448,0,60133,1,0,0:0:0:0:
64,0,60224,1,0,0:0:0:0:
192,0,60269,1,0,0:0:0:0:
448,0,60315,1,0,0:0:0:0:
320,0,60360,1,0,0:0:0:0:
192,0,60406,1,0,0:0:0:0:
64,0,60452,1,0,0:0:0:0:
448,0,60497,1,0,0:0:0:0:
192,0,60543,1,0,0:0:0:0:
320,0,60588,1,0,0:0:0:0:
64,0,60680,1,0,0:0:0:0:
448,0,60680,1,0,0:0:0:0:
64,0,60862,1,0,0:0:0:0:
192,0,60862,1,0,0:0:0:0:
320,0,60907,1,0,0:0:0:0:
448,0,60953,1,0,0:0:0:0:
64,0,60999,1,0,0:0:0:0:
192,0,61045,1,0,0:0:0:0:
320,0,61090,1,0,0:0:0:0:
64,0,61136,1,0,0:0:0:0:
448,0,61136,1,0,0:0:0:0:
192,0,61227,1,0,0:0:0:0:
64,0,61318,1,0,0:0:0:0:
192,0,61318,1,0,0:0:0:0:
448,0,61318,1,0,0:0:0:0:
320,0,61409,1,0,0:0:0:0:
320,0,61500,1,0,0:0:0:0:
64,0,61592,1,0,0:0:0:0:
192,0,61592,1,0,0:0:0:0:
448,0,61592,1,0,0:0:0:0:
192,0,61774,1,0,0:0:0:0:
320,0,61774,1,0,0:0:0:0:
64,0,61866,1,0,0:0:0:0:
320,0,61866,1,0,0:0:0:0:
448,0,61866,1,0,0:0:0:0:
64,0,61957,1,0,0:0:0:0:
192,0,61957,1,0,0:0:0:0:
320,0,62048,1,0,0:0:0:0:
64,0,62140,1,0,0:0:0:0:
192,0,62140,1,0,0:0:0:0:
448,0,62140,1,0,0:0:0:0:
320,0,62230,1,0,0:0:0:0:
448,0,62230,1,0,0:0:0:0:
64,0,62321,1,0,0:0:0:0:
192,0,62321,1,0,0:0:0:0:
448,0,62413,1,0,0:0:0:0:
320,0,62459,1,0,0:0:0:0:
192,0,62504,1,0,0:0:0:0:
64,0,62550,1,0,0:0:0:0:
448,0,62595,1,0,0:0:0:0:
192,0,62641,1,0,0:0:0:0:
320,0,62686,1,0,0:0:0:0:
448,0,62732,1,0,0:0:0:0:
64,0,62778,1,0,0:0:0:0:
192,0,62778,1,0,0:0:0:0:
64,0,62869,1,0,0:0:0:0:
64,0,62960,1,0,0:0:0:0:
192,0,63052,1,0,0:0:0:0:
320,0,63052,1,0,0:0:0:0:
448,0,63052,1,0,0:0:0:0:
320,0,63142,1,0,0:0:0:0:
320,0,63233,1,0,0:0:0:0:
64,0,63325,1,0,0:0:0:0:
448,0,63325,1,0,0:0:0:0:
192,0,63371,1,0,0:0:0:0:
320,0,63416,1,0,0:0:0:0:
64,0,63507,1,0,0:0:0:0:
448,0,63507,128,0,63690:0:0:0:0:
192,0,63553,1,0,0:0:0:0:
64,0,63781,1,0,0:0:0:0:
448,0,63781,128,0,63964:0:0:0:0:
192,0,63826,1,0,0:0:0:0:
192,0,64054,1,0,0:0:0:0:
448,0,64054,128,0,64237:0:0:0:0:
320,0,64100,1,0,0:0:0:0:
64,0,64237,1,0,0:0:0:0:
192,0,64237,1,0,0:0:0:0:
320,0,64237,1,0,0:0:0:0:
192,0,64328,1,0,0:0:0:0:
192,0,64420,1,0,0:0:0:0:
320,0,64511,1,0,0:0:0:0:
448,0,64511,1,0,0:0:0:0:
64,0,64556,1,0,0:0:0:0:
192,0,64602,1,0,0:0:0:0:
320,0,64647,1,0,0:0:0:0:
448,0,64693,1,0,0:0:0:0:
192,0,64739,1,0,0:0:0:0:
64,0,64785,1,0,0:0:0:0:
320,0,64785,1,0,0:0:0:0:
448,0,64830,1,0,0:0:0:0:
192,0,64876,1,0,0:0:0:0:
320,0,64921,1,0,0:0:0:0:
64,0,64966,1,0,0:0:0:0:
448,0,64966,1,0,0:0:0:0:
192,0,65058,1,0,0:0:0:0:
320,0,65195,1,0,0:0:0:0:
192,0,65240,1,0,0:0:0:0:
320,0,65332,1,0,0:0:0:0:
448,0,65423,1,0,0:0:0:0:
192,0,65560,1,0,0:0:0:0:
64,0,65697,1,0,0:0:0:0:
320,0,65697,1,0,0:0:0:0:
448,0,65697,1,0,0:0:0:0:
320,0,65787,1,0,0:0:0:0:
192,0,65879,1,0,0:0:0:0:
64,0,65970,1,0,0:0:0:0:
192,0,65970,1,0,0:0:0:0:
320,0,66016,1,0,0:0:0:0:
448,0,66061,1,0,0:0:0:0:
64,0,66107,1,0,0:0:0:0:
192,0,66153,1,0,0:0:0:0:
320,0,66199,1,0,0:0:0:0:
448,0,66244,1,0,0:0:0:0:
192,0,66289,1,0,0:0:0:0:
320,0,66335,1,0,0:0:0:0:
64,0,66380,1,0,0:0:0:0:
192,0,66426,1,0,0:0:0:0:
320,0,66426,1,0,0:0:0:0:
448,0,66472,1,0,0:0:0:0:
64,0,66518,1,0,0:0:0:0:
192,0,66563,1,0,0:0:0:0:
320,0,66609,1,0,0:0:0:0:
448,0,66609,1,0,0:0:0:0:
64,0,66654,1,0,0:0:0:0:
192,0,66700,1,0,0:0:0:0:
320,0,66746,1,0,0:0:0:0:
64,0,66791,1,0,0:0:0:0:
448,0,66791,1,0,0:0:0:0:
192,0,66837,1,0,0:0:0:0:
320,0,66882,1,0,0:0:0:0:
448,0,66928,1,0,0:0:0:0:
64,0,66973,1,0,0:0:0:0:
192,0,66973,1,0,0:0:0:0:
320,0,67020,1,0,0:0:0:0:
448,0,67065,1,0,0:0:0:0:
64,0,67111,1,0,0:0:0:0:
192,0,67156,1,0,0:0:0:0:
320,0,67156,1,0,0:0:0:0:
320,0,67247,1,0,0:0:0:0:
192,0,67339,1,0,0:0:0:0:
64,0,67430,1,0,0:0:0:0:
320,0,67430,1,0,0:0:0:0:
448,0,67430,1,0,0:0:0:0:
320,0,67521,1,0,0:0:0:0:
192,0,67612,1,0,0:0:0:0:
64,0,67703,1,0,0:0:0:0:
320,0,67703,1,0,0:0:0:0:
448,0,67703,1,0,0:0:0:0:
192,0,67794,1,0,0:0:0:0:
192,0,67886,1,0,0:0:0:0:
64,0,67977,1,0,0:0:0:0:
320,0,67977,1,0,0:0:0:0:
448,0,67977,1,0,0:0:0:0:
320,0,68068,1,0,0:0:0:0:
448,0,68068,1,0,0:0:0:0:
64,0,68251,1,0,0:0:0:0:
192,0,68251,1,0,0:0:0:0:
320,0,68251,1,0,0:0:0:0:
448,0,68251,1,0,0:0:0:0:
64,0,68615,1,0,0:0:0:0:
192,0,68615,1,0,0:0:0:0:
320,0,68706,1,0,0:0:0:0:
192,0,68798,1,0,0:0:0:0:
448,0,68889,1,0,0:0:0:0:
320,0,68980,1,0,0:0:0:0:
192,0,69072,1,0,0:0:0:0:
448,0,69163,1,0,0:0:0:0:
64,0,69254,1,0,0:0:0:0:
192,0,69346,1,0,0:0:0:0:
320,0,69346,1,0,0:0:0:0:
448,0,69346,1,0,0:0:0:0:
64,0,69460,1,0,0:0:0:0:
320,0,69527,1,0,0:0:0:0:
64,0,69619,1,0,0:0:0:0:
192,0,69619,1,0,0:0:0:0:
192,0,69710,1,0,0:0:0:0:
448,0,69710,1,0,0:0:0:0:
320,0,69824,1,0,0:0:0:0:
192,0,69893,1,0,0:0:0:0:
448,0,69961,1,0,0:0:0:0:
64,0,70075,1,0,0:0:0:0:
192,0,70075,1,0,0:0:0:0:
448,0,70075,1,0,0:0:0:0:
64,0,70257,1,0,0:0:0:0:
192,0,70257,1,0,0:0:0:0:
320,0,70348,1,0,0:0:0:0:
448,0,70348,1,0,0:0:0:0:
64,0,70440,1,0,0:0:0:0:
192,0,70440,1,0,0:0:0:0:
320,0,70440,1,0,0:0:0:0:
448,0,70440,1,0,0:0:0:0:
64,0,70531,1,0,0:0:0:0:
192,0,70531,1,0,0:0:0:0:
192,0,70622,1,0,0:0:0:0:
320,0,70622,1,0,0:0:0:0:
320,0,70713,1,0,0:0:0:0:
448,0,70713,1,0,0:0:0:0:
64,0,70805,1,0,0:0:0:0:
192,0,70805,1,0,0:0:0:0:
320,0,70805,1,0,0:0:0:0:
448,0,70805,1,0,0:0:0:0:
64,0,70987,1,0,0:0:0:0:
320,0,70987,1,0,0:0:0:0:
448,0,70987,1,0,0:0:0:0:
64,0,71169,1,0,0:0:0:0:
192,0,71169,1,0,0:0:0:0:
320,0,71169,1,0,0:0:0:0:
448,0,71169,1,0,0:0:0:0:
64,0,71352,1,0,0:0:0:0:
192,0,71352,1,0,0:0:0:0:
320,0,71352,1,0,0:0:0:0:
64,0,71534,1,0,0:0:0:0:
192,0,71534,1,0,0:0:0:0:
320,0,71534,1,0,0:0:0:0:
448,0,71534,1,0,0:0:0:0:
64,0,71717,1,0,0:0:0:0:
192,0,71717,1,0,0:0:0:0:
320,0,71808,1,0,0:0:0:0:
448,0,71808,1,0,0:0:0:0:
64,0,71900,1,0,0:0:0:0:
192,0,71900,1,0,0:0:0:0:
320,0,71900,1,0,0:0:0:0:
448,0,71900,1,0,0:0:0:0:
64,0,71991,1,0,0:0:0:0:
192,0,71991,1,0,0:0:0:0:
320,0,72081,1,0,0:0:0:0:
448,0,72081,1,0,0:0:0:0:
192,0,72173,1,0,0:0:0:0:
320,0,72173,1,0,0:0:0:0:
64,0,72264,1,0,0:0:0:0:
192,0,72264,1,0,0:0:0:0:
320,0,72264,1,0,0:0:0:0:
448,0,72264,1,0,0:0:0:0:
64,0,72446,1,0,0:0:0:0:
192,0,72446,1,0,0:0:0:0:
448,0,72446,1,0,0:0:0:0:
64,0,72629,1,0,0:0:0:0:
192,0,72629,1,0,0:0:0:0:
320,0,72698,1,0,0:0:0:0:
448,0,72698,1,0,0:0:0:0:
64,0,72743,1,0,0:0:0:0:
192,0,72743,1,0,0:0:0:0:
320,0,72812,1,0,0:0:0:0:
448,0,72812,1,0,0:0:0:0:
64,0,72880,1,0,0:0:0:0:
192,0,72880,1,0,0:0:0:0:
320,0,72926,1,0,0:0:0:0:
448,0,72926,1,0,0:0:0:0:
64,0,72993,1,0,0:0:0:0:
192,0,72993,1,0,0:0:0:0:
320,0,73085,1,0,0:0:0:0:
448,0,73085,1,0,0:0:0:0:
192,0,73176,1,0,0:0:0:0:
320,0,73176,1,0,0:0:0:0:
64,0,73267,1,0,0:0:0:0:
448,0,73267,1,0,0:0:0:0:
64,0,73359,1,0,0:0:0:0:
192,0,73359,1,0,0:0:0:0:
320,0,73359,1,0,0:0:0:0:
448,0,73359,1,0,0:0:0:0:
192,0,73450,1,0,0:0:0:0:
320,0,73450,1,0,0:0:0:0:
64,0,73541,1,0,0:0:0:0:
448,0,73541,1,0,0:0:0:0:
192,0,73633,1,0,0:0:0:0:
320,0,73633,1,0,0:0:0:0:
64,0,73724,1,0,0:0:0:0:
192,0,73724,1,0,0:0:0:0:
320,0,73724,1,0,0:0:0:0:
448,0,73724,1,0,0:0:0:0:
192,0,73906,1,0,0:0:0:0:
320,0,73906,1,0,0:0:0:0:
448,0,73906,1,0,0:0:0:0:
64,0,73997,1,0,0:0:0:0:
64,0,74088,1,0,0:0:0:0:
192,0,74088,1,0,0:0:0:0:
320,0,74088,1,0,0:0:0:0:
448,0,74088,1,0,0:0:0:0:
64,0,74271,1,0,0:0:0:0:
192,0,74271,1,0,0:0:0:0:
448,0,74271,1,0,0:0:0:0:
64,0,74453,1,0,0:0:0:0:
192,0,74453,1,0,0:0:0:0:
320,0,74453,1,0,0:0:0:0:
448,0,74453,1,0,0:0:0:0:
64,0,74545,1,0,0:0:0:0:
192,0,74545,1,0,0:0:0:0:
320,0,74636,1,0,0:0:0:0:
448,0,74636,1,0,0:0:0:0:
192,0,74726,1,0,0:0:0:0:
320,0,74726,1,0,0:0:0:0:
64,0,74818,1,0,0:0:0:0:
192,0,74818,1,0,0:0:0:0:
448,0,74864,1,0,0:0:0:0:
320,0,74909,1,0,0:0:0:0:
192,0,74955,1,0,0:0:0:0:
64,0,75000,1,0,0:0:0:0:
192,0,75046,1,0,0:0:0:0:
320,0,75092,1,0,0:0:0:0:
448,0,75138,1,0,0:0:0:0:
64,0,75183,1,0,0:0:0:0:
192,0,75183,1,0,0:0:0:0:
320,0,75183,1,0,0:0:0:0:
64,0,75274,1,0,0:0:0:0:
192,0,75274,1,0,0:0:0:0:
320,0,75366,1,0,0:0:0:0:
448,0,75366,1,0,0:0:0:0:
64,0,75457,1,0,0:0:0:0:
192,0,75457,1,0,0:0:0:0:
64,0,75548,1,0,0:0:0:0:
192,0,75548,1,0,0:0:0:0:
320,0,75548,1,0,0:0:0:0:
448,0,75548,1,0,0:0:0:0:
192,0,75730,1,0,0:0:0:0:
320,0,75730,1,0,0:0:0:0:
64,0,75821,1,0,0:0:0:0:
448,0,75821,1,0,0:0:0:0:
64,0,75913,1,0,0:0:0:0:
192,0,75913,1,0,0:0:0:0:
320,0,75913,1,0,0:0:0:0:
448,0,75913,1,0,0:0:0:0:
192,0,76004,1,0,0:0:0:0:
320,0,76004,1,0,0:0:0:0:
64,0,76095,1,0,0:0:0:0:
448,0,76095,1,0,0:0:0:0:
192,0,76186,1,0,0:0:0:0:
320,0,76186,1,0,0:0:0:0:
64,0,76278,1,0,0:0:0:0:
192,0,76278,1,0,0:0:0:0:
320,0,76278,1,0,0:0:0:0:
448,0,76278,1,0,0:0:0:0:
64,0,76369,1,0,0:0:0:0:
448,0,76369,1,0,0:0:0:0:
192,0,76460,1,0,0:0:0:0:
320,0,76460,1,0,0:0:0:0:
64,0,76642,1,0,0:0:0:0:
192,0,76642,1,0,0:0:0:0:
320,0,76642,1,0,0:0:0:0:
448,0,76642,1,0,0:0:0:0:
192,0,76825,1,0,0:0:0:0:
320,0,76825,1,0,0:0:0:0:
448,0,76825,1,0,0:0:0:0:
64,0,77007,1,0,0:0:0:0:
192,0,77007,1,0,0:0:0:0:
320,0,77007,1,0,0:0:0:0:
448,0,77007,1,0,0:0:0:0:
64,0,77190,1,0,0:0:0:0:
320,0,77190,1,0,0:0:0:0:
448,0,77190,1,0,0:0:0:0:
64,0,77373,1,0,0:0:0:0:
192,0,77373,1,0,0:0:0:0:
320,0,77373,1,0,0:0:0:0:
448,0,77373,1,0,0:0:0:0:
64,0,77463,1,0,0:0:0:0:
192,0,77463,1,0,0:0:0:0:
320,0,77554,1,0,0:0:0:0:
448,0,77554,1,0,0:0:0:0:
64,0,77646,1,0,0:0:0:0:
192,0,77646,1,0,0:0:0:0:
64,0,77737,1,0,0:0:0:0:
192,0,77737,1,0,0:0:0:0:
320,0,77737,1,0,0:0:0:0:
448,0,77737,1,0,0:0:0:0:
320,0,77828,1,0,0:0:0:0:
448,0,77828,1,0,0:0:0:0:
64,0,77920,1,0,0:0:0:0:
192,0,77920,1,0,0:0:0:0:
320,0,78011,1,0,0:0:0:0:
448,0,78011,1,0,0:0:0:0:
64,0,78102,1,0,0:0:0:0:
192,0,78102,1,0,0:0:0:0:
320,0,78102,1,0,0:0:0:0:
448,0,78102,1,0,0:0:0:0:
448,0,78285,1,0,0:0:0:0:
320,0,78330,1,0,0:0:0:0:
192,0,78375,1,0,0:0:0:0:
64,0,78421,1,0,0:0:0:0:
192,0,78466,1,0,0:0:0:0:
320,0,78466,1,0,0:0:0:0:
448,0,78466,1,0,0:0:0:0:
320,0,78558,1,0,0:0:0:0:
192,0,78649,1,0,0:0:0:0:
448,0,78740,1,0,0:0:0:0:
64,0,78832,1,0,0:0:0:0:
192,0,78832,1,0,0:0:0:0:
320,0,78832,1,0,0:0:0:0:
448,0,78832,1,0,0:0:0:0:
64,0,78923,1,0,0:0:0:0:
192,0,78923,1,0,0:0:0:0:
192,0,79014,1,0,0:0:0:0:
320,0,79014,1,0,0:0:0:0:
320,0,79106,1,0,0:0:0:0:
448,0,79106,1,0,0:0:0:0:
64,0,79196,1,0,0:0:0:0:
192,0,79196,1,0,0:0:0:0:
320,0,79196,1,0,0:0:0:0:
448,0,79196,1,0,0:0:0:0:
64,0,79287,1,0,0:0:0:0:
192,0,79287,1,0,0:0:0:0:
320,0,79379,1,0,0:0:0:0:
448,0,79379,1,0,0:0:0:0:
64,0,79561,1,0,0:0:0:0:
192,0,79561,1,0,0:0:0:0:
320,0,79561,1,0,0:0:0:0:
448,0,79561,1,0,0:0:0:0:
192,0,79653,1,0,0:0:0:0:
64,0,79744,1,0,0:0:0:0:
320,0,79744,1,0,0:0:0:0:
448,0,79744,1,0,0:0:0:0:
64,0,79926,1,0,0:0:0:0:
192,0,79926,1,0,0:0:0:0:
320,0,79926,1,0,0:0:0:0:
448,0,79926,1,0,0:0:0:0:
64,0,80108,1,0,0:0:0:0:
192,0,80108,1,0,0:0:0:0:
448,0,80108,1,0,0:0:0:0:
64,0,80291,1,0,0:0:0:0:
192,0,80291,1,0,0:0:0:0:
320,0,80291,1,0,0:0:0:0:
448,0,80291,1,0,0:0:0:0:
320,0,80382,1,0,0:0:0:0:
448,0,80382,1,0,0:0:0:0:
64,0,80473,1,0,0:0:0:0:
192,0,80473,1,0,0:0:0:0:
192,0,80565,1,0,0:0:0:0:
320,0,80565,1,0,0:0:0:0:
64,0,80656,1,0,0:0:0:0:
192,0,80656,1,0,0:0:0:0:
320,0,80656,1,0,0:0:0:0:
448,0,80656,1,0,0:0:0:0:
64,0,80747,1,0,0:0:0:0:
448,0,80747,1,0,0:0:0:0:
192,0,80839,1,0,0:0:0:0:
320,0,80839,1,0,0:0:0:0:
64,0,80930,1,0,0:0:0:0:
448,0,80930,1,0,0:0:0:0:
64,0,81020,1,0,0:0:0:0:
192,0,81020,1,0,0:0:0:0:
320,0,81020,1,0,0:0:0:0:
448,0,81020,1,0,0:0:0:0:
320,0,81203,1,0,0:0:0:0:
448,0,81203,1,0,0:0:0:0:
64,0,81249,1,0,0:0:0:0:
192,0,81294,1,0,0:0:0:0:
320,0,81386,1,0,0:0:0:0:
448,0,81386,1,0,0:0:0:0:
192,0,81477,1,0,0:0:0:0:
320,0,81477,1,0,0:0:0:0:
64,0,81568,1,0,0:0:0:0:
192,0,81568,1,0,0:0:0:0:
320,0,81660,1,0,0:0:0:0:
448,0,81660,1,0,0:0:0:0:
64,0,81751,1,0,0:0:0:0:
192,0,81751,1,0,0:0:0:0:
320,0,81751,1,0,0:0:0:0:
448,0,81751,1,0,0:0:0:0:
64,0,81842,1,0,0:0:0:0:
192,0,81842,1,0,0:0:0:0:
320,0,81933,1,0,0:0:0:0:
448,0,81933,1,0,0:0:0:0:
64,0,82024,1,0,0:0:0:0:
192,0,82024,1,0,0:0:0:0:
64,0,82115,1,0,0:0:0:0:
192,0,82115,1,0,0:0:0:0:
320,0,82115,1,0,0:0:0:0:
448,0,82115,1,0,0:0:0:0:
320,0,82206,1,0,0:0:0:0:
448,0,82206,1,0,0:0:0:0:
192,0,82298,1,0,0:0:0:0:
320,0,82298,1,0,0:0:0:0:
64,0,82389,1,0,0:0:0:0:
448,0,82389,1,0,0:0:0:0:
64,0,82480,1,0,0:0:0:0:
192,0,82480,1,0,0:0:0:0:
320,0,82480,1,0,0:0:0:0:
448,0,82480,1,0,0:0:0:0:
64,0,82663,1,0,0:0:0:0:
320,0,82663,1,0,0:0:0:0:
448,0,82663,1,0,0:0:0:0:
64,0,82845,1,0,0:0:0:0:
192,0,82845,1,0,0:0:0:0:
320,0,82845,1,0,0:0:0:0:
448,0,82845,1,0,0:0:0:0:
320,0,82936,1,0,0:0:0:0:
448,0,82936,1,0,0:0:0:0:
64,0,83027,1,0,0:0:0:0:
192,0,83027,1,0,0:0:0:0:
64,0,83210,1,0,0:0:0:0:
192,0,83210,1,0,0:0:0:0:
320,0,83210,1,0,0:0:0:0:
448,0,83210,1,0,0:0:0:0:
192,0,83301,1,0,0:0:0:0:
320,0,83301,1,0,0:0:0:0:
320,0,83393,1,0,0:0:0:0:
448,0,83393,1,0,0:0:0:0:
64,0,83484,1,0,0:0:0:0:
192,0,83484,1,0,0:0:0:0:
64,0,83575,1,0,0:0:0:0:
192,0,83575,1,0,0:0:0:0:
320,0,83575,1,0,0:0:0:0:
448,0,83575,1,0,0:0:0:0:
320,0,83666,1,0,0:0:0:0:
448,0,83666,1,0,0:0:0:0:
64,0,83757,1,0,0:0:0:0:
192,0,83757,1,0,0:0:0:0:
320,0,83848,1,0,0:0:0:0:
448,0,83848,1,0,0:0:0:0:
64,0,83940,1,0,0:0:0:0:
192,0,83940,1,0,0:0:0:0:
320,0,83940,1,0,0:0:0:0:
448,0,83940,1,0,0:0:0:0:
64,0,84122,1,0,0:0:0:0:
192,0,84122,1,0,0:0:0:0:
448,0,84122,1,0,0:0:0:0:
64,0,84305,1,0,0:0:0:0:
192,0,84305,1,0,0:0:0:0:
320,0,84305,1,0,0:0:0:0:
448,0,84350,1,0,0:0:0:0:
320,0,84396,1,0,0:0:0:0:
192,0,84441,1,0,0:0:0:0:
448,0,84487,1,0,0:0:0:0:
64,0,84533,1,0,0:0:0:0:
192,0,84578,1,0,0:0:0:0:
320,0,84624,1,0,0:0:0:0:
64,0,84669,1,0,0:0:0:0:
192,0,84669,1,0,0:0:0:0:
448,0,84669,1,0,0:0:0:0:
64,0,84760,1,0,0:0:0:0:
192,0,84760,1,0,0:0:0:0:
320,0,84852,1,0,0:0:0:0:
448,0,84852,1,0,0:0:0:0:
192,0,84943,1,0,0:0:0:0:
320,0,84943,1,0,0:0:0:0:
64,0,85034,1,0,0:0:0:0:
192,0,85034,1,0,0:0:0:0:
320,0,85034,1,0,0:0:0:0:
448,0,85034,1,0,0:0:0:0:
64,0,85126,1,0,0:0:0:0:
448,0,85126,1,0,0:0:0:0:
192,0,85217,1,0,0:0:0:0:
320,0,85217,1,0,0:0:0:0:
64,0,85308,1,0,0:0:0:0:
448,0,85308,1,0,0:0:0:0:
64,0,85400,1,0,0:0:0:0:
192,0,85400,1,0,0:0:0:0:
320,0,85400,1,0,0:0:0:0:
448,0,85400,1,0,0:0:0:0:
64,0,85581,1,0,0:0:0:0:
192,0,85581,1,0,0:0:0:0:
320,0,85581,1,0,0:0:0:0:
64,0,85764,1,0,0:0:0:0:
192,0,85764,1,0,0:0:0:0:
320,0,85764,1,0,0:0:0:0:
448,0,85764,1,0,0:0:0:0:
320,0,85855,1,0,0:0:0:0:
448,0,85855,1,0,0:0:0:0:
64,0,85946,1,0,0:0:0:0:
192,0,85946,1,0,0:0:0:0:
320,0,86038,1,0,0:0:0:0:
448,0,86038,1,0,0:0:0:0:
64,0,86129,1,0,0:0:0:0:
192,0,86129,1,0,0:0:0:0:
320,0,86129,1,0,0:0:0:0:
448,0,86129,1,0,0:0:0:0:
64,0,86220,1,0,0:0:0:0:
192,0,86220,1,0,0:0:0:0:
192,0,86312,1,0,0:0:0:0:
320,0,86312,1,0,0:0:0:0:
320,0,86402,1,0,0:0:0:0:
448,0,86402,1,0,0:0:0:0:
64,0,86493,1,0,0:0:0:0:
192,0,86493,1,0,0:0:0:0:
320,0,86493,1,0,0:0:0:0:
448,0,86493,1,0,0:0:0:0:
64,0,86585,1,0,0:0:0:0:
192,0,86585,1,0,0:0:0:0:
320,0,86676,1,0,0:0:0:0:
448,0,86676,1,0,0:0:0:0:
64,0,86767,1,0,0:0:0:0:
192,0,86767,1,0,0:0:0:0:
64,0,86859,1,0,0:0:0:0:
192,0,86859,1,0,0:0:0:0:
320,0,86859,1,0,0:0:0:0:
448,0,86859,1,0,0:0:0:0:
64,0,87041,1,0,0:0:0:0:
192,0,87041,1,0,0:0:0:0:
320,0,87133,1,0,0:0:0:0:
448,0,87133,1,0,0:0:0:0:
64,0,87224,1,0,0:0:0:0:
192,0,87224,1,0,0:0:0:0:
320,0,87224,1,0,0:0:0:0:
448,0,87224,1,0,0:0:0:0:
64,0,87314,1,0,0:0:0:0:
192,0,87314,1,0,0:0:0:0:
320,0,87406,1,0,0:0:0:0:
448,0,87406,1,0,0:0:0:0:
64,0,87497,1,0,0:0:0:0:
192,0,87497,1,0,0:0:0:0:
64,0,87588,1,0,0:0:0:0:
192,0,87588,1,0,0:0:0:0:
320,0,87588,1,0,0:0:0:0:
448,0,87588,1,0,0:0:0:0:
448,0,87771,1,0,0:0:0:0:
320,0,87816,1,0,0:0:0:0:
192,0,87862,1,0,0:0:0:0:
64,0,87907,1,0,0:0:0:0:
448,0,87953,1,0,0:0:0:0:
192,0,87999,1,0,0:0:0:0:
320,0,88045,1,0,0:0:0:0:
64,0,88090,1,0,0:0:0:0:
192,0,88136,1,0,0:0:0:0:
320,0,88181,1,0,0:0:0:0:
448,0,88226,1,0,0:0:0:0:
64,0,88273,1,0,0:0:0:0:
192,0,88318,1,0,0:0:0:0:
320,0,88364,1,0,0:0:0:0:
448,0,88409,1,0,0:0:0:0:
192,0,88455,1,0,0:0:0:0:
64,0,88500,128,0,88774:0:0:0:0:
192,0,88683,1,0,0:0:0:0:
448,0,88774,128,0,88957:0:0:0:0:
320,0,88866,1,0,0:0:0:0:
64,0,89047,1,0,0:0:0:0:
192,0,89047,1,0,0:0:0:0:
320,0,89047,1,0,0:0:0:0:
448,0,89047,1,0,0:0:0:0:
64,0,89230,1,0,0:0:0:0:
448,0,89230,1,0,0:0:0:0:
192,0,89321,1,0,0:0:0:0:
320,0,89321,1,0,0:0:0:0:
64,0,89413,1,0,0:0:0:0:
448,0,89413,1,0,0:0:0:0:
64,0,89504,1,0,0:0:0:0:
192,0,89504,1,0,0:0:0:0:
320,0,89595,1,0,0:0:0:0:
448,0,89595,1,0,0:0:0:0:
192,0,89686,1,0,0:0:0:0:
320,0,89686,1,0,0:0:0:0:
64,0,89778,1,0,0:0:0:0:
192,0,89778,1,0,0:0:0:0:
320,0,89869,1,0,0:0:0:0:
448,0,89869,1,0,0:0:0:0:
64,0,89960,1,0,0:0:0:0:
192,0,90006,1,0,0:0:0:0:
448,0,90051,1,0,0:0:0:0:
320,0,90097,1,0,0:0:0:0:
192,0,90142,1,0,0:0:0:0:
64,0,90188,1,0,0:0:0:0:
448,0,90233,1,0,0:0:0:0:
192,0,90280,1,0,0:0:0:0:
320,0,90325,1,0,0:0:0:0:
64,0,90371,1,0,0:0:0:0:
192,0,90416,1,0,0:0:0:0:
320,0,90461,1,0,0:0:0:0:
64,0,90507,1,0,0:0:0:0:
192,0,90507,1,0,0:0:0:0:
448,0,90507,1,0,0:0:0:0:
64,0,90690,1,0,0:0:0:0:
448,0,90690,1,0,0:0:0:0:
192,0,90781,1,0,0:0:0:0:
320,0,90781,1,0,0:0:0:0:
64,0,90872,1,0,0:0:0:0:
192,0,90872,1,0,0:0:0:0:
320,0,90963,1,0,0:0:0:0:
448,0,90963,1,0,0:0:0:0:
64,0,91054,1,0,0:0:0:0:
192,0,91054,1,0,0:0:0:0:
64,0,91237,1,0,0:0:0:0:
192,0,91237,1,0,0:0:0:0:
320,0,91237,1,0,0:0:0:0:
448,0,91237,1,0,0:0:0:0:
320,0,91328,1,0,0:0:0:0:
448,0,91328,1,0,0:0:0:0:
64,0,91420,1,0,0:0:0:0:
192,0,91420,1,0,0:0:0:0:
448,0,91465,1,0,0:0:0:0:
320,0,91511,1,0,0:0:0:0:
192,0,91556,1,0,0:0:0:0:
64,0,91602,1,0,0:0:0:0:
192,0,91693,1,0,0:0:0:0:
320,0,91739,1,0,0:0:0:0:
448,0,91784,1,0,0:0:0:0:
64,0,91830,1,0,0:0:0:0:
192,0,91875,1,0,0:0:0:0:
320,0,91921,1,0,0:0:0:0:
64,0,91966,1,0,0:0:0:0:
192,0,91966,1,0,0:0:0:0:
448,0,91966,1,0,0:0:0:0:
320,0,92035,1,0,0:0:0:0:
64,0,92080,1,0,0:0:0:0:
192,0,92080,1,0,0:0:0:0:
448,0,92149,1,0,0:0:0:0:
192,0,92218,1,0,0:0:0:0:
320,0,92218,1,0,0:0:0:0:
64,0,92263,1,0,0:0:0:0:
192,0,92332,1,0,0:0:0:0:
320,0,92332,1,0,0:0:0:0:
448,0,92332,1,0,0:0:0:0:
64,0,92400,1,0,0:0:0:0:
320,0,92446,1,0,0:0:0:0:
448,0,92446,1,0,0:0:0:0:
192,0,92514,1,0,0:0:0:0:
64,0,92582,1,0,0:0:0:0:
448,0,92582,1,0,0:0:0:0:
64,0,92696,1,0,0:0:0:0:
192,0,92696,1,0,0:0:0:0:
320,0,92696,1,0,0:0:0:0:
448,0,92696,1,0,0:0:0:0:
192,0,92787,1,0,0:0:0:0:
320,0,92787,1,0,0:0:0:0:
320,0,92879,1,0,0:0:0:0:
448,0,92879,1,0,0:0:0:0:
64,0,92970,1,0,0:0:0:0:
192,0,92970,1,0,0:0:0:0:
64,0,93061,1,0,0:0:0:0:
192,0,93061,1,0,0:0:0:0:
320,0,93061,1,0,0:0:0:0:
448,0,93061,1,0,0:0:0:0:
320,0,93153,1,0,0:0:0:0:
448,0,93153,1,0,0:0:0:0:
64,0,93244,1,0,0:0:0:0:
192,0,93244,1,0,0:0:0:0:
320,0,93335,1,0,0:0:0:0:
448,0,93335,1,0,0:0:0:0:
64,0,93426,1,0,0:0:0:0:
192,0,93426,1,0,0:0:0:0:
320,0,93608,1,0,0:0:0:0:
64,0,93791,1,0,0:0:0:0:
320,0,93973,1,0,0:0:0:0:
64,0,94156,1,0,0:0:0:0:
448,0,94156,1,0,0:0:0:0:
320,0,94339,1,0,0:0:0:0:
192,0,94520,1,0,0:0:0:0:
448,0,94703,1,0,0:0:0:0:
64,0,94886,1,0,0:0:0:0:
320,0,95068,1,0,0:0:0:0:
192,0,95251,1,0,0:0:0:0:
448,0,95433,1,0,0:0:0:0:
64,0,95615,1,0,0:0:0:0:
192,0,95615,1,0,0:0:0:0:
320,0,95798,1,0,0:0:0:0:
64,0,95980,1,0,0:0:0:0:
448,0,96163,1,0,0:0:0:0:
192,0,96345,1,0,0:0:0:0:
320,0,96527,1,0,0:0:0:0:
64,0,96710,1,0,0:0:0:0:
320,0,96893,1,0,0:0:0:0:
192,0,97075,1,0,0:0:0:0:
448,0,97257,1,0,0:0:0:0:
64,0,97440,1,0,0:0:0:0:
320,0,97622,1,0,0:0:0:0:
64,0,97805,1,0,0:0:0:0:
320,0,97850,1,0,0:0:0:0:
64,0,97896,1,0,0:0:0:0:
192,0,97986,1,0,0:0:0:0:
192,0,98169,1,0,0:0:0:0:
320,0,98215,1,0,0:0:0:0:
448,0,98260,1,0,0:0:0:0:
192,0,98352,1,0,0:0:0:0:
192,0,98534,1,0,0:0:0:0:
320,0,98534,1,0,0:0:0:0:
448,0,98580,1,0,0:0:0:0:
64,0,98626,1,0,0:0:0:0:
320,0,98717,1,0,0:0:0:0:
192,0,98899,1,0,0:0:0:0:
448,0,98945,1,0,0:0:0:0:
320,0,98990,1,0,0:0:0:0:
320,0,99264,1,0,0:0:0:0:
448,0,99264,1,0,0:0:0:0:
64,0,99310,1,0,0:0:0:0:
192,0,99355,1,0,0:0:0:0:
448,0,99446,1,0,0:0:0:0:
64,0,99538,1,0,0:0:0:0:
320,0,99629,1,0,0:0:0:0:
192,0,99674,1,0,0:0:0:0:
448,0,99720,1,0,0:0:0:0:
64,0,99811,1,0,0:0:0:0:
192,0,99902,1,0,0:0:0:0:
320,0,99993,1,0,0:0:0:0:
448,0,99993,1,0,0:0:0:0:
64,0,100040,1,0,0:0:0:0:
192,0,100085,1,0,0:0:0:0:
320,0,100176,1,0,0:0:0:0:
448,0,100267,1,0,0:0:0:0:
64,0,100359,1,0,0:0:0:0:
320,0,100404,1,0,0:0:0:0:
192,0,100450,1,0,0:0:0:0:
448,0,100541,1,0,0:0:0:0:
320,0,100633,1,0,0:0:0:0:
192,0,100723,1,0,0:0:0:0:
64,0,100769,1,0,0:0:0:0:
448,0,100814,1,0,0:0:0:0:
192,0,100906,1,0,0:0:0:0:
64,0,100997,1,0,0:0:0:0:
192,0,101088,1,0,0:0:0:0:
320,0,101133,1,0,0:0:0:0:
448,0,101180,1,0,0:0:0:0:
192,0,101271,1,0,0:0:0:0:
320,0,101362,1,0,0:0:0:0:
64,0,101453,1,0,0:0:0:0:
448,0,101453,1,0,0:0:0:0:
192,0,101545,1,0,0:0:0:0:
320,0,101635,1,0,0:0:0:0:
192,0,101726,1,0,0:0:0:0:
64,0,101818,1,0,0:0:0:0:
320,0,101909,1,0,0:0:0:0:
192,0,102000,1,0,0:0:0:0:
448,0,102092,1,0,0:0:0:0:
64,0,102183,1,0,0:0:0:0:
192,0,102274,1,0,0:0:0:0:
320,0,102366,1,0,0:0:0:0:
64,0,102456,1,0,0:0:0:0:
448,0,102456,1,0,0:0:0:0:
192,0,102547,1,0,0:0:0:0:
320,0,102639,1,0,0:0:0:0:
448,0,102730,1,0,0:0:0:0:
320,0,102821,1,0,0:0:0:0:
64,0,102913,1,0,0:0:0:0:
192,0,102913,1,0,0:0:0:0:
320,0,103004,1,0,0:0:0:0:
448,0,103095,1,0,0:0:0:0:
192,0,103186,1,0,0:0:0:0:
64,0,103278,1,0,0:0:0:0:
320,0,103460,1,0,0:0:0:0:
448,0,103551,1,0,0:0:0:0:
64,0,103642,1,0,0:0:0:0:
192,0,103688,1,0,0:0:0:0:
448,0,103733,1,0,0:0:0:0:
192,0,103825,1,0,0:0:0:0:
64,0,103916,1,0,0:0:0:0:
320,0,104007,1,0,0:0:0:0:
448,0,104053,1,0,0:0:0:0:
192,0,104099,1,0,0:0:0:0:
448,0,104190,1,0,0:0:0:0:
320,0,104280,1,0,0:0:0:0:
64,0,104372,1,0,0:0:0:0:
192,0,104372,1,0,0:0:0:0:
320,0,104418,1,0,0:0:0:0:
448,0,104463,1,0,0:0:0:0:
192,0,104554,1,0,0:0:0:0:
320,0,104554,1,0,0:0:0:0:
64,0,104646,1,0,0:0:0:0:
448,0,104646,1,0,0:0:0:0:
192,0,104737,1,0,0:0:0:0:
320,0,104737,1,0,0:0:0:0:
448,0,104782,1,0,0:0:0:0:
64,0,104828,1,0,0:0:0:0:
192,0,104920,1,0,0:0:0:0:
192,0,105011,1,0,0:0:0:0:
320,0,105102,1,0,0:0:0:0:
448,0,105102,1,0,0:0:0:0:
64,0,105147,1,0,0:0:0:0:
192,0,105193,1,0,0:0:0:0:
320,0,105284,1,0,0:0:0:0:
320,0,105375,1,0,0:0:0:0:
448,0,105375,1,0,0:0:0:0:
192,0,105466,1,0,0:0:0:0:
64,0,105513,1,0,0:0:0:0:
320,0,105558,1,0,0:0:0:0:
64,0,105649,1,0,0:0:0:0:
448,0,105649,1,0,0:0:0:0:
448,0,105740,1,0,0:0:0:0:
64,0,105832,1,0,0:0:0:0:
192,0,105832,1,0,0:0:0:0:
320,0,105877,1,0,0:0:0:0:
448,0,105923,1,0,0:0:0:0:
192,0,106014,1,0,0:0:0:0:
64,0,106105,1,0,0:0:0:0:
320,0,106105,1,0,0:0:0:0:
192,0,106196,1,0,0:0:0:0:
320,0,106242,1,0,0:0:0:0:
64,0,106287,1,0,0:0:0:0:
192,0,106379,1,0,0:0:0:0:
320,0,106379,1,0,0:0:0:0:
448,0,106470,1,0,0:0:0:0:
192,0,106561,1,0,0:0:0:0:
320,0,106606,1,0,0:0:0:0:
64,0,106653,1,0,0:0:0:0:
448,0,106744,1,0,0:0:0:0:
320,0,106835,1,0,0:0:0:0:
448,0,106835,1,0,0:0:0:0:
192,0,106926,1,0,0:0:0:0:
64,0,106972,1,0,0:0:0:0:
320,0,107017,1,0,0:0:0:0:
64,0,107108,1,0,0:0:0:0:
448,0,107108,1,0,0:0:0:0:
320,0,107200,1,0,0:0:0:0:
64,0,107291,1,0,0:0:0:0:
192,0,107291,1,0,0:0:0:0:
320,0,107337,1,0,0:0:0:0:
448,0,107382,1,0,0:0:0:0:
64,0,107473,1,0,0:0:0:0:
192,0,107565,1,0,0:0:0:0:
320,0,107565,1,0,0:0:0:0:
448,0,107656,1,0,0:0:0:0:
192,0,107701,1,0,0:0:0:0:
64,0,107747,1,0,0:0:0:0:
320,0,107838,1,0,0:0:0:0:
448,0,107838,1,0,0:0:0:0:
192,0,107929,1,0,0:0:0:0:
64,0,108020,1,0,0:0:0:0:
448,0,108020,1,0,0:0:0:0:
320,0,108066,1,0,0:0:0:0:
192,0,108112,1,0,0:0:0:0:
320,0,108203,1,0,0:0:0:0:
192,0,108294,1,0,0:0:0:0:
320,0,108294,1,0,0:0:0:0:
64,0,108386,1,0,0:0:0:0:
448,0,108431,1,0,0:0:0:0:
192,0,108477,1,0,0:0:0:0:
320,0,108568,1,0,0:0:0:0:
448,0,108568,1,0,0:0:0:0:
64,0,108660,1,0,0:0:0:0:
192,0,108750,1,0,0:0:0:0:
320,0,108750,1,0,0:0:0:0:
64,0,108796,1,0,0:0:0:0:
448,0,108841,1,0,0:0:0:0:
320,0,108933,1,0,0:0:0:0:
64,0,109024,1,0,0:0:0:0:
192,0,109024,1,0,0:0:0:0:
320,0,109115,1,0,0:0:0:0:
192,0,109160,1,0,0:0:0:0:
64,0,109206,1,0,0:0:0:0:
320,0,109298,1,0,0:0:0:0:
448,0,109298,1,0,0:0:0:0:
192,0,109389,1,0,0:0:0:0:
320,0,109480,1,0,0:0:0:0:
64,0,109526,1,0,0:0:0:0:
448,0,109572,1,0,0:0:0:0:
64,0,109662,1,0,0:0:0:0:
192,0,109753,1,0,0:0:0:0:
320,0,109753,1,0,0:0:0:0:
64,0,109845,1,0,0:0:0:0:
448,0,109845,1,0,0:0:0:0:
320,0,109891,1,0,0:0:0:0:
192,0,109936,1,0,0:0:0:0:
320,0,110027,1,0,0:0:0:0:
448,0,110027,1,0,0:0:0:0:
64,0,110119,1,0,0:0:0:0:
192,0,110210,1,0,0:0:0:0:
320,0,110255,1,0,0:0:0:0:
448,0,110301,1,0,0:0:0:0:
64,0,110393,1,0,0:0:0:0:
192,0,110393,1,0,0:0:0:0:
320,0,110484,1,0,0:0:0:0:
448,0,110484,1,0,0:0:0:0:
64,0,110574,1,0,0:0:0:0:
192,0,110574,1,0,0:0:0:0:
320,0,110620,1,0,0:0:0:0:
448,0,110666,1,0,0:0:0:0:
192,0,110757,1,0,0:0:0:0:
448,0,110848,1,0,0:0:0:0:
192,0,110940,1,0,0:0:0:0:
320,0,110940,1,0,0:0:0:0:
64,0,110985,1,0,0:0:0:0:
448,0,111031,1,0,0:0:0:0:
192,0,111122,1,0,0:0:0:0:
320,0,111213,1,0,0:0:0:0:
448,0,111213,1,0,0:0:0:0:
64,0,111305,1,0,0:0:0:0:
192,0,111350,1,0,0:0:0:0:
320,0,111395,1,0,0:0:0:0:
64,0,111486,1,0,0:0:0:0:
448,0,111486,1,0,0:0:0:0:
320,0,111578,1,0,0:0:0:0:
64,0,111669,1,0,0:0:0:0:
192,0,111669,1,0,0:0:0:0:
448,0,111715,1,0,0:0:0:0:
320,0,111760,1,0,0:0:0:0:
192,0,111852,1,0,0:0:0:0:
64,0,111943,1,0,0:0:0:0:
320,0,111943,1,0,0:0:0:0:
448,0,112034,1,0,0:0:0:0:
192,0,112080,1,0,0:0:0:0:
64,0,112126,1,0,0:0:0:0:
320,0,112217,1,0,0:0:0:0:
448,0,112217,1,0,0:0:0:0:
192,0,112307,1,0,0:0:0:0:
320,0,112399,1,0,0:0:0:0:
64,0,112445,1,0,0:0:0:0:
192,0,112490,1,0,0:0:0:0:
448,0,112581,1,0,0:0:0:0:
192,0,112673,1,0,0:0:0:0:
320,0,112673,1,0,0:0:0:0:
448,0,112764,1,0,0:0:0:0:
64,0,112809,1,0,0:0:0:0:
192,0,112855,1,0,0:0:0:0:
320,0,112946,1,0,0:0:0:0:
448,0,112946,1,0,0:0:0:0:
64,0,113038,1,0,0:0:0:0:
192,0,113129,1,0,0:0:0:0:
320,0,113129,1,0,0:0:0:0:
64,0,113174,1,0,0:0:0:0:
448,0,113220,1,0,0:0:0:0:
320,0,113311,1,0,0:0:0:0:
64,0,113402,1,0,0:0:0:0:
192,0,113402,1,0,0:0:0:0:
320,0,113493,1,0,0:0:0:0:
448,0,113540,1,0,0:0:0:0:
64,0,113585,1,0,0:0:0:0:
192,0,113676,1,0,0:0:0:0:
320,0,113676,1,0,0:0:0:0:
448,0,113767,1,0,0:0:0:0:
64,0,113859,1,0,0:0:0:0:
192,0,113859,1,0,0:0:0:0:
320,0,113904,1,0,0:0:0:0:
448,0,113950,1,0,0:0:0:0:
192,0,114041,1,0,0:0:0:0:
320,0,114132,1,0,0:0:0:0:
448,0,114132,1,0,0:0:0:0:
64,0,114223,1,0,0:0:0:0:
320,0,114269,1,0,0:0:0:0:
192,0,114314,1,0,0:0:0:0:
64,0,114406,1,0,0:0:0:0:
448,0,114406,1,0,0:0:0:0:
320,0,114497,1,0,0:0:0:0:
64,0,114588,1,0,0:0:0:0:
192,0,114588,1,0,0:0:0:0:
448,0,114633,1,0,0:0:0:0:
320,0,114680,1,0,0:0:0:0:
64,0,114771,1,0,0:0:0:0:
192,0,114862,1,0,0:0:0:0:
320,0,114862,1,0,0:0:0:0:
448,0,114953,1,0,0:0:0:0:
64,0,114999,1,0,0:0:0:0:
192,0,115044,1,0,0:0:0:0:
320,0,115135,1,0,0:0:0:0:
448,0,115135,1,0,0:0:0:0:
64,0,115226,1,0,0:0:0:0:
320,0,115318,1,0,0:0:0:0:
192,0,115364,1,0,0:0:0:0:
448,0,115409,1,0,0:0:0:0:
320,0,115500,1,0,0:0:0:0:
64,0,115592,1,0,0:0:0:0:
192,0,115592,1,0,0:0:0:0:
448,0,115683,1,0,0:0:0:0:
320,0,115728,1,0,0:0:0:0:
64,0,115774,1,0,0:0:0:0:
192,0,115865,1,0,0:0:0:0:
320,0,115865,1,0,0:0:0:0:
448,0,115956,1,0,0:0:0:0:
192,0,116047,1,0,0:0:0:0:
320,0,116047,1,0,0:0:0:0:
64,0,116093,1,0,0:0:0:0:
448,0,116139,1,0,0:0:0:0:
64,0,116230,1,0,0:0:0:0:
192,0,116230,1,0,0:0:0:0:
320,0,116321,1,0,0:0:0:0:
448,0,116321,1,0,0:0:0:0:
64,0,116413,1,0,0:0:0:0:
192,0,116413,1,0,0:0:0:0:
320,0,116458,1,0,0:0:0:0:
448,0,116504,1,0,0:0:0:0:
64,0,116595,1,0,0:0:0:0:
192,0,116595,1,0,0:0:0:0:
320,0,116686,1,0,0:0:0:0:
64,0,116777,1,0,0:0:0:0:
448,0,116777,1,0,0:0:0:0:
320,0,116823,1,0,0:0:0:0:
192,0,116868,1,0,0:0:0:0:
64,0,116914,1,0,0:0:0:0:
448,0,116960,1,0,0:0:0:0:
192,0,117006,1,0,0:0:0:0:
320,0,117051,1,0,0:0:0:0:
448,0,117097,1,0,0:0:0:0:
64,0,117142,1,0,0:0:0:0:
320,0,117188,1,0,0:0:0:0:
192,0,117233,1,0,0:0:0:0:
320,0,117325,1,0,0:0:0:0:
448,0,117325,1,0,0:0:0:0:
192,0,117416,1,0,0:0:0:0:
64,0,117507,1,0,0:0:0:0:
320,0,117507,1,0,0:0:0:0:
448,0,117507,1,0,0:0:0:0:
192,0,117599,1,0,0:0:0:0:
320,0,117689,1,0,0:0:0:0:
448,0,117689,1,0,0:0:0:0:
320,0,117780,1,0,0:0:0:0:
448,0,117780,1,0,0:0:0:0:
64,0,117872,1,0,0:0:0:0:
192,0,117872,1,0,0:0:0:0:
448,0,117940,1,0,0:0:0:0:
320,0,117986,1,0,0:0:0:0:
192,0,118054,1,0,0:0:0:0:
64,0,118123,1,0,0:0:0:0:
448,0,118168,1,0,0:0:0:0:
320,0,118237,1,0,0:0:0:0:
192,0,118282,1,0,0:0:0:0:
320,0,118328,1,0,0:0:0:0:
192,0,118373,1,0,0:0:0:0:
448,0,118420,1,0,0:0:0:0:
320,0,118465,1,0,0:0:0:0:
192,0,118511,1,0,0:0:0:0:
64,0,118556,1,0,0:0:0:0:
448,0,118601,1,0,0:0:0:0:
320,0,118647,1,0,0:0:0:0:
192,0,118693,1,0,0:0:0:0:
448,0,118784,1,0,0:0:0:0:
64,0,118830,1,0,0:0:0:0:
192,0,118875,1,0,0:0:0:0:
320,0,118966,1,0,0:0:0:0:
448,0,118966,1,0,0:0:0:0:
64,0,119012,1,0,0:0:0:0:
192,0,119058,1,0,0:0:0:0:
320,0,119149,1,0,0:0:0:0:
448,0,119194,1,0,0:0:0:0:
192,0,119240,1,0,0:0:0:0:
320,0,119332,1,0,0:0:0:0:
320,0,119423,1,0,0:0:0:0:
192,0,119513,1,0,0:0:0:0:
448,0,119513,1,0,0:0:0:0:
192,0,119605,1,0,0:0:0:0:
64,0,119696,1,0,0:0:0:0:
320,0,119742,1,0,0:0:0:0:
448,0,119787,1,0,0:0:0:0:
192,0,119833,1,0,0:0:0:0:
64,0,119879,1,0,0:0:0:0:
320,0,119924,1,0,0:0:0:0:
448,0,119970,1,0,0:0:0:0:
192,0,120015,1,0,0:0:0:0:
64,0,120061,1,0,0:0:0:0:
320,0,120129,1,0,0:0:0:0:
448,0,120175,1,0,0:0:0:0:
64,0,120244,1,0,0:0:0:0:
192,0,120244,1,0,0:0:0:0:
320,0,120244,1,0,0:0:0:0:
64,0,120426,1,0,0:0:0:0:
192,0,120426,1,0,0:0:0:0:
320,0,120426,1,0,0:0:0:0:
448,0,120426,1,0,0:0:0:0:
192,0,120608,1,0,0:0:0:0:
192,0,120700,1,0,0:0:0:0:
320,0,120791,1,0,0:0:0:0:
448,0,120791,1,0,0:0:0:0:
64,0,120836,1,0,0:0:0:0:
192,0,120882,1,0,0:0:0:0:
320,0,120927,1,0,0:0:0:0:
448,0,120973,1,0,0:0:0:0:
192,0,121156,1,0,0:0:0:0:
320,0,121156,1,0,0:0:0:0:
448,0,121201,1,0,0:0:0:0:
64,0,121246,1,0,0:0:0:0:
192,0,121293,1,0,0:0:0:0:
320,0,121338,1,0,0:0:0:0:
448,0,121384,1,0,0:0:0:0:
192,0,121429,1,0,0:0:0:0:
320,0,121475,1,0,0:0:0:0:
64,0,121520,1,0,0:0:0:0:
448,0,121566,1,0,0:0:0:0:
320,0,121612,1,0,0:0:0:0:
192,0,121658,1,0,0:0:0:0:
64,0,121703,1,0,0:0:0:0:
448,0,121703,1,0,0:0:0:0:
64,0,121886,1,0,0:0:0:0:
192,0,121886,1,0,0:0:0:0:
320,0,121886,1,0,0:0:0:0:
448,0,121886,1,0,0:0:0:0:
192,0,122068,1,0,0:0:0:0:
320,0,122068,1,0,0:0:0:0:
448,0,122068,1,0,0:0:0:0:
320,0,122250,1,0,0:0:0:0:
448,0,122250,1,0,0:0:0:0:
192,0,122296,1,0,0:0:0:0:
64,0,122341,1,0,0:0:0:0:
448,0,122387,1,0,0:0:0:0:
192,0,122433,1,0,0:0:0:0:
320,0,122433,1,0,0:0:0:0:
64,0,122615,1,0,0:0:0:0:
448,0,122615,1,0,0:0:0:0:
192,0,122684,1,0,0:0:0:0:
64,0,122729,1,0,0:0:0:0:
192,0,122798,1,0,0:0:0:0:
320,0,122843,1,0,0:0:0:0:
448,0,122889,1,0,0:0:0:0:
64,0,122934,1,0,0:0:0:0:
192,0,122980,1,0,0:0:0:0:
448,0,123026,1,0,0:0:0:0:
320,0,123071,1,0,0:0:0:0:
192,0,123117,1,0,0:0:0:0:
64,0,123162,1,0,0:0:0:0:
192,0,123345,1,0,0:0:0:0:
320,0,123345,1,0,0:0:0:0:
64,0,123527,1,0,0:0:0:0:
192,0,123527,1,0,0:0:0:0:
192,0,123619,1,0,0:0:0:0:
320,0,123619,1,0,0:0:0:0:
320,0,123710,1,0,0:0:0:0:
448,0,123710,1,0,0:0:0:0:
64,0,123755,1,0,0:0:0:0:
192,0,123801,1,0,0:0:0:0:
320,0,123846,1,0,0:0:0:0:
448,0,123893,1,0,0:0:0:0:
448,0,123983,1,0,0:0:0:0:
64,0,124074,1,0,0:0:0:0:
192,0,124074,1,0,0:0:0:0:
448,0,124120,1,0,0:0:0:0:
320,0,124166,1,0,0:0:0:0:
192,0,124212,1,0,0:0:0:0:
64,0,124257,1,0,0:0:0:0:
320,0,124348,1,0,0:0:0:0:
448,0,124348,1,0,0:0:0:0:
192,0,124440,1,0,0:0:0:0:
64,0,124485,1,0,0:0:0:0:
320,0,124531,1,0,0:0:0:0:
192,0,124622,1,0,0:0:0:0:
448,0,124667,1,0,0:0:0:0:
64,0,124713,1,0,0:0:0:0:
192,0,124804,1,0,0:0:0:0:
320,0,124804,1,0,0:0:0:0:
448,0,124850,1,0,0:0:0:0:
64,0,124895,1,0,0:0:0:0:
192,0,124986,1,0,0:0:0:0:
320,0,125033,1,0,0:0:0:0:
448,0,125078,1,0,0:0:0:0:
64,0,125169,1,0,0:0:0:0:
192,0,125215,1,0,0:0:0:0:
320,0,125260,1,0,0:0:0:0:
448,0,125306,1,0,0:0:0:0:
64,0,125352,1,0,0:0:0:0:
192,0,125397,1,0,0:0:0:0:
320,0,125443,1,0,0:0:0:0:
448,0,125488,1,0,0:0:0:0:
64,0,125534,1,0,0:0:0:0:
192,0,125534,1,0,0:0:0:0:
320,0,125602,1,0,0:0:0:0:
448,0,125602,1,0,0:0:0:0:
64,0,125648,1,0,0:0:0:0:
192,0,125648,1,0,0:0:0:0:
320,0,125716,1,0,0:0:0:0:
448,0,125716,1,0,0:0:0:0:
64,0,125785,1,0,0:0:0:0:
192,0,125785,1,0,0:0:0:0:
320,0,125831,1,0,0:0:0:0:
448,0,125831,1,0,0:0:0:0:
64,0,125899,1,0,0:0:0:0:
192,0,125899,1,0,0:0:0:0:
320,0,125967,1,0,0:0:0:0:
448,0,125967,1,0,0:0:0:0:
64,0,126013,1,0,0:0:0:0:
192,0,126013,1,0,0:0:0:0:
320,0,126081,1,0,0:0:0:0:
448,0,126081,1,0,0:0:0:0:
64,0,126150,1,0,0:0:0:0:
192,0,126150,1,0,0:0:0:0:
320,0,126195,1,0,0:0:0:0:
448,0,126195,1,0,0:0:0:0:
64,0,126264,1,0,0:0:0:0:
192,0,126264,1,0,0:0:0:0:
64,0,126446,1,0,0:0:0:0:
192,0,126446,1,0,0:0:0:0:
192,0,126538,1,0,0:0:0:0:
320,0,126538,1,0,0:0:0:0:
320,0,126628,1,0,0:0:0:0:
448,0,126628,1,0,0:0:0:0:
64,0,126697,1,0,0:0:0:0:
192,0,126697,1,0,0:0:0:0:
320,0,126743,1,0,0:0:0:0:
448,0,126743,1,0,0:0:0:0:
64,0,126811,1,0,0:0:0:0:
192,0,126811,1,0,0:0:0:0:
320,0,126880,1,0,0:0:0:0:
448,0,126880,1,0,0:0:0:0:
64,0,126993,1,0,0:0:0:0:
192,0,126993,1,0,0:0:0:0:
320,0,127062,1,0,0:0:0:0:
448,0,127062,1,0,0:0:0:0:
64,0,127107,1,0,0:0:0:0:
192,0,127107,1,0,0:0:0:0:
320,0,127176,1,0,0:0:0:0:
448,0,127176,1,0,0:0:0:0:
64,0,127245,1,0,0:0:0:0:
192,0,127245,1,0,0:0:0:0:
320,0,127359,1,0,0:0:0:0:
448,0,127359,1,0,0:0:0:0:
64,0,127426,1,0,0:0:0:0:
192,0,127426,1,0,0:0:0:0:
320,0,127473,1,0,0:0:0:0:
448,0,127473,1,0,0:0:0:0:
64,0,127540,1,0,0:0:0:0:
192,0,127540,1,0,0:0:0:0:
320,0,127609,1,0,0:0:0:0:
448,0,127609,1,0,0:0:0:0:
64,0,127723,1,0,0:0:0:0:
192,0,127723,1,0,0:0:0:0:
192,0,127906,1,0,0:0:0:0:
64,0,127997,1,0,0:0:0:0:
448,0,127997,1,0,0:0:0:0:
320,0,128088,1,0,0:0:0:0:
320,0,128271,1,0,0:0:0:0:
448,0,128271,1,0,0:0:0:0:
192,0,128316,1,0,0:0:0:0:
64,0,128362,1,0,0:0:0:0:
320,0,128407,1,0,0:0:0:0:
64,0,128453,1,0,0:0:0:0:
192,0,128453,1,0,0:0:0:0:
448,0,128453,1,0,0:0:0:0:
320,0,128521,1,0,0:0:0:0:
192,0,128567,1,0,0:0:0:0:
64,0,128635,1,0,0:0:0:0:
320,0,128726,1,0,0:0:0:0:
448,0,128726,1,0,0:0:0:0:
192,0,128818,1,0,0:0:0:0:
320,0,128818,1,0,0:0:0:0:
64,0,128909,1,0,0:0:0:0:
448,0,128909,1,0,0:0:0:0:
192,0,129000,1,0,0:0:0:0:
320,0,129000,1,0,0:0:0:0:
320,0,129183,1,0,0:0:0:0:
448,0,129183,1,0,0:0:0:0:
64,0,129365,1,0,0:0:0:0:
192,0,129365,1,0,0:0:0:0:
192,0,129456,1,0,0:0:0:0:
320,0,129456,1,0,0:0:0:0:
320,0,129547,1,0,0:0:0:0:
448,0,129547,1,0,0:0:0:0:
64,0,129639,1,0,0:0:0:0:
448,0,129639,1,0,0:0:0:0:
64,0,129730,1,0,0:0:0:0:
192,0,129730,1,0,0:0:0:0:
320,0,129913,1,0,0:0:0:0:
448,0,129913,1,0,0:0:0:0:
192,0,129958,1,0,0:0:0:0:
64,0,130004,1,0,0:0:0:0:
448,0,130049,1,0,0:0:0:0:
192,0,130095,1,0,0:0:0:0:
320,0,130095,1,0,0:0:0:0:
64,0,130186,1,0,0:0:0:0:
448,0,130186,1,0,0:0:0:0:
192,0,130277,1,0,0:0:0:0:
320,0,130277,1,0,0:0:0:0:
64,0,130460,1,0,0:0:0:0:
192,0,130460,1,0,0:0:0:0:
320,0,130460,1,0,0:0:0:0:
192,0,130642,1,0,0:0:0:0:
320,0,130642,1,0,0:0:0:0:
448,0,130642,1,0,0:0:0:0:
64,0,130825,1,0,0:0:0:0:
192,0,130825,1,0,0:0:0:0:
320,0,130825,1,0,0:0:0:0:
320,0,131007,1,0,0:0:0:0:
448,0,131007,1,0,0:0:0:0:
320,0,131098,1,0,0:0:0:0:
448,0,131098,1,0,0:0:0:0:
320,0,131189,1,0,0:0:0:0:
448,0,131189,1,0,0:0:0:0:
64,0,131372,1,0,0:0:0:0:
448,0,131372,1,0,0:0:0:0:
320,0,131418,1,0,0:0:0:0:
192,0,131463,1,0,0:0:0:0:
64,0,131508,1,0,0:0:0:0:
448,0,131554,1,0,0:0:0:0:
320,0,131600,1,0,0:0:0:0:
64,0,131646,1,0,0:0:0:0:
192,0,131646,1,0,0:0:0:0:
192,0,131737,1,0,0:0:0:0:
320,0,131737,1,0,0:0:0:0:
64,0,131828,1,0,0:0:0:0:
448,0,131828,1,0,0:0:0:0:
192,0,131920,1,0,0:0:0:0:
320,0,131920,1,0,0:0:0:0:
64,0,132101,1,0,0:0:0:0:
320,0,132101,1,0,0:0:0:0:
448,0,132101,1,0,0:0:0:0:
64,0,132284,1,0,0:0:0:0:
192,0,132284,1,0,0:0:0:0:
192,0,132375,1,0,0:0:0:0:
320,0,132375,1,0,0:0:0:0:
64,0,132466,1,0,0:0:0:0:
448,0,132466,1,0,0:0:0:0:
320,0,132558,1,0,0:0:0:0:
448,0,132558,1,0,0:0:0:0:
192,0,132649,1,0,0:0:0:0:
320,0,132649,1,0,0:0:0:0:
64,0,132832,1,0,0:0:0:0:
192,0,132832,1,0,0:0:0:0:
320,0,132877,1,0,0:0:0:0:
448,0,132922,1,0,0:0:0:0:
64,0,132968,1,0,0:0:0:0:
192,0,133013,1,0,0:0:0:0:
320,0,133013,1,0,0:0:0:0:
64,0,133105,1,0,0:0:0:0:
448,0,133105,1,0,0:0:0:0:
192,0,133196,1,0,0:0:0:0:
320,0,133196,1,0,0:0:0:0:
64,0,133287,1,0,0:0:0:0:
192,0,133287,1,0,0:0:0:0:
320,0,133379,1,0,0:0:0:0:
448,0,133379,1,0,0:0:0:0:
64,0,133561,1,0,0:0:0:0:
192,0,133561,1,0,0:0:0:0:
64,0,133653,1,0,0:0:0:0:
192,0,133653,1,0,0:0:0:0:
320,0,133744,1,0,0:0:0:0:
448,0,133744,1,0,0:0:0:0:
320,0,133834,1,0,0:0:0:0:
448,0,133834,1,0,0:0:0:0:
64,0,133926,1,0,0:0:0:0:
192,0,133926,1,0,0:0:0:0:
192,0,134017,1,0,0:0:0:0:
320,0,134017,1,0,0:0:0:0:
320,0,134108,1,0,0:0:0:0:
448,0,134108,1,0,0:0:0:0:
192,0,134177,1,0,0:0:0:0:
320,0,134222,1,0,0:0:0:0:
64,0,134291,1,0,0:0:0:0:
64,0,134405,1,0,0:0:0:0:
64,0,134541,1,0,0:0:0:0:
320,0,134565,1,0,0:0:0:0:
448,0,134565,1,0,0:0:0:0:
64,0,134655,1,0,0:0:0:0:
192,0,134655,1,0,0:0:0:0:
320,0,134746,1,0,0:0:0:0:
64,0,134770,1,0,0:0:0:0:
448,0,134838,1,0,0:0:0:0:
64,0,134906,1,0,0:0:0:0:
320,0,134929,1,0,0:0:0:0:
64,0,135020,1,0,0:0:0:0:
448,0,135020,1,0,0:0:0:0:
192,0,135112,1,0,0:0:0:0:
64,0,135134,1,0,0:0:0:0:
320,0,135203,1,0,0:0:0:0:
64,0,135272,1,0,0:0:0:0:
448,0,135294,1,0,0:0:0:0:
64,0,135386,1,0,0:0:0:0:
448,0,135453,1,0,0:0:0:0:
64,0,135500,1,0,0:0:0:0:
448,0,135567,1,0,0:0:0:0:
64,0,135636,1,0,0:0:0:0:
448,0,135750,1,0,0:0:0:0:
320,0,135796,1,0,0:0:0:0:
192,0,135841,1,0,0:0:0:0:
64,0,135887,1,0,0:0:0:0:
320,0,135933,1,0,0:0:0:0:
448,0,136001,1,0,0:0:0:0:
64,0,136115,1,0,0:0:0:0:
192,0,136160,1,0,0:0:0:0:
320,0,136206,1,0,0:0:0:0:
448,0,136229,1,0,0:0:0:0:
64,0,136298,1,0,0:0:0:0:
448,0,136366,1,0,0:0:0:0:
192,0,136389,1,0,0:0:0:0:
320,0,136389,1,0,0:0:0:0:
64,0,136480,1,0,0:0:0:0:
448,0,136480,1,0,0:0:0:0:
64,0,136571,1,0,0:0:0:0:
320,0,136662,1,0,0:0:0:0:
448,0,136662,1,0,0:0:0:0:
448,0,136753,1,0,0:0:0:0:
64,0,136845,1,0,0:0:0:0:
192,0,136845,1,0,0:0:0:0:
320,0,136890,1,0,0:0:0:0:
448,0,136936,1,0,0:0:0:0:
64,0,136981,1,0,0:0:0:0:
192,0,137027,1,0,0:0:0:0:
320,0,137073,1,0,0:0:0:0:
448,0,137119,1,0,0:0:0:0:
64,0,137210,1,0,0:0:0:0:
192,0,137210,1,0,0:0:0:0:
320,0,137255,1,0,0:0:0:0:
448,0,137301,1,0,0:0:0:0:
192,0,137346,1,0,0:0:0:0:
320,0,137392,1,0,0:0:0:0:
64,0,137438,1,0,0:0:0:0:
192,0,137483,1,0,0:0:0:0:
448,0,137529,1,0,0:0:0:0:
320,0,137574,1,0,0:0:0:0:
192,0,137620,1,0,0:0:0:0:
64,0,137666,1,0,0:0:0:0:
448,0,137712,1,0,0:0:0:0:
192,0,137757,1,0,0:0:0:0:
320,0,137802,1,0,0:0:0:0:
64,0,137848,1,0,0:0:0:0:
192,0,137893,1,0,0:0:0:0:
320,0,137940,1,0,0:0:0:0:
448,0,137985,1,0,0:0:0:0:
192,0,138031,1,0,0:0:0:0:
64,0,138076,1,0,0:0:0:0:
448,0,138122,1,0,0:0:0:0:
320,0,138167,1,0,0:0:0:0:
192,0,138213,1,0,0:0:0:0:
64,0,138259,1,0,0:0:0:0:
448,0,138304,1,0,0:0:0:0:
320,0,138350,1,0,0:0:0:0:
192,0,138395,1,0,0:0:0:0:
64,0,138441,1,0,0:0:0:0:
448,0,138486,1,0,0:0:0:0:
320,0,138533,1,0,0:0:0:0:
192,0,138578,1,0,0:0:0:0:
64,0,138624,1,0,0:0:0:0:
320,0,138669,1,0,0:0:0:0:
192,0,138714,1,0,0:0:0:0:
320,0,138760,1,0,0:0:0:0:
192,0,138852,1,0,0:0:0:0:
320,0,138943,1,0,0:0:0:0:
64,0,139034,1,0,0:0:0:0:
448,0,139080,1,0,0:0:0:0:
64,0,139125,1,0,0:0:0:0:
320,0,139216,1,0,0:0:0:0:
192,0,139307,1,0,0:0:0:0:
64,0,139399,1,0,0:0:0:0:
64,0,139513,1,0,0:0:0:0:
64,0,139650,1,0,0:0:0:0:
64,0,139764,1,0,0:0:0:0:
192,0,139764,1,0,0:0:0:0:
320,0,139764,1,0,0:0:0:0:
448,0,139764,1,0,0:0:0:0:
192,0,139946,1,0,0:0:0:0:
192,0,140037,1,0,0:0:0:0:
320,0,140037,1,0,0:0:0:0:
448,0,140037,1,0,0:0:0:0:
64,0,140128,1,0,0:0:0:0:
192,0,140174,1,0,0:0:0:0:
320,0,140220,1,0,0:0:0:0:
448,0,140266,1,0,0:0:0:0:
64,0,140311,1,0,0:0:0:0:
320,0,140402,1,0,0:0:0:0:
448,0,140402,1,0,0:0:0:0:
64,0,140448,1,0,0:0:0:0:
192,0,140493,1,0,0:0:0:0:
320,0,140539,1,0,0:0:0:0:
448,0,140585,1,0,0:0:0:0:
64,0,140676,1,0,0:0:0:0:
320,0,140676,1,0,0:0:0:0:
448,0,140721,1,0,0:0:0:0:
192,0,140767,1,0,0:0:0:0:
64,0,140859,1,0,0:0:0:0:
320,0,140859,1,0,0:0:0:0:
448,0,140859,1,0,0:0:0:0:
192,0,140904,1,0,0:0:0:0:
320,0,140949,1,0,0:0:0:0:
448,0,140995,1,0,0:0:0:0:
64,0,141040,1,0,0:0:0:0:
320,0,141132,1,0,0:0:0:0:
448,0,141132,1,0,0:0:0:0:
64,0,141178,1,0,0:0:0:0:
192,0,141223,1,0,0:0:0:0:
320,0,141269,1,0,0:0:0:0:
448,0,141314,1,0,0:0:0:0:
64,0,141406,1,0,0:0:0:0:
192,0,141406,1,0,0:0:0:0:
448,0,141451,1,0,0:0:0:0:
320,0,141497,1,0,0:0:0:0:
64,0,141542,1,0,0:0:0:0:
192,0,141588,1,0,0:0:0:0:
448,0,141633,1,0,0:0:0:0:
320,0,141680,1,0,0:0:0:0:
192,0,141725,1,0,0:0:0:0:
64,0,141771,1,0,0:0:0:0:
320,0,141861,1,0,0:0:0:0:
448,0,141861,1,0,0:0:0:0:
64,0,141953,1,0,0:0:0:0:
448,0,141953,1,0,0:0:0:0:
192,0,141999,1,0,0:0:0:0:
320,0,142044,1,0,0:0:0:0:
64,0,142135,1,0,0:0:0:0:
448,0,142135,1,0,0:0:0:0:
192,0,142181,1,0,0:0:0:0:
320,0,142226,1,0,0:0:0:0:
64,0,142318,1,0,0:0:0:0:
192,0,142318,1,0,0:0:0:0:
448,0,142318,1,0,0:0:0:0:
320,0,142363,1,0,0:0:0:0:
192,0,142409,1,0,0:0:0:0:
64,0,142454,1,0,0:0:0:0:
448,0,142500,1,0,0:0:0:0:
320,0,142546,1,0,0:0:0:0:
64,0,142592,1,0,0:0:0:0:
192,0,142592,1,0,0:0:0:0:
448,0,142683,1,0,0:0:0:0:
320,0,142773,1,0,0:0:0:0:
64,0,142865,1,0,0:0:0:0:
192,0,142865,1,0,0:0:0:0:
192,0,142956,1,0,0:0:0:0:
64,0,143047,1,0,0:0:0:0:
448,0,143047,1,0,0:0:0:0:
192,0,143093,1,0,0:0:0:0:
320,0,143139,1,0,0:0:0:0:
448,0,143230,1,0,0:0:0:0:
192,0,143275,1,0,0:0:0:0:
320,0,143321,1,0,0:0:0:0:
448,0,143413,1,0,0:0:0:0:
192,0,143458,1,0,0:0:0:0:
320,0,143504,1,0,0:0:0:0:
448,0,143594,1,0,0:0:0:0:
192,0,143640,1,0,0:0:0:0:
320,0,143686,1,0,0:0:0:0:
64,0,143777,1,0,0:0:0:0:
192,0,143777,1,0,0:0:0:0:
448,0,143777,1,0,0:0:0:0:
64,0,143960,1,0,0:0:0:0:
192,0,143960,1,0,0:0:0:0:
320,0,144051,1,0,0:0:0:0:
448,0,144051,1,0,0:0:0:0:
64,0,144142,1,0,0:0:0:0:
192,0,144142,1,0,0:0:0:0:
448,0,144187,1,0,0:0:0:0:
320,0,144233,1,0,0:0:0:0:
192,0,144279,1,0,0:0:0:0:
64,0,144325,1,0,0:0:0:0:
448,0,144370,1,0,0:0:0:0:
320,0,144416,1,0,0:0:0:0:
192,0,144461,1,0,0:0:0:0:
64,0,144506,1,0,0:0:0:0:
448,0,144506,1,0,0:0:0:0:
192,0,144598,1,0,0:0:0:0:
320,0,144598,1,0,0:0:0:0:
64,0,144758,1,0,0:0:0:0:
192,0,144780,1,0,0:0:0:0:
320,0,144803,1,0,0:0:0:0:
448,0,144849,1,0,0:0:0:0:
64,0,144872,1,0,0:0:0:0:
192,0,144894,1,0,0:0:0:0:
320,0,144940,1,0,0:0:0:0:
448,0,144963,1,0,0:0:0:0:
64,0,144986,1,0,0:0:0:0:
192,0,145032,1,0,0:0:0:0:
320,0,145054,1,0,0:0:0:0:
448,0,145077,1,0,0:0:0:0:
64,0,145123,1,0,0:0:0:0:
192,0,145146,1,0,0:0:0:0:
320,0,145168,1,0,0:0:0:0:
448,0,145213,1,0,0:0:0:0:
64,0,145237,1,0,0:0:0:0:
192,0,145237,1,0,0:0:0:0:
64,0,145419,1,0,0:0:0:0:
448,0,145419,1,0,0:0:0:0:
192,0,145510,1,0,0:0:0:0:
320,0,145510,1,0,0:0:0:0:
448,0,145510,1,0,0:0:0:0:
64,0,145601,1,0,0:0:0:0:
192,0,145601,1,0,0:0:0:0:
320,0,145601,1,0,0:0:0:0:
192,0,145784,1,0,0:0:0:0:
320,0,145784,1,0,0:0:0:0:
448,0,145784,1,0,0:0:0:0:
64,0,145966,1,0,0:0:0:0:
192,0,145966,1,0,0:0:0:0:
448,0,145966,1,0,0:0:0:0:
320,0,146012,1,0,0:0:0:0:
448,0,146058,1,0,0:0:0:0:
64,0,146103,1,0,0:0:0:0:
192,0,146149,1,0,0:0:0:0:
320,0,146194,1,0,0:0:0:0:
64,0,146240,1,0,0:0:0:0:
448,0,146240,1,0,0:0:0:0:
192,0,146331,1,0,0:0:0:0:
320,0,146331,1,0,0:0:0:0:
448,0,146513,128,0,146696:0:0:0:0:
64,0,146696,1,0,0:0:0:0:
192,0,146696,1,0,0:0:0:0:
320,0,146696,128,0,146879:0:0:0:0:
192,0,146879,128,0,147061:0:0:0:0:
320,0,146970,1,0,0:0:0:0:
448,0,146970,1,0,0:0:0:0:
64,0,147061,128,0,147243:0:0:0:0:
192,0,147243,1,0,0:0:0:0:
320,0,147243,128,0,147426:0:0:0:0:
64,0,147426,1,0,0:0:0:0:
192,0,147426,1,0,0:0:0:0:
320,0,147472,1,0,0:0:0:0:
448,0,147517,1,0,0:0:0:0:
64,0,147563,1,0,0:0:0:0:
192,0,147608,1,0,0:0:0:0:
320,0,147653,1,0,0:0:0:0:
448,0,147700,1,0,0:0:0:0:
64,0,147791,128,0,148155:0:0:0:0:
192,0,147791,1,0,0:0:0:0:
320,0,147791,1,0,0:0:0:0:
320,0,147882,1,0,0:0:0:0:
192,0,147973,1,0,0:0:0:0:
320,0,148064,1,0,0:0:0:0:
192,0,148155,1,0,0:0:0:0:
320,0,148155,1,0,0:0:0:0:
448,0,148155,1,0,0:0:0:0:
64,0,148246,1,0,0:0:0:0:
192,0,148246,1,0,0:0:0:0:
320,0,148338,1,0,0:0:0:0:
448,0,148338,1,0,0:0:0:0:
192,0,148429,1,0,0:0:0:0:
320,0,148429,1,0,0:0:0:0:
64,0,148520,1,0,0:0:0:0:
192,0,148520,1,0,0:0:0:0:
64,0,148612,1,0,0:0:0:0:
448,0,148612,1,0,0:0:0:0:
320,0,148703,1,0,0:0:0:0:
448,0,148703,1,0,0:0:0:0:
64,0,148794,1,0,0:0:0:0:
192,0,148794,1,0,0:0:0:0:
320,0,148886,1,0,0:0:0:0:
448,0,148886,1,0,0:0:0:0:
64,0,148931,1,0,0:0:0:0:
192,0,148976,1,0,0:0:0:0:
320,0,149022,1,0,0:0:0:0:
448,0,149067,1,0,0:0:0:0:
64,0,149250,1,0,0:0:0:0:
320,0,149250,1,0,0:0:0:0:
448,0,149250,1,0,0:0:0:0:
192,0,149364,1,0,0:0:0:0:
320,0,149364,1,0,0:0:0:0:
448,0,149364,1,0,0:0:0:0:
64,0,149501,1,0,0:0:0:0:
192,0,149501,1,0,0:0:0:0:
320,0,149501,1,0,0:0:0:0:
64,0,149615,1,0,0:0:0:0:
192,0,149615,1,0,0:0:0:0:
448,0,149615,1,0,0:0:0:0:
320,0,149660,1,0,0:0:0:0:
448,0,149706,1,0,0:0:0:0:
64,0,149752,1,0,0:0:0:0:
192,0,149798,1,0,0:0:0:0:
320,0,149888,1,0,0:0:0:0:
448,0,149888,1,0,0:0:0:0:
192,0,149934,1,0,0:0:0:0:
64,0,149980,1,0,0:0:0:0:
448,0,150026,1,0,0:0:0:0:
192,0,150071,1,0,0:0:0:0:
64,0,150162,1,0,0:0:0:0:
448,0,150162,1,0,0:0:0:0:
320,0,150208,1,0,0:0:0:0:
192,0,150253,1,0,0:0:0:0:
320,0,150345,1,0,0:0:0:0:
448,0,150345,1,0,0:0:0:0:
64,0,150390,1,0,0:0:0:0:
192,0,150436,1,0,0:0:0:0:
320,0,150481,1,0,0:0:0:0:
448,0,150527,1,0,0:0:0:0:
64,0,150573,1,0,0:0:0:0:
192,0,150619,1,0,0:0:0:0:
320,0,150664,1,0,0:0:0:0:
448,0,150710,1,0,0:0:0:0:
64,0,150755,1,0,0:0:0:0:
192,0,150800,1,0,0:0:0:0:
320,0,150892,1,0,0:0:0:0:
448,0,150983,1,0,0:0:0:0:
64,0,151074,1,0,0:0:0:0:
192,0,151074,1,0,0:0:0:0:
320,0,151074,1,0,0:0:0:0:
64,0,151257,1,0,0:0:0:0:
192,0,151257,1,0,0:0:0:0:
448,0,151257,1,0,0:0:0:0:
64,0,151348,1,0,0:0:0:0:
192,0,151348,1,0,0:0:0:0:
448,0,151348,1,0,0:0:0:0:
64,0,151440,1,0,0:0:0:0:
192,0,151440,1,0,0:0:0:0:
320,0,151485,1,0,0:0:0:0:
448,0,151531,1,0,0:0:0:0:
64,0,151576,1,0,0:0:0:0:
192,0,151622,1,0,0:0:0:0:
320,0,151622,1,0,0:0:0:0:
64,0,151713,1,0,0:0:0:0:
448,0,151713,1,0,0:0:0:0:
320,0,151804,1,0,0:0:0:0:
448,0,151804,1,0,0:0:0:0:
64,0,151873,1,0,0:0:0:0:
192,0,151873,1,0,0:0:0:0:
320,0,151918,1,0,0:0:0:0:
448,0,151918,1,0,0:0:0:0:
64,0,151986,1,0,0:0:0:0:
192,0,151986,1,0,0:0:0:0:
320,0,152055,1,0,0:0:0:0:
448,0,152055,1,0,0:0:0:0:
64,0,152100,1,0,0:0:0:0:
192,0,152100,1,0,0:0:0:0:
320,0,152169,1,0,0:0:0:0:
448,0,152169,1,0,0:0:0:0:
192,0,152352,1,0,0:0:0:0:
320,0,152352,1,0,0:0:0:0:
64,0,152443,1,0,0:0:0:0:
192,0,152533,1,0,0:0:0:0:
320,0,152533,1,0,0:0:0:0:
448,0,152533,1,0,0:0:0:0:
64,0,152716,1,0,0:0:0:0:
192,0,152716,1,0,0:0:0:0:
448,0,152716,1,0,0:0:0:0:
320,0,152807,1,0,0:0:0:0:
448,0,152807,1,0,0:0:0:0:
64,0,152899,1,0,0:0:0:0:
192,0,152899,1,0,0:0:0:0:
320,0,152899,1,0,0:0:0:0:
192,0,153081,1,0,0:0:0:0:
320,0,153081,1,0,0:0:0:0:
448,0,153081,1,0,0:0:0:0:
64,0,153264,1,0,0:0:0:0:
320,0,153264,1,0,0:0:0:0:
448,0,153264,1,0,0:0:0:0:
192,0,153309,1,0,0:0:0:0:
320,0,153355,1,0,0:0:0:0:
448,0,153400,1,0,0:0:0:0:
64,0,153446,1,0,0:0:0:0:
192,0,153492,1,0,0:0:0:0:
320,0,153537,1,0,0:0:0:0:
192,0,153583,1,0,0:0:0:0:
320,0,153628,1,0,0:0:0:0:
448,0,153628,1,0,0:0:0:0:
192,0,153811,1,0,0:0:0:0:
64,0,153993,1,0,0:0:0:0:
192,0,153993,1,0,0:0:0:0:
448,0,153993,1,0,0:0:0:0:
192,0,154176,1,0,0:0:0:0:
320,0,154176,1,0,0:0:0:0:
448,0,154176,1,0,0:0:0:0:
64,0,154267,1,0,0:0:0:0:
448,0,154267,1,0,0:0:0:0:
64,0,154358,1,0,0:0:0:0:
192,0,154358,1,0,0:0:0:0:
320,0,154358,1,0,0:0:0:0:
192,0,154540,1,0,0:0:0:0:
320,0,154540,1,0,0:0:0:0:
448,0,154540,1,0,0:0:0:0:
64,0,154723,128,0,155088:0:0:0:0:
320,0,154723,1,0,0:0:0:0:
448,0,154723,1,0,0:0:0:0:
192,0,154837,1,0,0:0:0:0:
320,0,154974,1,0,0:0:0:0:
192,0,155088,1,0,0:0:0:0:
448,0,155088,1,0,0:0:0:0:
192,0,155270,1,0,0:0:0:0:
320,0,155270,1,0,0:0:0:0:
64,0,155453,1,0,0:0:0:0:
320,0,155453,1,0,0:0:0:0:
448,0,155453,1,0,0:0:0:0:
64,0,155635,1,0,0:0:0:0:
192,0,155635,1,0,0:0:0:0:
320,0,155635,1,0,0:0:0:0:
64,0,155726,1,0,0:0:0:0:
448,0,155726,1,0,0:0:0:0:
192,0,155818,1,0,0:0:0:0:
320,0,155818,1,0,0:0:0:0:
448,0,155818,1,0,0:0:0:0:
64,0,156000,1,0,0:0:0:0:
320,0,156000,1,0,0:0:0:0:
448,0,156000,1,0,0:0:0:0:
64,0,156182,1,0,0:0:0:0:
192,0,156182,1,0,0:0:0:0:
320,0,156182,1,0,0:0:0:0:
448,0,156228,1,0,0:0:0:0:
64,0,156273,1,0,0:0:0:0:
192,0,156320,1,0,0:0:0:0:
320,0,156365,1,0,0:0:0:0:
448,0,156411,1,0,0:0:0:0:
192,0,156456,1,0,0:0:0:0:
320,0,156502,1,0,0:0:0:0:
64,0,156547,1,0,0:0:0:0:
448,0,156547,1,0,0:0:0:0:
192,0,156616,1,0,0:0:0:0:
320,0,156661,1,0,0:0:0:0:
64,0,156730,1,0,0:0:0:0:
448,0,156730,1,0,0:0:0:0:
320,0,156798,1,0,0:0:0:0:
192,0,156844,1,0,0:0:0:0:
64,0,156913,1,0,0:0:0:0:
320,0,156913,1,0,0:0:0:0:
448,0,156913,1,0,0:0:0:0:
448,0,157003,1,0,0:0:0:0:
64,0,157094,1,0,0:0:0:0:
192,0,157094,1,0,0:0:0:0:
320,0,157094,1,0,0:0:0:0:
64,0,157186,1,0,0:0:0:0:
448,0,157186,1,0,0:0:0:0:
192,0,157277,1,0,0:0:0:0:
320,0,157277,1,0,0:0:0:0:
448,0,157277,1,0,0:0:0:0:
192,0,157368,1,0,0:0:0:0:
64,0,157460,1,0,0:0:0:0:
320,0,157460,1,0,0:0:0:0:
448,0,157460,1,0,0:0:0:0:
320,0,157551,1,0,0:0:0:0:
64,0,157642,1,0,0:0:0:0:
192,0,157642,1,0,0:0:0:0:
448,0,157642,1,0,0:0:0:0:
320,0,157687,1,0,0:0:0:0:
64,0,157733,1,0,0:0:0:0:
192,0,157779,1,0,0:0:0:0:
320,0,157825,1,0,0:0:0:0:
448,0,157870,1,0,0:0:0:0:
64,0,157915,1,0,0:0:0:0:
192,0,157961,1,0,0:0:0:0:
320,0,158006,1,0,0:0:0:0:
448,0,158053,1,0,0:0:0:0:
64,0,158098,1,0,0:0:0:0:
192,0,158144,1,0,0:0:0:0:
320,0,158189,1,0,0:0:0:0:
448,0,158235,1,0,0:0:0:0:
192,0,158280,1,0,0:0:0:0:
64,0,158326,1,0,0:0:0:0:
320,0,158372,1,0,0:0:0:0:
448,0,158372,1,0,0:0:0:0:
192,0,158417,1,0,0:0:0:0:
64,0,158463,1,0,0:0:0:0:
448,0,158508,1,0,0:0:0:0:
192,0,158554,1,0,0:0:0:0:
320,0,158600,1,0,0:0:0:0:
64,0,158646,1,0,0:0:0:0:
192,0,158691,1,0,0:0:0:0:
320,0,158737,1,0,0:0:0:0:
448,0,158782,1,0,0:0:0:0:
64,0,158827,1,0,0:0:0:0:
192,0,158873,1,0,0:0:0:0:
320,0,158919,1,0,0:0:0:0:
64,0,158965,1,0,0:0:0:0:
448,0,159010,1,0,0:0:0:0:
320,0,159056,1,0,0:0:0:0:
64,0,159101,1,0,0:0:0:0:
192,0,159101,1,0,0:0:0:0:
448,0,159147,1,0,0:0:0:0:
320,0,159193,1,0,0:0:0:0:
64,0,159238,1,0,0:0:0:0:
192,0,159284,1,0,0:0:0:0:
448,0,159329,1,0,0:0:0:0:
64,0,159375,1,0,0:0:0:0:
320,0,159420,1,0,0:0:0:0:
192,0,159466,1,0,0:0:0:0:
448,0,159512,1,0,0:0:0:0:
320,0,159558,1,0,0:0:0:0:
192,0,159603,1,0,0:0:0:0:
64,0,159649,1,0,0:0:0:0:
448,0,159694,1,0,0:0:0:0:
320,0,159740,1,0,0:0:0:0:
192,0,159786,1,0,0:0:0:0:
64,0,159831,1,0,0:0:0:0:
448,0,159831,1,0,0:0:0:0:
320,0,159877,1,0,0:0:0:0:
192,0,159922,1,0,0:0:0:0:
448,0,159968,1,0,0:0:0:0:
64,0,160013,1,0,0:0:0:0:
192,0,160060,1,0,0:0:0:0:
320,0,160105,1,0,0:0:0:0:
448,0,160150,1,0,0:0:0:0:
64,0,160196,1,0,0:0:0:0:
192,0,160241,1,0,0:0:0:0:
320,0,160287,1,0,0:0:0:0:
448,0,160333,1,0,0:0:0:0:
64,0,160379,1,0,0:0:0:0:
192,0,160424,1,0,0:0:0:0:
320,0,160470,1,0,0:0:0:0:
64,0,160515,1,0,0:0:0:0:
192,0,160561,1,0,0:0:0:0:
448,0,160561,1,0,0:0:0:0:
320,0,160606,1,0,0:0:0:0:
64,0,160652,1,0,0:0:0:0:
448,0,160698,1,0,0:0:0:0:
320,0,160743,1,0,0:0:0:0:
192,0,160789,1,0,0:0:0:0:
64,0,160834,1,0,0:0:0:0:
448,0,160880,1,0,0:0:0:0:
192,0,160926,1,0,0:0:0:0:
320,0,160926,1,0,0:0:0:0:
64,0,160972,1,0,0:0:0:0:
448,0,161017,1,0,0:0:0:0:
192,0,161062,1,0,0:0:0:0:
320,0,161108,1,0,0:0:0:0:
64,0,161153,1,0,0:0:0:0:
192,0,161200,1,0,0:0:0:0:
320,0,161245,1,0,0:0:0:0:
64,0,161291,1,0,0:0:0:0:
448,0,161291,1,0,0:0:0:0:
192,0,161336,1,0,0:0:0:0:
320,0,161382,1,0,0:0:0:0:
448,0,161427,1,0,0:0:0:0:
192,0,161473,1,0,0:0:0:0:
64,0,161519,1,0,0:0:0:0:
320,0,161564,1,0,0:0:0:0:
192,0,161610,1,0,0:0:0:0:
64,0,161655,1,0,0:0:0:0:
448,0,161655,1,0,0:0:0:0:
320,0,161701,1,0,0:0:0:0:
192,0,161746,1,0,0:0:0:0:
448,0,161793,1,0,0:0:0:0:
64,0,161838,1,0,0:0:0:0:
192,0,161884,1,0,0:0:0:0:
320,0,161929,1,0,0:0:0:0:
448,0,161974,1,0,0:0:0:0:
64,0,162020,1,0,0:0:0:0:
192,0,162020,1,0,0:0:0:0:
320,0,162066,1,0,0:0:0:0:
448,0,162112,1,0,0:0:0:0:
64,0,162157,1,0,0:0:0:0:
192,0,162203,1,0,0:0:0:0:
320,0,162203,1,0,0:0:0:0:
448,0,162248,1,0,0:0:0:0:
64,0,162294,1,0,0:0:0:0:
192,0,162340,1,0,0:0:0:0:
320,0,162385,1,0,0:0:0:0:
448,0,162385,1,0,0:0:0:0:
64,0,162431,1,0,0:0:0:0:
192,0,162476,1,0,0:0:0:0:
320,0,162522,1,0,0:0:0:0:
64,0,162567,1,0,0:0:0:0:
448,0,162567,1,0,0:0:0:0:
192,0,162613,1,0,0:0:0:0:
320,0,162659,1,0,0:0:0:0:
448,0,162705,1,0,0:0:0:0:
64,0,162750,1,0,0:0:0:0:
192,0,162750,1,0,0:0:0:0:
320,0,162796,1,0,0:0:0:0:
448,0,162841,1,0,0:0:0:0:
64,0,162886,1,0,0:0:0:0:
192,0,162933,1,0,0:0:0:0:
320,0,162933,1,0,0:0:0:0:
448,0,162978,1,0,0:0:0:0:
64,0,163024,1,0,0:0:0:0:
192,0,163069,1,0,0:0:0:0:
320,0,163115,1,0,0:0:0:0:
448,0,163115,1,0,0:0:0:0:
64,0,163160,1,0,0:0:0:0:
192,0,163160,1,0,0:0:0:0:
320,0,163206,1,0,0:0:0:0:
448,0,163206,1,0,0:0:0:0:
64,0,163297,1,0,0:0:0:0:
192,0,163297,1,0,0:0:0:0:
320,0,163343,1,0,0:0:0:0:
448,0,163343,1,0,0:0:0:0:
64,0,163388,1,0,0:0:0:0:
192,0,163388,1,0,0:0:0:0:
64,0,163480,1,0,0:0:0:0:
320,0,163480,1,0,0:0:0:0:
448,0,163480,1,0,0:0:0:0:
192,0,163526,1,0,0:0:0:0:
320,0,163571,1,0,0:0:0:0:
192,0,163617,1,0,0:0:0:0:
448,0,163662,1,0,0:0:0:0:
64,0,163707,1,0,0:0:0:0:
320,0,163753,1,0,0:0:0:0:
64,0,163845,1,0,0:0:0:0:
448,0,163845,1,0,0:0:0:0:
192,0,163890,1,0,0:0:0:0:
320,0,163936,1,0,0:0:0:0:
448,0,163981,1,0,0:0:0:0:
64,0,164027,1,0,0:0:0:0:
192,0,164073,1,0,0:0:0:0:
320,0,164119,1,0,0:0:0:0:
64,0,164209,1,0,0:0:0:0:
448,0,164209,1,0,0:0:0:0:
192,0,164255,1,0,0:0:0:0:
320,0,164300,1,0,0:0:0:0:
192,0,164346,1,0,0:0:0:0:
64,0,164392,1,0,0:0:0:0:
448,0,164438,1,0,0:0:0:0:
320,0,164483,1,0,0:0:0:0:
64,0,164574,1,0,0:0:0:0:
192,0,164574,1,0,0:0:0:0:
448,0,164620,1,0,0:0:0:0:
320,0,164666,1,0,0:0:0:0:
192,0,164711,1,0,0:0:0:0:
64,0,164757,1,0,0:0:0:0:
448,0,164802,1,0,0:0:0:0:
192,0,164848,1,0,0:0:0:0:
64,0,164940,1,0,0:0:0:0:
320,0,164940,1,0,0:0:0:0:
448,0,164940,1,0,0:0:0:0:
192,0,165031,1,0,0:0:0:0:
320,0,165031,1,0,0:0:0:0:
64,0,165121,1,0,0:0:0:0:
192,0,165121,1,0,0:0:0:0:
320,0,165213,1,0,0:0:0:0:
448,0,165213,1,0,0:0:0:0:
64,0,165304,1,0,0:0:0:0:
192,0,165304,1,0,0:0:0:0:
320,0,165304,1,0,0:0:0:0:
64,0,165395,1,0,0:0:0:0:
448,0,165395,1,0,0:0:0:0:
192,0,165486,1,0,0:0:0:0:
320,0,165486,1,0,0:0:0:0:
64,0,165578,1,0,0:0:0:0:
320,0,165578,1,0,0:0:0:0:
448,0,165578,1,0,0:0:0:0:
64,0,165669,1,0,0:0:0:0:
192,0,165669,1,0,0:0:0:0:
320,0,165669,1,0,0:0:0:0:
64,0,165852,1,0,0:0:0:0:
192,0,165852,1,0,0:0:0:0:
64,0,166033,1,0,0:0:0:0:
192,0,166033,1,0,0:0:0:0:
320,0,166033,1,0,0:0:0:0:
448,0,166033,1,0,0:0:0:0:
448,0,166216,1,0,0:0:0:0:
64,0,166262,1,0,0:0:0:0:
320,0,166399,1,0,0:0:0:0:
448,0,166399,1,0,0:0:0:0:
64,0,166444,1,0,0:0:0:0:
192,0,166490,1,0,0:0:0:0:
320,0,166535,1,0,0:0:0:0:
448,0,166581,1,0,0:0:0:0:
192,0,166626,1,0,0:0:0:0:
320,0,166673,1,0,0:0:0:0:
64,0,166764,1,0,0:0:0:0:
192,0,166764,1,0,0:0:0:0:
448,0,166809,1,0,0:0:0:0:
320,0,166854,1,0,0:0:0:0:
192,0,166900,1,0,0:0:0:0:
64,0,166946,1,0,0:0:0:0:
448,0,166992,1,0,0:0:0:0:
192,0,167037,1,0,0:0:0:0:
320,0,167128,1,0,0:0:0:0:
448,0,167128,1,0,0:0:0:0:
64,0,167174,1,0,0:0:0:0:
192,0,167220,1,0,0:0:0:0:
448,0,167266,1,0,0:0:0:0:
320,0,167311,1,0,0:0:0:0:
64,0,167356,1,0,0:0:0:0:
192,0,167402,1,0,0:0:0:0:
64,0,167493,1,0,0:0:0:0:
448,0,167493,1,0,0:0:0:0:
320,0,167539,1,0,0:0:0:0:
192,0,167585,1,0,0:0:0:0:
64,0,167630,1,0,0:0:0:0:
448,0,167676,1,0,0:0:0:0:
320,0,167721,1,0,0:0:0:0:
192,0,167766,1,0,0:0:0:0:
320,0,167858,1,0,0:0:0:0:
448,0,167858,1,0,0:0:0:0:
64,0,167949,1,0,0:0:0:0:
192,0,167949,1,0,0:0:0:0:
192,0,168040,1,0,0:0:0:0:
320,0,168040,1,0,0:0:0:0:
64,0,168132,1,0,0:0:0:0:
448,0,168132,1,0,0:0:0:0:
192,0,168223,1,0,0:0:0:0:
320,0,168223,1,0,0:0:0:0:
448,0,168223,1,0,0:0:0:0:
192,0,168314,1,0,0:0:0:0:
320,0,168314,1,0,0:0:0:0:
64,0,168406,1,0,0:0:0:0:
448,0,168406,1,0,0:0:0:0:
64,0,168497,1,0,0:0:0:0:
192,0,168497,1,0,0:0:0:0:
320,0,168588,1,0,0:0:0:0:
448,0,168588,1,0,0:0:0:0:
320,0,168679,1,0,0:0:0:0:
448,0,168679,1,0,0:0:0:0:
320,0,168861,1,0,0:0:0:0:
448,0,168861,1,0,0:0:0:0:
320,0,168953,1,0,0:0:0:0:
448,0,168953,1,0,0:0:0:0:
64,0,168999,1,0,0:0:0:0:
192,0,168999,1,0,0:0:0:0:
320,0,169044,1,0,0:0:0:0:
448,0,169044,1,0,0:0:0:0:
64,0,169135,1,0,0:0:0:0:
192,0,169135,1,0,0:0:0:0:
320,0,169180,1,0,0:0:0:0:
448,0,169180,1,0,0:0:0:0:
64,0,169226,1,0,0:0:0:0:
192,0,169226,1,0,0:0:0:0:
320,0,169318,1,0,0:0:0:0:
448,0,169318,1,0,0:0:0:0:
64,0,169363,1,0,0:0:0:0:
192,0,169409,1,0,0:0:0:0:
320,0,169454,1,0,0:0:0:0:
448,0,169500,1,0,0:0:0:0:
64,0,169546,1,0,0:0:0:0:
320,0,169591,1,0,0:0:0:0:
64,0,169682,1,0,0:0:0:0:
448,0,169682,1,0,0:0:0:0:
192,0,169728,1,0,0:0:0:0:
320,0,169773,1,0,0:0:0:0:
192,0,169820,1,0,0:0:0:0:
448,0,169865,1,0,0:0:0:0:
320,0,169911,1,0,0:0:0:0:
192,0,169956,1,0,0:0:0:0:
64,0,170047,1,0,0:0:0:0:
448,0,170047,1,0,0:0:0:0:
320,0,170093,1,0,0:0:0:0:
192,0,170139,1,0,0:0:0:0:
64,0,170184,1,0,0:0:0:0:
448,0,170230,1,0,0:0:0:0:
192,0,170275,1,0,0:0:0:0:
320,0,170321,1,0,0:0:0:0:
64,0,170412,1,0,0:0:0:0:
192,0,170412,1,0,0:0:0:0:
448,0,170458,1,0,0:0:0:0:
320,0,170503,1,0,0:0:0:0:
64,0,170549,1,0,0:0:0:0:
192,0,170594,1,0,0:0:0:0:
320,0,170640,1,0,0:0:0:0:
448,0,170686,1,0,0:0:0:0:
64,0,170777,1,0,0:0:0:0:
192,0,170777,1,0,0:0:0:0:
192,0,170868,1,0,0:0:0:0:
320,0,170868,1,0,0:0:0:0:
64,0,170960,1,0,0:0:0:0:
448,0,170960,1,0,0:0:0:0:
192,0,171051,1,0,0:0:0:0:
320,0,171051,1,0,0:0:0:0:
64,0,171142,1,0,0:0:0:0:
320,0,171142,1,0,0:0:0:0:
448,0,171142,1,0,0:0:0:0:
64,0,171233,1,0,0:0:0:0:
448,0,171233,1,0,0:0:0:0:
192,0,171324,1,0,0:0:0:0:
320,0,171324,1,0,0:0:0:0:
320,0,171415,1,0,0:0:0:0:
448,0,171415,1,0,0:0:0:0:
64,0,171506,1,0,0:0:0:0:
192,0,171506,1,0,0:0:0:0:
448,0,171506,1,0,0:0:0:0:
64,0,171689,1,0,0:0:0:0:
448,0,171689,1,0,0:0:0:0:
320,0,171735,1,0,0:0:0:0:
192,0,171780,1,0,0:0:0:0:
64,0,171826,1,0,0:0:0:0:
320,0,171872,1,0,0:0:0:0:
448,0,171872,1,0,0:0:0:0:
192,0,171917,1,0,0:0:0:0:
64,0,171963,1,0,0:0:0:0:
448,0,172008,1,0,0:0:0:0:
192,0,172054,1,0,0:0:0:0:
320,0,172054,1,0,0:0:0:0:
64,0,172100,1,0,0:0:0:0:
448,0,172146,1,0,0:0:0:0:
320,0,172191,1,0,0:0:0:0:
64,0,172236,1,0,0:0:0:0:
192,0,172236,1,0,0:0:0:0:
192,0,172327,1,0,0:0:0:0:
320,0,172327,1,0,0:0:0:0:
320,0,172419,1,0,0:0:0:0:
448,0,172419,1,0,0:0:0:0:
64,0,172510,1,0,0:0:0:0:
192,0,172510,1,0,0:0:0:0:
192,0,172601,1,0,0:0:0:0:
320,0,172601,1,0,0:0:0:0:
448,0,172601,1,0,0:0:0:0:
448,0,172693,1,0,0:0:0:0:
64,0,172784,1,0,0:0:0:0:
192,0,172784,1,0,0:0:0:0:
64,0,172966,1,0,0:0:0:0:
320,0,172966,1,0,0:0:0:0:
448,0,172966,1,0,0:0:0:0:
192,0,173058,1,0,0:0:0:0:
320,0,173058,1,0,0:0:0:0:
64,0,173240,1,0,0:0:0:0:
192,0,173240,1,0,0:0:0:0:
64,0,173331,1,0,0:0:0:0:
192,0,173331,1,0,0:0:0:0:
320,0,173377,1,0,0:0:0:0:
448,0,173422,1,0,0:0:0:0:
64,0,173468,1,0,0:0:0:0:
192,0,173513,1,0,0:0:0:0:
320,0,173559,1,0,0:0:0:0:
448,0,173605,1,0,0:0:0:0:
64,0,173696,1,0,0:0:0:0:
192,0,173696,1,0,0:0:0:0:
320,0,173696,1,0,0:0:0:0:
192,0,173787,1,0,0:0:0:0:
448,0,173787,1,0,0:0:0:0:
64,0,173879,1,0,0:0:0:0:
320,0,173879,1,0,0:0:0:0:
192,0,173970,1,0,0:0:0:0:
448,0,173970,1,0,0:0:0:0:
64,0,174060,1,0,0:0:0:0:
448,0,174060,1,0,0:0:0:0:
192,0,174152,1,0,0:0:0:0:
320,0,174152,1,0,0:0:0:0:
64,0,174243,1,0,0:0:0:0:
448,0,174243,1,0,0:0:0:0:
64,0,174334,1,0,0:0:0:0:
192,0,174334,1,0,0:0:0:0:
320,0,174426,1,0,0:0:0:0:
448,0,174426,1,0,0:0:0:0:
320,0,174517,1,0,0:0:0:0:
448,0,174517,1,0,0:0:0:0:
320,0,174700,1,0,0:0:0:0:
448,0,174700,1,0,0:0:0:0:
320,0,174791,1,0,0:0:0:0:
448,0,174791,1,0,0:0:0:0:
64,0,174836,1,0,0:0:0:0:
192,0,174836,1,0,0:0:0:0:
320,0,174881,1,0,0:0:0:0:
448,0,174881,1,0,0:0:0:0:
64,0,174973,1,0,0:0:0:0:
192,0,174973,1,0,0:0:0:0:
320,0,175019,1,0,0:0:0:0:
448,0,175019,1,0,0:0:0:0:
64,0,175064,1,0,0:0:0:0:
192,0,175064,1,0,0:0:0:0:
192,0,175155,1,0,0:0:0:0:
320,0,175155,1,0,0:0:0:0:
448,0,175155,1,0,0:0:0:0:
64,0,175246,1,0,0:0:0:0:
448,0,175246,1,0,0:0:0:0:
192,0,175338,1,0,0:0:0:0:
320,0,175338,1,0,0:0:0:0:
64,0,175429,1,0,0:0:0:0:
192,0,175429,1,0,0:0:0:0:
320,0,175520,1,0,0:0:0:0:
448,0,175520,1,0,0:0:0:0:
64,0,175612,1,0,0:0:0:0:
192,0,175612,1,0,0:0:0:0:
64,0,175703,1,0,0:0:0:0:
320,0,175703,1,0,0:0:0:0:
448,0,175703,1,0,0:0:0:0:
192,0,175793,1,0,0:0:0:0:
64,0,175885,1,0,0:0:0:0:
320,0,175885,1,0,0:0:0:0:
448,0,175885,1,0,0:0:0:0:
192,0,176159,1,0,0:0:0:0:
320,0,176159,1,0,0:0:0:0:
448,0,176159,1,0,0:0:0:0:
64,0,176250,1,0,0:0:0:0:
192,0,176250,1,0,0:0:0:0:
320,0,176250,1,0,0:0:0:0:
448,0,176250,1,0,0:0:0:0:
64,0,176433,1,0,0:0:0:0:
192,0,176478,1,0,0:0:0:0:
320,0,176524,1,0,0:0:0:0:
448,0,176569,1,0,0:0:0:0:
64,0,176615,1,0,0:0:0:0:
192,0,176615,1,0,0:0:0:0:
320,0,176615,1,0,0:0:0:0:
192,0,176706,1,0,0:0:0:0:
448,0,176797,1,0,0:0:0:0:
320,0,176888,1,0,0:0:0:0:
64,0,176980,1,0,0:0:0:0:
448,0,176980,1,0,0:0:0:0:
192,0,177071,1,0,0:0:0:0:
320,0,177162,1,0,0:0:0:0:
448,0,177162,1,0,0:0:0:0:
64,0,177253,1,0,0:0:0:0:
192,0,177253,1,0,0:0:0:0:
64,0,177345,1,0,0:0:0:0:
192,0,177345,1,0,0:0:0:0:
320,0,177345,1,0,0:0:0:0:
448,0,177345,1,0,0:0:0:0:
320,0,177436,1,0,0:0:0:0:
64,0,177527,1,0,0:0:0:0:
192,0,177527,1,0,0:0:0:0:
320,0,177618,1,0,0:0:0:0:
448,0,177618,1,0,0:0:0:0:
64,0,177709,1,0,0:0:0:0:
192,0,177709,1,0,0:0:0:0:
320,0,177755,1,0,0:0:0:0:
448,0,177755,1,0,0:0:0:0:
64,0,177800,1,0,0:0:0:0:
192,0,177800,1,0,0:0:0:0:
320,0,177892,1,0,0:0:0:0:
448,0,177892,1,0,0:0:0:0:
64,0,177938,1,0,0:0:0:0:
192,0,177938,1,0,0:0:0:0:
320,0,177983,1,0,0:0:0:0:
448,0,177983,1,0,0:0:0:0:
64,0,178074,1,0,0:0:0:0:
192,0,178074,1,0,0:0:0:0:
192,0,178166,1,0,0:0:0:0:
320,0,178257,1,0,0:0:0:0:
320,0,178348,1,0,0:0:0:0:
64,0,178440,1,0,0:0:0:0:
448,0,178440,1,0,0:0:0:0:
64,0,178530,1,0,0:0:0:0:
320,0,178621,1,0,0:0:0:0:
448,0,178621,1,0,0:0:0:0:
64,0,178804,1,0,0:0:0:0:
192,0,178804,1,0,0:0:0:0:
320,0,178804,1,0,0:0:0:0:
448,0,178804,1,0,0:0:0:0:
192,0,179078,1,0,0:0:0:0:
320,0,179078,1,0,0:0:0:0:
64,0,179169,1,0,0:0:0:0:
192,0,179169,1,0,0:0:0:0:
320,0,179169,1,0,0:0:0:0:
448,0,179169,1,0,0:0:0:0:
64,0,179352,1,0,0:0:0:0:
192,0,179352,1,0,0:0:0:0:
64,0,179533,1,0,0:0:0:0:
192,0,179533,1,0,0:0:0:0:
320,0,179533,1,0,0:0:0:0:
448,0,179533,1,0,0:0:0:0:
320,0,179625,1,0,0:0:0:0:
192,0,179716,1,0,0:0:0:0:
320,0,179807,1,0,0:0:0:0:
192,0,179899,1,0,0:0:0:0:
448,0,179899,1,0,0:0:0:0:
64,0,179990,1,0,0:0:0:0:
192,0,180035,1,0,0:0:0:0:
320,0,180081,1,0,0:0:0:0:
448,0,180126,1,0,0:0:0:0:
64,0,180173,1,0,0:0:0:0:
192,0,180218,1,0,0:0:0:0:
320,0,180263,1,0,0:0:0:0:
448,0,180263,1,0,0:0:0:0:
320,0,180354,1,0,0:0:0:0:
448,0,180354,1,0,0:0:0:0:
320,0,180537,1,0,0:0:0:0:
448,0,180537,1,0,0:0:0:0:
320,0,180628,1,0,0:0:0:0:
448,0,180628,1,0,0:0:0:0:
64,0,180674,1,0,0:0:0:0:
192,0,180674,1,0,0:0:0:0:
320,0,180720,1,0,0:0:0:0:
448,0,180720,1,0,0:0:0:0:
64,0,180811,1,0,0:0:0:0:
192,0,180811,1,0,0:0:0:0:
320,0,180856,1,0,0:0:0:0:
448,0,180856,1,0,0:0:0:0:
64,0,180902,1,0,0:0:0:0:
192,0,180902,1,0,0:0:0:0:
320,0,180993,1,0,0:0:0:0:
448,0,180993,1,0,0:0:0:0:
64,0,181039,1,0,0:0:0:0:
192,0,181085,1,0,0:0:0:0:
320,0,181130,1,0,0:0:0:0:
448,0,181175,1,0,0:0:0:0:
192,0,181221,1,0,0:0:0:0:
320,0,181266,1,0,0:0:0:0:
64,0,181313,1,0,0:0:0:0:
448,0,181358,1,0,0:0:0:0:
320,0,181404,1,0,0:0:0:0:
192,0,181449,1,0,0:0:0:0:
64,0,181495,1,0,0:0:0:0:
448,0,181540,1,0,0:0:0:0:
320,0,181586,1,0,0:0:0:0:
192,0,181632,1,0,0:0:0:0:
64,0,181677,1,0,0:0:0:0:
320,0,181723,1,0,0:0:0:0:
448,0,181723,1,0,0:0:0:0:
192,0,181768,1,0,0:0:0:0:
64,0,181814,1,0,0:0:0:0:
448,0,181860,1,0,0:0:0:0:
192,0,181906,1,0,0:0:0:0:
64,0,181951,1,0,0:0:0:0:
320,0,181997,1,0,0:0:0:0:
448,0,182042,1,0,0:0:0:0:
64,0,182087,1,0,0:0:0:0:
192,0,182087,1,0,0:0:0:0:
320,0,182133,1,0,0:0:0:0:
448,0,182133,1,0,0:0:0:0:
64,0,182179,1,0,0:0:0:0:
192,0,182179,1,0,0:0:0:0:
320,0,182270,1,0,0:0:0:0:
448,0,182270,1,0,0:0:0:0:
64,0,182316,1,0,0:0:0:0:
192,0,182316,1,0,0:0:0:0:
320,0,182361,1,0,0:0:0:0:
448,0,182361,1,0,0:0:0:0:
64,0,182453,1,0,0:0:0:0:
192,0,182453,1,0,0:0:0:0:
320,0,182498,1,0,0:0:0:0:
448,0,182544,1,0,0:0:0:0:
64,0,182589,1,0,0:0:0:0:
192,0,182635,1,0,0:0:0:0:
320,0,182680,1,0,0:0:0:0:
448,0,182726,1,0,0:0:0:0:
192,0,182772,1,0,0:0:0:0:
64,0,182818,1,0,0:0:0:0:
448,0,182863,1,0,0:0:0:0:
320,0,182909,1,0,0:0:0:0:
192,0,182954,1,0,0:0:0:0:
64,0,183000,1,0,0:0:0:0:
448,0,183046,1,0,0:0:0:0:
320,0,183091,1,0,0:0:0:0:
192,0,183137,1,0,0:0:0:0:
64,0,183182,1,0,0:0:0:0:
448,0,183182,1,0,0:0:0:0:
320,0,183228,1,0,0:0:0:0:
192,0,183273,1,0,0:0:0:0:
448,0,183320,1,0,0:0:0:0:
64,0,183365,1,0,0:0:0:0:
192,0,183410,1,0,0:0:0:0:
320,0,183456,1,0,0:0:0:0:
448,0,183501,1,0,0:0:0:0:
64,0,183547,1,0,0:0:0:0:
192,0,183547,1,0,0:0:0:0:
320,0,183593,1,0,0:0:0:0:
448,0,183593,1,0,0:0:0:0:
64,0,183639,1,0,0:0:0:0:
192,0,183639,1,0,0:0:0:0:
320,0,183730,1,0,0:0:0:0:
448,0,183730,1,0,0:0:0:0:
64,0,183775,1,0,0:0:0:0:
192,0,183775,1,0,0:0:0:0:
320,0,183821,1,0,0:0:0:0:
448,0,183821,1,0,0:0:0:0:
64,0,183912,1,0,0:0:0:0:
192,0,183912,1,0,0:0:0:0:
192,0,184026,1,0,0:0:0:0:
320,0,184026,1,0,0:0:0:0:
448,0,184026,1,0,0:0:0:0:
64,0,184163,1,0,0:0:0:0:
320,0,184163,1,0,0:0:0:0:
448,0,184163,1,0,0:0:0:0:
320,0,184277,1,0,0:0:0:0:
448,0,184277,1,0,0:0:0:0:
64,0,184322,1,0,0:0:0:0:
192,0,184322,1,0,0:0:0:0:
320,0,184368,1,0,0:0:0:0:
448,0,184368,1,0,0:0:0:0:
64,0,184460,1,0,0:0:0:0:
192,0,184460,1,0,0:0:0:0:
320,0,184505,1,0,0:0:0:0:
448,0,184505,1,0,0:0:0:0:
64,0,184551,1,0,0:0:0:0:
192,0,184551,1,0,0:0:0:0:
320,0,184642,1,0,0:0:0:0:
448,0,184642,1,0,0:0:0:0:
64,0,184756,1,0,0:0:0:0:
192,0,184756,1,0,0:0:0:0:
320,0,184756,1,0,0:0:0:0:
64,0,184893,1,0,0:0:0:0:
192,0,184893,1,0,0:0:0:0:
448,0,184893,1,0,0:0:0:0:
320,0,185006,1,0,0:0:0:0:
448,0,185006,1,0,0:0:0:0:
64,0,185053,1,0,0:0:0:0:
192,0,185053,1,0,0:0:0:0:
320,0,185098,1,0,0:0:0:0:
448,0,185098,1,0,0:0:0:0:
64,0,185189,1,0,0:0:0:0:
192,0,185189,1,0,0:0:0:0:
320,0,185234,1,0,0:0:0:0:
448,0,185234,1,0,0:0:0:0:
64,0,185280,1,0,0:0:0:0:
192,0,185280,1,0,0:0:0:0:
320,0,185372,1,0,0:0:0:0:
448,0,185372,1,0,0:0:0:0:
64,0,185417,1,0,0:0:0:0:
192,0,185463,1,0,0:0:0:0:
320,0,185508,1,0,0:0:0:0:
448,0,185554,1,0,0:0:0:0:
64,0,185600,1,0,0:0:0:0:
320,0,185645,1,0,0:0:0:0:
192,0,185691,1,0,0:0:0:0:
64,0,185736,1,0,0:0:0:0:
448,0,185736,1,0,0:0:0:0:
320,0,185782,1,0,0:0:0:0:
192,0,185827,1,0,0:0:0:0:
64,0,185873,1,0,0:0:0:0:
448,0,185919,1,0,0:0:0:0:
320,0,185965,1,0,0:0:0:0:
64,0,186010,1,0,0:0:0:0:
192,0,186056,1,0,0:0:0:0:
320,0,186101,1,0,0:0:0:0:
448,0,186101,1,0,0:0:0:0:
64,0,186146,1,0,0:0:0:0:
192,0,186193,1,0,0:0:0:0:
448,0,186238,1,0,0:0:0:0:
64,0,186284,1,0,0:0:0:0:
192,0,186329,1,0,0:0:0:0:
320,0,186375,1,0,0:0:0:0:
448,0,186420,1,0,0:0:0:0:
64,0,186466,1,0,0:0:0:0:
192,0,186466,1,0,0:0:0:0:
320,0,186512,1,0,0:0:0:0:
448,0,186512,1,0,0:0:0:0:
64,0,186557,1,0,0:0:0:0:
192,0,186557,1,0,0:0:0:0:
320,0,186648,1,0,0:0:0:0:
448,0,186648,1,0,0:0:0:0:
64,0,186694,1,0,0:0:0:0:
192,0,186694,1,0,0:0:0:0:
320,0,186740,1,0,0:0:0:0:
448,0,186740,1,0,0:0:0:0:
64,0,186831,128,0,188837:0:0:0:0:
192,0,186831,128,0,188837:0:0:0:0:
320,0,186831,128,0,188837:0:0:0:0:
448,0,186831,128,0,188837:0:0:0:0:
