osu file format v14

[General]
AudioFilename: 07. Valley of Shadows (Original Mix)_1.05.mp3
AudioLeadIn: 1500
PreviewTime: 76190
Countdown: 0
SampleSet: Normal
StackLeniency: 0.7
Mode: 3
LetterboxInBreaks: 0
SpecialStyle: 0
WidescreenStoryboard: 0

[Editor]
DistanceSpacing: 0.8
BeatDivisor: 8
GridSize: 16
TimelineZoom: 3.899998

[Metadata]
Title:Valley of Shadows
TitleUnicode:Valley of Shadows
Artist:Savant
ArtistUnicode:Savant
Creator:booty
Version:Hard x1.05
Source:
Tags:
BeatmapID:1935049
BeatmapSetID:926400

[Difficulty]
HPDrainRate:7
CircleSize:4
OverallDifficulty:7
ApproachRate:9
SliderMultiplier:1.4
SliderTickRate:1

[Events]
//Background and Video events
0,0,"bg.jpg",0,0
//Break Periods
//Storyboard Layer 0 (Background)
//Storyboard Layer 1 (Fail)
//Storyboard Layer 2 (Pass)
//Storyboard Layer 3 (Foreground)
//Storyboard Sound Samples

[TimingPoints]
74,399.611428571429,4,1,0,15,1,0

[HitObjects]
64,0,23,5,0,0:0:0:0:
448,0,23,1,0,0:0:0:0:
64,0,123,1,0,0:0:0:0:
320,0,223,1,0,0:0:0:0:
192,0,323,1,0,0:0:0:0:
320,0,323,1,0,0:0:0:0:
64,0,423,1,0,0:0:0:0:
64,0,523,1,0,0:0:0:0:
320,0,622,1,0,0:0:0:0:
448,0,622,1,0,0:0:0:0:
320,0,722,1,0,0:0:0:0:
64,0,822,1,0,0:0:0:0:
192,0,822,1,0,0:0:0:0:
64,0,922,1,0,0:0:0:0:
320,0,1022,1,0,0:0:0:0:
320,0,1122,1,0,0:0:0:0:
448,0,1122,1,0,0:0:0:0:
192,0,1222,1,0,0:0:0:0:
192,0,1322,1,0,0:0:0:0:
320,0,1422,1,0,0:0:0:0:
448,0,1422,1,0,0:0:0:0:
448,0,1522,1,0,0:0:0:0:
64,0,1621,1,0,0:0:0:0:
64,0,1721,1,0,0:0:0:0:
320,0,1821,1,0,0:0:0:0:
64,0,1921,1,0,0:0:0:0:
320,0,1921,1,0,0:0:0:0:
192,0,2021,1,0,0:0:0:0:
192,0,2121,1,0,0:0:0:0:
320,0,2221,1,0,0:0:0:0:
448,0,2221,1,0,0:0:0:0:
448,0,2321,1,0,0:0:0:0:
64,0,2421,1,0,0:0:0:0:
192,0,2421,1,0,0:0:0:0:
192,0,2520,1,0,0:0:0:0:
320,0,2620,1,0,0:0:0:0:
320,0,2720,1,0,0:0:0:0:
448,0,2720,1,0,0:0:0:0:
64,0,2820,1,0,0:0:0:0:
64,0,2920,1,0,0:0:0:0:
320,0,3020,1,0,0:0:0:0:
448,0,3020,1,0,0:0:0:0:
448,0,3120,1,0,0:0:0:0:
64,0,3220,1,0,0:0:0:0:
192,0,3220,1,0,0:0:0:0:
192,0,3320,1,0,0:0:0:0:
320,0,3420,1,0,0:0:0:0:
320,0,3520,1,0,0:0:0:0:
448,0,3520,1,0,0:0:0:0:
64,0,3620,1,0,0:0:0:0:
64,0,3720,1,0,0:0:0:0:
320,0,3820,1,0,0:0:0:0:
448,0,3820,1,0,0:0:0:0:
320,0,3920,1,0,0:0:0:0:
64,0,4020,1,0,0:0:0:0:
192,0,4020,1,0,0:0:0:0:
192,0,4120,1,0,0:0:0:0:
448,0,4220,1,0,0:0:0:0:
320,0,4320,1,0,0:0:0:0:
448,0,4320,1,0,0:0:0:0:
64,0,4420,1,0,0:0:0:0:
64,0,4519,1,0,0:0:0:0:
320,0,4619,1,0,0:0:0:0:
448,0,4619,1,0,0:0:0:0:
320,0,4719,1,0,0:0:0:0:
64,0,4819,1,0,0:0:0:0:
192,0,4819,1,0,0:0:0:0:
64,0,4919,1,0,0:0:0:0:
192,0,5019,1,0,0:0:0:0:
320,0,5019,1,0,0:0:0:0:
320,0,5119,1,0,0:0:0:0:
448,0,5119,1,0,0:0:0:0:
192,0,5219,1,0,0:0:0:0:
320,0,5268,1,0,0:0:0:0:
448,0,5319,1,0,0:0:0:0:
64,0,5419,1,0,0:0:0:0:
192,0,5419,1,0,0:0:0:0:
320,0,5618,1,0,0:0:0:0:
448,0,5668,1,0,0:0:0:0:
64,0,5718,1,0,0:0:0:0:
192,0,5818,1,0,0:0:0:0:
320,0,5818,1,0,0:0:0:0:
64,0,5918,1,0,0:0:0:0:
448,0,5918,1,0,0:0:0:0:
192,0,6018,1,0,0:0:0:0:
320,0,6018,1,0,0:0:0:0:
448,0,6067,1,0,0:0:0:0:
64,0,6118,1,0,0:0:0:0:
320,0,6418,1,0,0:0:0:0:
448,0,6418,1,0,0:0:0:0:
64,0,6467,1,0,0:0:0:0:
192,0,6517,1,0,0:0:0:0:
64,0,6717,1,0,0:0:0:0:
192,0,6717,1,0,0:0:0:0:
320,0,6817,1,0,0:0:0:0:
192,0,6867,1,0,0:0:0:0:
448,0,6917,1,0,0:0:0:0:
192,0,7017,1,0,0:0:0:0:
320,0,7017,1,0,0:0:0:0:
192,0,7217,1,0,0:0:0:0:
320,0,7217,1,0,0:0:0:0:
448,0,7266,1,0,0:0:0:0:
64,0,7317,1,0,0:0:0:0:
64,0,7416,1,0,0:0:0:0:
320,0,7516,1,0,0:0:0:0:
448,0,7516,1,0,0:0:0:0:
64,0,7616,1,0,0:0:0:0:
320,0,7666,1,0,0:0:0:0:
192,0,7716,1,0,0:0:0:0:
64,0,7816,1,0,0:0:0:0:
448,0,7816,1,0,0:0:0:0:
192,0,7916,1,0,0:0:0:0:
320,0,8016,1,0,0:0:0:0:
448,0,8065,1,0,0:0:0:0:
192,0,8116,1,0,0:0:0:0:
192,0,8216,1,0,0:0:0:0:
64,0,8316,1,0,0:0:0:0:
448,0,8316,1,0,0:0:0:0:
192,0,8415,1,0,0:0:0:0:
320,0,8465,1,0,0:0:0:0:
448,0,8515,1,0,0:0:0:0:
64,0,8615,1,0,0:0:0:0:
192,0,8615,1,0,0:0:0:0:
320,0,8715,1,0,0:0:0:0:
64,0,8815,1,0,0:0:0:0:
448,0,8815,1,0,0:0:0:0:
64,0,8915,1,0,0:0:0:0:
320,0,9015,1,0,0:0:0:0:
192,0,9115,1,0,0:0:0:0:
320,0,9115,1,0,0:0:0:0:
64,0,9215,1,0,0:0:0:0:
64,0,9315,1,0,0:0:0:0:
320,0,9414,1,0,0:0:0:0:
448,0,9414,1,0,0:0:0:0:
448,0,9514,1,0,0:0:0:0:
64,0,9614,1,0,0:0:0:0:
192,0,9614,1,0,0:0:0:0:
192,0,9714,1,0,0:0:0:0:
320,0,9814,1,0,0:0:0:0:
64,0,9914,1,0,0:0:0:0:
448,0,9914,1,0,0:0:0:0:
64,0,10014,1,0,0:0:0:0:
320,0,10114,1,0,0:0:0:0:
192,0,10214,1,0,0:0:0:0:
448,0,10214,1,0,0:0:0:0:
320,0,10314,1,0,0:0:0:0:
64,0,10413,1,0,0:0:0:0:
192,0,10413,1,0,0:0:0:0:
192,0,10513,1,0,0:0:0:0:
448,0,10613,1,0,0:0:0:0:
320,0,10713,1,0,0:0:0:0:
448,0,10713,1,0,0:0:0:0:
192,0,11013,1,0,0:0:0:0:
320,0,11013,1,0,0:0:0:0:
448,0,11113,1,0,0:0:0:0:
64,0,11213,1,0,0:0:0:0:
192,0,11262,1,0,0:0:0:0:
448,0,11313,1,0,0:0:0:0:
192,0,11412,1,0,0:0:0:0:
64,0,11512,1,0,0:0:0:0:
192,0,11512,1,0,0:0:0:0:
320,0,11612,1,0,0:0:0:0:
448,0,11662,1,0,0:0:0:0:
192,0,11712,1,0,0:0:0:0:
64,0,11812,1,0,0:0:0:0:
448,0,11812,1,0,0:0:0:0:
192,0,11912,1,0,0:0:0:0:
320,0,12012,1,0,0:0:0:0:
192,0,12061,1,0,0:0:0:0:
448,0,12112,1,0,0:0:0:0:
192,0,12212,1,0,0:0:0:0:
320,0,12212,1,0,0:0:0:0:
64,0,12311,1,0,0:0:0:0:
448,0,12311,1,0,0:0:0:0:
192,0,12411,1,0,0:0:0:0:
320,0,12411,1,0,0:0:0:0:
448,0,12461,1,0,0:0:0:0:
64,0,12511,1,0,0:0:0:0:
192,0,12611,1,0,0:0:0:0:
192,0,12711,1,0,0:0:0:0:
320,0,12811,1,0,0:0:0:0:
448,0,12811,1,0,0:0:0:0:
64,0,12860,1,0,0:0:0:0:
192,0,12911,1,0,0:0:0:0:
320,0,13011,1,0,0:0:0:0:
320,0,13111,1,0,0:0:0:0:
448,0,13111,1,0,0:0:0:0:
192,0,13211,1,0,0:0:0:0:
64,0,13260,1,0,0:0:0:0:
320,0,13310,1,0,0:0:0:0:
64,0,13410,1,0,0:0:0:0:
448,0,13410,1,0,0:0:0:0:
448,0,13510,1,0,0:0:0:0:
64,0,13610,1,0,0:0:0:0:
192,0,13610,1,0,0:0:0:0:
320,0,13660,1,0,0:0:0:0:
448,0,13710,1,0,0:0:0:0:
192,0,13810,1,0,0:0:0:0:
64,0,13910,1,0,0:0:0:0:
320,0,13910,1,0,0:0:0:0:
192,0,14010,1,0,0:0:0:0:
320,0,14060,1,0,0:0:0:0:
64,0,14110,1,0,0:0:0:0:
192,0,14210,1,0,0:0:0:0:
320,0,14210,1,0,0:0:0:0:
448,0,14309,1,0,0:0:0:0:
192,0,14409,1,0,0:0:0:0:
320,0,14460,1,0,0:0:0:0:
64,0,14509,1,0,0:0:0:0:
448,0,14609,1,0,0:0:0:0:
320,0,14709,1,0,0:0:0:0:
448,0,14709,1,0,0:0:0:0:
192,0,14809,1,0,0:0:0:0:
64,0,14859,1,0,0:0:0:0:
320,0,14909,1,0,0:0:0:0:
64,0,15009,1,0,0:0:0:0:
448,0,15009,1,0,0:0:0:0:
320,0,15109,1,0,0:0:0:0:
64,0,15209,1,0,0:0:0:0:
192,0,15209,1,0,0:0:0:0:
320,0,15259,1,0,0:0:0:0:
448,0,15308,1,0,0:0:0:0:
64,0,15408,1,0,0:0:0:0:
192,0,15508,1,0,0:0:0:0:
320,0,15508,1,0,0:0:0:0:
448,0,15608,1,0,0:0:0:0:
192,0,15659,1,0,0:0:0:0:
64,0,15708,1,0,0:0:0:0:
320,0,15808,1,0,0:0:0:0:
448,0,15808,1,0,0:0:0:0:
192,0,15908,1,0,0:0:0:0:
64,0,16008,1,0,0:0:0:0:
448,0,16008,1,0,0:0:0:0:
320,0,16058,1,0,0:0:0:0:
192,0,16108,1,0,0:0:0:0:
320,0,16208,1,0,0:0:0:0:
192,0,16307,1,0,0:0:0:0:
320,0,16307,1,0,0:0:0:0:
64,0,16407,1,0,0:0:0:0:
448,0,16458,1,0,0:0:0:0:
192,0,16507,1,0,0:0:0:0:
320,0,16607,1,0,0:0:0:0:
448,0,16607,1,0,0:0:0:0:
64,0,16707,1,0,0:0:0:0:
192,0,16807,1,0,0:0:0:0:
320,0,16807,1,0,0:0:0:0:
64,0,16857,1,0,0:0:0:0:
448,0,16907,1,0,0:0:0:0:
320,0,17007,1,0,0:0:0:0:
64,0,17107,1,0,0:0:0:0:
192,0,17107,1,0,0:0:0:0:
320,0,17206,1,0,0:0:0:0:
192,0,17257,1,0,0:0:0:0:
64,0,17306,1,0,0:0:0:0:
320,0,17406,1,0,0:0:0:0:
448,0,17406,1,0,0:0:0:0:
192,0,17506,1,0,0:0:0:0:
320,0,17606,1,0,0:0:0:0:
64,0,17657,1,0,0:0:0:0:
448,0,17706,1,0,0:0:0:0:
64,0,17806,1,0,0:0:0:0:
192,0,17906,1,0,0:0:0:0:
320,0,17906,1,0,0:0:0:0:
64,0,18006,1,0,0:0:0:0:
448,0,18006,1,0,0:0:0:0:
320,0,18056,1,0,0:0:0:0:
192,0,18106,1,0,0:0:0:0:
320,0,18205,1,0,0:0:0:0:
448,0,18205,1,0,0:0:0:0:
64,0,18305,1,0,0:0:0:0:
192,0,18405,1,0,0:0:0:0:
320,0,18456,1,0,0:0:0:0:
448,0,18505,1,0,0:0:0:0:
64,0,18605,1,0,0:0:0:0:
192,0,18605,1,0,0:0:0:0:
320,0,18705,1,0,0:0:0:0:
448,0,18705,1,0,0:0:0:0:
64,0,18805,1,0,0:0:0:0:
192,0,18805,1,0,0:0:0:0:
320,0,18855,1,0,0:0:0:0:
448,0,18905,1,0,0:0:0:0:
192,0,19005,1,0,0:0:0:0:
448,0,19105,1,0,0:0:0:0:
192,0,19204,1,0,0:0:0:0:
320,0,19204,1,0,0:0:0:0:
64,0,19255,1,0,0:0:0:0:
448,0,19304,1,0,0:0:0:0:
192,0,19404,1,0,0:0:0:0:
320,0,19504,1,0,0:0:0:0:
448,0,19504,1,0,0:0:0:0:
64,0,19604,1,0,0:0:0:0:
192,0,19654,1,0,0:0:0:0:
320,0,19704,1,0,0:0:0:0:
64,0,19804,1,0,0:0:0:0:
448,0,19804,1,0,0:0:0:0:
320,0,19904,1,0,0:0:0:0:
64,0,20004,1,0,0:0:0:0:
192,0,20004,1,0,0:0:0:0:
448,0,20054,1,0,0:0:0:0:
320,0,20104,1,0,0:0:0:0:
192,0,20203,1,0,0:0:0:0:
64,0,20303,1,0,0:0:0:0:
320,0,20303,1,0,0:0:0:0:
448,0,20403,1,0,0:0:0:0:
192,0,20454,1,0,0:0:0:0:
64,0,20503,1,0,0:0:0:0:
320,0,20603,1,0,0:0:0:0:
448,0,20603,1,0,0:0:0:0:
192,0,20703,1,0,0:0:0:0:
320,0,20803,1,0,0:0:0:0:
64,0,20853,1,0,0:0:0:0:
192,0,20903,1,0,0:0:0:0:
448,0,21003,1,0,0:0:0:0:
192,0,21103,1,0,0:0:0:0:
320,0,21103,1,0,0:0:0:0:
448,0,21202,1,0,0:0:0:0:
64,0,21253,1,0,0:0:0:0:
192,0,21302,1,0,0:0:0:0:
320,0,21402,1,0,0:0:0:0:
448,0,21402,1,0,0:0:0:0:
64,0,21502,1,0,0:0:0:0:
192,0,21602,1,0,0:0:0:0:
320,0,21602,1,0,0:0:0:0:
64,0,21652,1,0,0:0:0:0:
448,0,21702,1,0,0:0:0:0:
320,0,21802,1,0,0:0:0:0:
64,0,21902,1,0,0:0:0:0:
192,0,21902,1,0,0:0:0:0:
320,0,22002,1,0,0:0:0:0:
448,0,22052,1,0,0:0:0:0:
64,0,22101,1,0,0:0:0:0:
192,0,22201,1,0,0:0:0:0:
320,0,22201,1,0,0:0:0:0:
448,0,22301,1,0,0:0:0:0:
64,0,22401,1,0,0:0:0:0:
192,0,22401,1,0,0:0:0:0:
320,0,22452,1,0,0:0:0:0:
448,0,22501,1,0,0:0:0:0:
192,0,22601,1,0,0:0:0:0:
320,0,22701,1,0,0:0:0:0:
448,0,22701,1,0,0:0:0:0:
64,0,22801,1,0,0:0:0:0:
320,0,22851,1,0,0:0:0:0:
192,0,22901,1,0,0:0:0:0:
64,0,23001,1,0,0:0:0:0:
448,0,23001,1,0,0:0:0:0:
320,0,23100,1,0,0:0:0:0:
64,0,23200,1,0,0:0:0:0:
192,0,23200,1,0,0:0:0:0:
448,0,23251,1,0,0:0:0:0:
320,0,23300,1,0,0:0:0:0:
64,0,23400,1,0,0:0:0:0:
192,0,23500,1,0,0:0:0:0:
320,0,23500,1,0,0:0:0:0:
448,0,23600,1,0,0:0:0:0:
64,0,23650,1,0,0:0:0:0:
192,0,23700,1,0,0:0:0:0:
320,0,23800,1,0,0:0:0:0:
448,0,23800,1,0,0:0:0:0:
64,0,23900,1,0,0:0:0:0:
320,0,24000,1,0,0:0:0:0:
192,0,24050,1,0,0:0:0:0:
448,0,24100,1,0,0:0:0:0:
320,0,24200,1,0,0:0:0:0:
64,0,24300,1,0,0:0:0:0:
192,0,24300,1,0,0:0:0:0:
448,0,24400,1,0,0:0:0:0:
320,0,24450,1,0,0:0:0:0:
64,0,24500,1,0,0:0:0:0:
192,0,24600,1,0,0:0:0:0:
320,0,24600,1,0,0:0:0:0:
448,0,24700,1,0,0:0:0:0:
192,0,24800,1,0,0:0:0:0:
320,0,24800,1,0,0:0:0:0:
64,0,24849,1,0,0:0:0:0:
448,0,24900,1,0,0:0:0:0:
64,0,25000,1,0,0:0:0:0:
192,0,25000,1,0,0:0:0:0:
320,0,25099,1,0,0:0:0:0:
448,0,25099,1,0,0:0:0:0:
64,0,25199,1,0,0:0:0:0:
192,0,25199,1,0,0:0:0:0:
320,0,25249,1,0,0:0:0:0:
448,0,25299,1,0,0:0:0:0:
64,0,25399,1,0,0:0:0:0:
192,0,25399,1,0,0:0:0:0:
320,0,25499,1,0,0:0:0:0:
64,0,25599,1,0,0:0:0:0:
448,0,25599,1,0,0:0:0:0:
320,0,25648,1,0,0:0:0:0:
192,0,25699,1,0,0:0:0:0:
64,0,25748,1,0,0:0:0:0:
448,0,25799,1,0,0:0:0:0:
192,0,25848,1,0,0:0:0:0:
320,0,25899,1,0,0:0:0:0:
448,0,25948,1,0,0:0:0:0:
64,0,25999,1,0,0:0:0:0:
320,0,26048,1,0,0:0:0:0:
192,0,26098,1,0,0:0:0:0:
320,0,26198,1,0,0:0:0:0:
448,0,26198,1,0,0:0:0:0:
192,0,26298,1,0,0:0:0:0:
64,0,26398,1,0,0:0:0:0:
320,0,26398,1,0,0:0:0:0:
448,0,26398,1,0,0:0:0:0:
192,0,26498,1,0,0:0:0:0:
320,0,26598,1,0,0:0:0:0:
448,0,26598,1,0,0:0:0:0:
320,0,26698,1,0,0:0:0:0:
448,0,26698,1,0,0:0:0:0:
64,0,26798,1,0,0:0:0:0:
192,0,26798,1,0,0:0:0:0:
448,0,26872,1,0,0:0:0:0:
320,0,26922,1,0,0:0:0:0:
192,0,26997,1,0,0:0:0:0:
64,0,27072,1,0,0:0:0:0:
448,0,27122,1,0,0:0:0:0:
320,0,27197,1,0,0:0:0:0:
192,0,27247,1,0,0:0:0:0:
320,0,27297,1,0,0:0:0:0:
192,0,27347,1,0,0:0:0:0:
448,0,27397,1,0,0:0:0:0:
320,0,27447,1,0,0:0:0:0:
192,0,27497,1,0,0:0:0:0:
64,0,27546,1,0,0:0:0:0:
448,0,27597,1,0,0:0:0:0:
320,0,27646,1,0,0:0:0:0:
192,0,27697,1,0,0:0:0:0:
448,0,27797,1,0,0:0:0:0:
64,0,27846,1,0,0:0:0:0:
192,0,27897,1,0,0:0:0:0:
320,0,27996,1,0,0:0:0:0:
448,0,27996,1,0,0:0:0:0:
64,0,28046,1,0,0:0:0:0:
192,0,28096,1,0,0:0:0:0:
320,0,28196,1,0,0:0:0:0:
448,0,28246,1,0,0:0:0:0:
192,0,28296,1,0,0:0:0:0:
320,0,28396,1,0,0:0:0:0:
320,0,28496,1,0,0:0:0:0:
192,0,28596,1,0,0:0:0:0:
448,0,28596,1,0,0:0:0:0:
192,0,28696,1,0,0:0:0:0:
64,0,28796,1,0,0:0:0:0:
320,0,28845,1,0,0:0:0:0:
448,0,28896,1,0,0:0:0:0:
192,0,28945,1,0,0:0:0:0:
64,0,28995,1,0,0:0:0:0:
320,0,29045,1,0,0:0:0:0:
448,0,29095,1,0,0:0:0:0:
192,0,29145,1,0,0:0:0:0:
64,0,29195,1,0,0:0:0:0:
320,0,29270,1,0,0:0:0:0:
448,0,29320,1,0,0:0:0:0:
64,0,29395,1,0,0:0:0:0:
192,0,29395,1,0,0:0:0:0:
320,0,29395,1,0,0:0:0:0:
64,0,29595,1,0,0:0:0:0:
192,0,29595,1,0,0:0:0:0:
320,0,29595,1,0,0:0:0:0:
448,0,29595,1,0,0:0:0:0:
192,0,29795,1,0,0:0:0:0:
192,0,29895,1,0,0:0:0:0:
320,0,29994,1,0,0:0:0:0:
448,0,29994,1,0,0:0:0:0:
64,0,30044,1,0,0:0:0:0:
192,0,30094,1,0,0:0:0:0:
320,0,30144,1,0,0:0:0:0:
448,0,30194,1,0,0:0:0:0:
192,0,30394,1,0,0:0:0:0:
320,0,30394,1,0,0:0:0:0:
448,0,30443,1,0,0:0:0:0:
64,0,30494,1,0,0:0:0:0:
192,0,30543,1,0,0:0:0:0:
320,0,30594,1,0,0:0:0:0:
448,0,30643,1,0,0:0:0:0:
192,0,30694,1,0,0:0:0:0:
320,0,30743,1,0,0:0:0:0:
64,0,30794,1,0,0:0:0:0:
448,0,30843,1,0,0:0:0:0:
320,0,30894,1,0,0:0:0:0:
192,0,30943,1,0,0:0:0:0:
64,0,30993,1,0,0:0:0:0:
448,0,30993,1,0,0:0:0:0:
64,0,31193,1,0,0:0:0:0:
192,0,31193,1,0,0:0:0:0:
320,0,31193,1,0,0:0:0:0:
448,0,31193,1,0,0:0:0:0:
192,0,31393,1,0,0:0:0:0:
320,0,31393,1,0,0:0:0:0:
448,0,31393,1,0,0:0:0:0:
320,0,31593,1,0,0:0:0:0:
448,0,31593,1,0,0:0:0:0:
192,0,31642,1,0,0:0:0:0:
64,0,31693,1,0,0:0:0:0:
448,0,31742,1,0,0:0:0:0:
192,0,31793,1,0,0:0:0:0:
320,0,31793,1,0,0:0:0:0:
64,0,31992,1,0,0:0:0:0:
448,0,31992,1,0,0:0:0:0:
192,0,32067,1,0,0:0:0:0:
64,0,32118,1,0,0:0:0:0:
192,0,32192,1,0,0:0:0:0:
320,0,32242,1,0,0:0:0:0:
448,0,32292,1,0,0:0:0:0:
64,0,32342,1,0,0:0:0:0:
192,0,32392,1,0,0:0:0:0:
448,0,32441,1,0,0:0:0:0:
320,0,32492,1,0,0:0:0:0:
192,0,32541,1,0,0:0:0:0:
64,0,32592,1,0,0:0:0:0:
192,0,32792,1,0,0:0:0:0:
320,0,32792,1,0,0:0:0:0:
448,0,32792,1,0,0:0:0:0:
64,0,32991,1,0,0:0:0:0:
192,0,32991,1,0,0:0:0:0:
192,0,33091,1,0,0:0:0:0:
320,0,33091,1,0,0:0:0:0:
320,0,33191,1,0,0:0:0:0:
448,0,33191,1,0,0:0:0:0:
64,0,33241,1,0,0:0:0:0:
192,0,33291,1,0,0:0:0:0:
320,0,33341,1,0,0:0:0:0:
448,0,33391,1,0,0:0:0:0:
448,0,33491,1,0,0:0:0:0:
64,0,33591,1,0,0:0:0:0:
192,0,33591,1,0,0:0:0:0:
448,0,33640,1,0,0:0:0:0:
320,0,33691,1,0,0:0:0:0:
192,0,33740,1,0,0:0:0:0:
64,0,33791,1,0,0:0:0:0:
320,0,33890,1,0,0:0:0:0:
448,0,33890,1,0,0:0:0:0:
192,0,33990,1,0,0:0:0:0:
64,0,34040,1,0,0:0:0:0:
320,0,34090,1,0,0:0:0:0:
192,0,34190,1,0,0:0:0:0:
448,0,34240,1,0,0:0:0:0:
64,0,34290,1,0,0:0:0:0:
192,0,34390,1,0,0:0:0:0:
320,0,34390,1,0,0:0:0:0:
448,0,34440,1,0,0:0:0:0:
64,0,34490,1,0,0:0:0:0:
192,0,34590,1,0,0:0:0:0:
320,0,34640,1,0,0:0:0:0:
448,0,34690,1,0,0:0:0:0:
64,0,34790,1,0,0:0:0:0:
192,0,34840,1,0,0:0:0:0:
320,0,34889,1,0,0:0:0:0:
448,0,34940,1,0,0:0:0:0:
64,0,34989,1,0,0:0:0:0:
192,0,35040,1,0,0:0:0:0:
320,0,35089,1,0,0:0:0:0:
448,0,35140,1,0,0:0:0:0:
64,0,35189,1,0,0:0:0:0:
192,0,35189,1,0,0:0:0:0:
320,0,35264,1,0,0:0:0:0:
448,0,35264,1,0,0:0:0:0:
64,0,35314,1,0,0:0:0:0:
192,0,35314,1,0,0:0:0:0:
320,0,35389,1,0,0:0:0:0:
448,0,35389,1,0,0:0:0:0:
64,0,35464,1,0,0:0:0:0:
192,0,35464,1,0,0:0:0:0:
320,0,35514,1,0,0:0:0:0:
448,0,35514,1,0,0:0:0:0:
64,0,35589,1,0,0:0:0:0:
192,0,35589,1,0,0:0:0:0:
320,0,35663,1,0,0:0:0:0:
448,0,35663,1,0,0:0:0:0:
64,0,35714,1,0,0:0:0:0:
192,0,35714,1,0,0:0:0:0:
320,0,35789,1,0,0:0:0:0:
448,0,35789,1,0,0:0:0:0:
64,0,35863,1,0,0:0:0:0:
192,0,35863,1,0,0:0:0:0:
320,0,35914,1,0,0:0:0:0:
448,0,35914,1,0,0:0:0:0:
64,0,35988,1,0,0:0:0:0:
192,0,35988,1,0,0:0:0:0:
64,0,36188,1,0,0:0:0:0:
192,0,36188,1,0,0:0:0:0:
192,0,36288,1,0,0:0:0:0:
320,0,36288,1,0,0:0:0:0:
320,0,36388,1,0,0:0:0:0:
448,0,36388,1,0,0:0:0:0:
64,0,36463,1,0,0:0:0:0:
192,0,36463,1,0,0:0:0:0:
320,0,36513,1,0,0:0:0:0:
448,0,36513,1,0,0:0:0:0:
64,0,36588,1,0,0:0:0:0:
192,0,36588,1,0,0:0:0:0:
320,0,36662,1,0,0:0:0:0:
448,0,36662,1,0,0:0:0:0:
64,0,36787,1,0,0:0:0:0:
192,0,36787,1,0,0:0:0:0:
320,0,36862,1,0,0:0:0:0:
448,0,36862,1,0,0:0:0:0:
64,0,36913,1,0,0:0:0:0:
192,0,36913,1,0,0:0:0:0:
320,0,36987,1,0,0:0:0:0:
448,0,36987,1,0,0:0:0:0:
64,0,37062,1,0,0:0:0:0:
192,0,37062,1,0,0:0:0:0:
320,0,37187,1,0,0:0:0:0:
448,0,37187,1,0,0:0:0:0:
64,0,37262,1,0,0:0:0:0:
192,0,37262,1,0,0:0:0:0:
320,0,37312,1,0,0:0:0:0:
448,0,37312,1,0,0:0:0:0:
64,0,37387,1,0,0:0:0:0:
192,0,37387,1,0,0:0:0:0:
320,0,37462,1,0,0:0:0:0:
448,0,37462,1,0,0:0:0:0:
64,0,37587,1,0,0:0:0:0:
192,0,37587,1,0,0:0:0:0:
192,0,37786,1,0,0:0:0:0:
64,0,37886,1,0,0:0:0:0:
448,0,37886,1,0,0:0:0:0:
320,0,37986,1,0,0:0:0:0:
320,0,38186,1,0,0:0:0:0:
448,0,38186,1,0,0:0:0:0:
192,0,38237,1,0,0:0:0:0:
64,0,38286,1,0,0:0:0:0:
320,0,38336,1,0,0:0:0:0:
64,0,38386,1,0,0:0:0:0:
192,0,38386,1,0,0:0:0:0:
448,0,38386,1,0,0:0:0:0:
320,0,38461,1,0,0:0:0:0:
192,0,38511,1,0,0:0:0:0:
64,0,38586,1,0,0:0:0:0:
320,0,38686,1,0,0:0:0:0:
448,0,38686,1,0,0:0:0:0:
192,0,38785,1,0,0:0:0:0:
320,0,38785,1,0,0:0:0:0:
64,0,38885,1,0,0:0:0:0:
448,0,38885,1,0,0:0:0:0:
192,0,38985,1,0,0:0:0:0:
320,0,38985,1,0,0:0:0:0:
320,0,39185,1,0,0:0:0:0:
448,0,39185,1,0,0:0:0:0:
64,0,39385,1,0,0:0:0:0:
192,0,39385,1,0,0:0:0:0:
192,0,39485,1,0,0:0:0:0:
320,0,39485,1,0,0:0:0:0:
320,0,39585,1,0,0:0:0:0:
448,0,39585,1,0,0:0:0:0:
64,0,39685,1,0,0:0:0:0:
448,0,39685,1,0,0:0:0:0:
64,0,39784,1,0,0:0:0:0:
192,0,39784,1,0,0:0:0:0:
320,0,39984,1,0,0:0:0:0:
448,0,39984,1,0,0:0:0:0:
192,0,40035,1,0,0:0:0:0:
64,0,40084,1,0,0:0:0:0:
448,0,40135,1,0,0:0:0:0:
192,0,40184,1,0,0:0:0:0:
320,0,40184,1,0,0:0:0:0:
64,0,40284,1,0,0:0:0:0:
448,0,40284,1,0,0:0:0:0:
192,0,40384,1,0,0:0:0:0:
320,0,40384,1,0,0:0:0:0:
64,0,40584,1,0,0:0:0:0:
192,0,40584,1,0,0:0:0:0:
320,0,40584,1,0,0:0:0:0:
192,0,40783,1,0,0:0:0:0:
320,0,40783,1,0,0:0:0:0:
448,0,40783,1,0,0:0:0:0:
64,0,40983,1,0,0:0:0:0:
192,0,40983,1,0,0:0:0:0:
320,0,40983,1,0,0:0:0:0:
320,0,41183,1,0,0:0:0:0:
448,0,41183,1,0,0:0:0:0:
320,0,41283,1,0,0:0:0:0:
448,0,41283,1,0,0:0:0:0:
320,0,41383,1,0,0:0:0:0:
448,0,41383,1,0,0:0:0:0:
64,0,41583,1,0,0:0:0:0:
448,0,41583,1,0,0:0:0:0:
320,0,41633,1,0,0:0:0:0:
192,0,41682,1,0,0:0:0:0:
64,0,41733,1,0,0:0:0:0:
448,0,41782,1,0,0:0:0:0:
320,0,41833,1,0,0:0:0:0:
64,0,41882,1,0,0:0:0:0:
192,0,41882,1,0,0:0:0:0:
192,0,41982,1,0,0:0:0:0:
320,0,41982,1,0,0:0:0:0:
64,0,42082,1,0,0:0:0:0:
448,0,42082,1,0,0:0:0:0:
192,0,42182,1,0,0:0:0:0:
320,0,42182,1,0,0:0:0:0:
320,0,42382,1,0,0:0:0:0:
448,0,42382,1,0,0:0:0:0:
64,0,42582,1,0,0:0:0:0:
192,0,42582,1,0,0:0:0:0:
192,0,42681,1,0,0:0:0:0:
320,0,42681,1,0,0:0:0:0:
64,0,42781,1,0,0:0:0:0:
448,0,42781,1,0,0:0:0:0:
320,0,42881,1,0,0:0:0:0:
448,0,42881,1,0,0:0:0:0:
192,0,42981,1,0,0:0:0:0:
320,0,42981,1,0,0:0:0:0:
64,0,43181,1,0,0:0:0:0:
192,0,43181,1,0,0:0:0:0:
320,0,43231,1,0,0:0:0:0:
448,0,43281,1,0,0:0:0:0:
64,0,43331,1,0,0:0:0:0:
192,0,43381,1,0,0:0:0:0:
320,0,43381,1,0,0:0:0:0:
64,0,43481,1,0,0:0:0:0:
448,0,43481,1,0,0:0:0:0:
192,0,43581,1,0,0:0:0:0:
320,0,43581,1,0,0:0:0:0:
64,0,43680,1,0,0:0:0:0:
192,0,43680,1,0,0:0:0:0:
320,0,43780,1,0,0:0:0:0:
448,0,43780,1,0,0:0:0:0:
64,0,43980,1,0,0:0:0:0:
192,0,43980,1,0,0:0:0:0:
64,0,44080,1,0,0:0:0:0:
192,0,44080,1,0,0:0:0:0:
320,0,44180,1,0,0:0:0:0:
448,0,44180,1,0,0:0:0:0:
320,0,44280,1,0,0:0:0:0:
448,0,44280,1,0,0:0:0:0:
64,0,44380,1,0,0:0:0:0:
192,0,44380,1,0,0:0:0:0:
192,0,44480,1,0,0:0:0:0:
320,0,44480,1,0,0:0:0:0:
320,0,44580,1,0,0:0:0:0:
448,0,44580,1,0,0:0:0:0:
192,0,44655,1,0,0:0:0:0:
320,0,44705,1,0,0:0:0:0:
64,0,44780,1,0,0:0:0:0:
64,0,44904,1,0,0:0:0:0:
64,0,45055,1,0,0:0:0:0:
320,0,45080,1,0,0:0:0:0:
448,0,45080,1,0,0:0:0:0:
64,0,45180,1,0,0:0:0:0:
192,0,45180,1,0,0:0:0:0:
320,0,45280,1,0,0:0:0:0:
64,0,45304,1,0,0:0:0:0:
448,0,45380,1,0,0:0:0:0:
64,0,45454,1,0,0:0:0:0:
320,0,45480,1,0,0:0:0:0:
64,0,45580,1,0,0:0:0:0:
448,0,45580,1,0,0:0:0:0:
192,0,45679,1,0,0:0:0:0:
64,0,45704,1,0,0:0:0:0:
320,0,45779,1,0,0:0:0:0:
64,0,45854,1,0,0:0:0:0:
448,0,45879,1,0,0:0:0:0:
64,0,45979,1,0,0:0:0:0:
448,0,46054,1,0,0:0:0:0:
64,0,46103,1,0,0:0:0:0:
448,0,46179,1,0,0:0:0:0:
64,0,46254,1,0,0:0:0:0:
448,0,46379,1,0,0:0:0:0:
320,0,46428,1,0,0:0:0:0:
192,0,46479,1,0,0:0:0:0:
64,0,46528,1,0,0:0:0:0:
320,0,46579,1,0,0:0:0:0:
448,0,46653,1,0,0:0:0:0:
64,0,46778,1,0,0:0:0:0:
192,0,46828,1,0,0:0:0:0:
320,0,46878,1,0,0:0:0:0:
448,0,46902,1,0,0:0:0:0:
64,0,46978,1,0,0:0:0:0:
448,0,47053,1,0,0:0:0:0:
192,0,47078,1,0,0:0:0:0:
320,0,47078,1,0,0:0:0:0:
64,0,47178,1,0,0:0:0:0:
448,0,47178,1,0,0:0:0:0:
64,0,47278,1,0,0:0:0:0:
320,0,47378,1,0,0:0:0:0:
448,0,47378,1,0,0:0:0:0:
448,0,47478,1,0,0:0:0:0:
64,0,47577,1,0,0:0:0:0:
192,0,47577,1,0,0:0:0:0:
320,0,47627,1,0,0:0:0:0:
448,0,47677,1,0,0:0:0:0:
64,0,47727,1,0,0:0:0:0:
192,0,47777,1,0,0:0:0:0:
320,0,47827,1,0,0:0:0:0:
448,0,47877,1,0,0:0:0:0:
64,0,47977,1,0,0:0:0:0:
192,0,47977,1,0,0:0:0:0:
320,0,48027,1,0,0:0:0:0:
448,0,48077,1,0,0:0:0:0:
192,0,48126,1,0,0:0:0:0:
320,0,48177,1,0,0:0:0:0:
64,0,48226,1,0,0:0:0:0:
192,0,48277,1,0,0:0:0:0:
448,0,48326,1,0,0:0:0:0:
320,0,48377,1,0,0:0:0:0:
192,0,48426,1,0,0:0:0:0:
64,0,48477,1,0,0:0:0:0:
448,0,48526,1,0,0:0:0:0:
192,0,48576,1,0,0:0:0:0:
320,0,48626,1,0,0:0:0:0:
64,0,48676,1,0,0:0:0:0:
192,0,48726,1,0,0:0:0:0:
320,0,48776,1,0,0:0:0:0:
448,0,48826,1,0,0:0:0:0:
192,0,48876,1,0,0:0:0:0:
64,0,48926,1,0,0:0:0:0:
448,0,48976,1,0,0:0:0:0:
320,0,49026,1,0,0:0:0:0:
192,0,49076,1,0,0:0:0:0:
64,0,49125,1,0,0:0:0:0:
448,0,49176,1,0,0:0:0:0:
320,0,49225,1,0,0:0:0:0:
192,0,49276,1,0,0:0:0:0:
64,0,49325,1,0,0:0:0:0:
448,0,49376,1,0,0:0:0:0:
320,0,49425,1,0,0:0:0:0:
192,0,49476,1,0,0:0:0:0:
64,0,49525,1,0,0:0:0:0:
320,0,49575,1,0,0:0:0:0:
192,0,49625,1,0,0:0:0:0:
320,0,49675,1,0,0:0:0:0:
192,0,49775,1,0,0:0:0:0:
320,0,49875,1,0,0:0:0:0:
64,0,49975,1,0,0:0:0:0:
448,0,50024,1,0,0:0:0:0:
64,0,50075,1,0,0:0:0:0:
320,0,50175,1,0,0:0:0:0:
192,0,50275,1,0,0:0:0:0:
64,0,50375,1,0,0:0:0:0:
64,0,50500,1,0,0:0:0:0:
64,0,50649,1,0,0:0:0:0:
64,0,50774,1,0,0:0:0:0:
192,0,50774,1,0,0:0:0:0:
320,0,50774,1,0,0:0:0:0:
448,0,50774,1,0,0:0:0:0:
192,0,50974,1,0,0:0:0:0:
64,0,51074,1,0,0:0:0:0:
192,0,51074,1,0,0:0:0:0:
320,0,51074,1,0,0:0:0:0:
448,0,51074,1,0,0:0:0:0:
320,0,51174,1,0,0:0:0:0:
448,0,51174,1,0,0:0:0:0:
192,0,51274,1,0,0:0:0:0:
320,0,51374,1,0,0:0:0:0:
448,0,51374,1,0,0:0:0:0:
64,0,51474,1,0,0:0:0:0:
192,0,51474,1,0,0:0:0:0:
320,0,51474,1,0,0:0:0:0:
448,0,51474,1,0,0:0:0:0:
192,0,51573,1,0,0:0:0:0:
64,0,51673,1,0,0:0:0:0:
64,0,51773,1,0,0:0:0:0:
64,0,51973,1,0,0:0:0:0:
192,0,51973,1,0,0:0:0:0:
320,0,51973,1,0,0:0:0:0:
448,0,51973,1,0,0:0:0:0:
320,0,52247,1,0,0:0:0:0:
448,0,52289,1,0,0:0:0:0:
320,0,52347,1,0,0:0:0:0:
448,0,52389,1,0,0:0:0:0:
192,0,52472,1,0,0:0:0:0:
320,0,52572,1,0,0:0:0:0:
64,0,52622,1,0,0:0:0:0:
192,0,52672,1,0,0:0:0:0:
64,0,52772,1,0,0:0:0:0:
320,0,52772,1,0,0:0:0:0:
448,0,52772,1,0,0:0:0:0:
448,0,52872,1,0,0:0:0:0:
192,0,52972,1,0,0:0:0:0:
192,0,53072,1,0,0:0:0:0:
320,0,53072,1,0,0:0:0:0:
448,0,53121,1,0,0:0:0:0:
64,0,53172,1,0,0:0:0:0:
192,0,53221,1,0,0:0:0:0:
320,0,53272,1,0,0:0:0:0:
448,0,53321,1,0,0:0:0:0:
64,0,53372,1,0,0:0:0:0:
192,0,53421,1,0,0:0:0:0:
320,0,53471,1,0,0:0:0:0:
448,0,53521,1,0,0:0:0:0:
64,0,53571,1,0,0:0:0:0:
192,0,53571,1,0,0:0:0:0:
320,0,53571,1,0,0:0:0:0:
64,0,53671,1,0,0:0:0:0:
192,0,53771,1,0,0:0:0:0:
320,0,53771,1,0,0:0:0:0:
448,0,53771,1,0,0:0:0:0:
320,0,53871,1,0,0:0:0:0:
192,0,53971,1,0,0:0:0:0:
64,0,54071,1,0,0:0:0:0:
320,0,54171,1,0,0:0:0:0:
448,0,54171,1,0,0:0:0:0:
64,0,54271,1,0,0:0:0:0:
192,0,54371,1,0,0:0:0:0:
320,0,54371,1,0,0:0:0:0:
448,0,54371,1,0,0:0:0:0:
192,0,54470,1,0,0:0:0:0:
320,0,54570,1,0,0:0:0:0:
64,0,54670,1,0,0:0:0:0:
192,0,54670,1,0,0:0:0:0:
448,0,54670,1,0,0:0:0:0:
192,0,54770,1,0,0:0:0:0:
320,0,54870,1,0,0:0:0:0:
64,0,54970,1,0,0:0:0:0:
192,0,54970,1,0,0:0:0:0:
448,0,54970,1,0,0:0:0:0:
448,0,55070,1,0,0:0:0:0:
448,0,55170,1,0,0:0:0:0:
64,0,55270,1,0,0:0:0:0:
192,0,55270,1,0,0:0:0:0:
320,0,55270,1,0,0:0:0:0:
448,0,55370,1,0,0:0:0:0:
320,0,55420,1,0,0:0:0:0:
192,0,55469,1,0,0:0:0:0:
64,0,55520,1,0,0:0:0:0:
192,0,55569,1,0,0:0:0:0:
320,0,55569,1,0,0:0:0:0:
448,0,55569,1,0,0:0:0:0:
320,0,55694,1,0,0:0:0:0:
448,0,55694,1,0,0:0:0:0:
64,0,55844,1,0,0:0:0:0:
192,0,55844,1,0,0:0:0:0:
64,0,55969,1,0,0:0:0:0:
192,0,55969,1,0,0:0:0:0:
320,0,55969,1,0,0:0:0:0:
448,0,55969,1,0,0:0:0:0:
448,0,56069,1,0,0:0:0:0:
448,0,56169,1,0,0:0:0:0:
64,0,56269,1,0,0:0:0:0:
192,0,56269,1,0,0:0:0:0:
320,0,56269,1,0,0:0:0:0:
192,0,56369,1,0,0:0:0:0:
192,0,56468,1,0,0:0:0:0:
448,0,56568,1,0,0:0:0:0:
320,0,56619,1,0,0:0:0:0:
64,0,56668,1,0,0:0:0:0:
192,0,56719,1,0,0:0:0:0:
320,0,56768,1,0,0:0:0:0:
448,0,56768,1,0,0:0:0:0:
64,0,56819,1,0,0:0:0:0:
192,0,56819,1,0,0:0:0:0:
448,0,56868,1,0,0:0:0:0:
192,0,56968,1,0,0:0:0:0:
320,0,56968,1,0,0:0:0:0:
320,0,57068,1,0,0:0:0:0:
448,0,57068,1,0,0:0:0:0:
64,0,57118,1,0,0:0:0:0:
192,0,57168,1,0,0:0:0:0:
320,0,57268,1,0,0:0:0:0:
448,0,57268,1,0,0:0:0:0:
320,0,57367,1,0,0:0:0:0:
448,0,57367,1,0,0:0:0:0:
64,0,57418,1,0,0:0:0:0:
192,0,57467,1,0,0:0:0:0:
320,0,57518,1,0,0:0:0:0:
64,0,57567,1,0,0:0:0:0:
448,0,57567,1,0,0:0:0:0:
192,0,57642,1,0,0:0:0:0:
64,0,57692,1,0,0:0:0:0:
320,0,57767,1,0,0:0:0:0:
320,0,57867,1,0,0:0:0:0:
448,0,57867,1,0,0:0:0:0:
64,0,57917,1,0,0:0:0:0:
192,0,57967,1,0,0:0:0:0:
320,0,58017,1,0,0:0:0:0:
448,0,58067,1,0,0:0:0:0:
192,0,58117,1,0,0:0:0:0:
320,0,58167,1,0,0:0:0:0:
448,0,58217,1,0,0:0:0:0:
64,0,58267,1,0,0:0:0:0:
192,0,58317,1,0,0:0:0:0:
320,0,58366,1,0,0:0:0:0:
448,0,58366,1,0,0:0:0:0:
64,0,58566,1,0,0:0:0:0:
192,0,58566,1,0,0:0:0:0:
192,0,58666,1,0,0:0:0:0:
320,0,58666,1,0,0:0:0:0:
320,0,58766,1,0,0:0:0:0:
448,0,58766,1,0,0:0:0:0:
64,0,58866,1,0,0:0:0:0:
448,0,58966,128,0,59066:0:0:0:0:
64,0,59166,1,0,0:0:0:0:
192,0,59166,1,0,0:0:0:0:
320,0,59166,1,0,0:0:0:0:
64,0,59266,1,0,0:0:0:0:
192,0,59266,1,0,0:0:0:0:
320,0,59365,1,0,0:0:0:0:
448,0,59365,1,0,0:0:0:0:
320,0,59465,1,0,0:0:0:0:
448,0,59465,1,0,0:0:0:0:
192,0,59516,1,0,0:0:0:0:
64,0,59565,1,0,0:0:0:0:
448,0,59616,1,0,0:0:0:0:
192,0,59665,1,0,0:0:0:0:
320,0,59716,1,0,0:0:0:0:
64,0,59765,1,0,0:0:0:0:
448,0,59815,1,0,0:0:0:0:
320,0,59865,1,0,0:0:0:0:
192,0,59915,1,0,0:0:0:0:
64,0,59965,1,0,0:0:0:0:
448,0,59965,1,0,0:0:0:0:
320,0,60015,1,0,0:0:0:0:
192,0,60065,1,0,0:0:0:0:
64,0,60165,1,0,0:0:0:0:
448,0,60165,1,0,0:0:0:0:
192,0,60215,1,0,0:0:0:0:
320,0,60265,1,0,0:0:0:0:
448,0,60315,1,0,0:0:0:0:
64,0,60364,1,0,0:0:0:0:
192,0,60364,1,0,0:0:0:0:
320,0,60415,1,0,0:0:0:0:
448,0,60464,1,0,0:0:0:0:
64,0,60515,1,0,0:0:0:0:
192,0,60564,1,0,0:0:0:0:
320,0,60564,1,0,0:0:0:0:
448,0,60615,1,0,0:0:0:0:
64,0,60664,1,0,0:0:0:0:
192,0,60715,1,0,0:0:0:0:
320,0,60764,1,0,0:0:0:0:
448,0,60764,1,0,0:0:0:0:
320,0,60864,1,0,0:0:0:0:
448,0,60864,1,0,0:0:0:0:
64,0,60964,1,0,0:0:0:0:
192,0,60964,1,0,0:0:0:0:
64,0,61064,1,0,0:0:0:0:
192,0,61064,1,0,0:0:0:0:
320,0,61064,1,0,0:0:0:0:
448,0,61064,1,0,0:0:0:0:
320,0,61164,1,0,0:0:0:0:
448,0,61164,1,0,0:0:0:0:
64,0,61264,1,0,0:0:0:0:
192,0,61264,1,0,0:0:0:0:
64,0,61363,1,0,0:0:0:0:
192,0,61363,1,0,0:0:0:0:
320,0,61363,1,0,0:0:0:0:
320,0,61463,1,0,0:0:0:0:
448,0,61463,1,0,0:0:0:0:
64,0,61563,1,0,0:0:0:0:
192,0,61563,1,0,0:0:0:0:
320,0,61663,1,0,0:0:0:0:
448,0,61663,1,0,0:0:0:0:
192,0,61714,1,0,0:0:0:0:
64,0,61763,1,0,0:0:0:0:
448,0,61813,1,0,0:0:0:0:
320,0,61863,1,0,0:0:0:0:
192,0,61913,1,0,0:0:0:0:
64,0,61963,1,0,0:0:0:0:
448,0,61963,1,0,0:0:0:0:
320,0,62088,1,0,0:0:0:0:
448,0,62088,1,0,0:0:0:0:
64,0,62163,1,0,0:0:0:0:
192,0,62163,1,0,0:0:0:0:
64,0,62362,1,0,0:0:0:0:
448,0,62362,1,0,0:0:0:0:
192,0,62413,1,0,0:0:0:0:
320,0,62462,1,0,0:0:0:0:
448,0,62513,1,0,0:0:0:0:
64,0,62562,1,0,0:0:0:0:
192,0,62613,1,0,0:0:0:0:
320,0,62662,1,0,0:0:0:0:
448,0,62713,1,0,0:0:0:0:
192,0,62762,1,0,0:0:0:0:
64,0,62812,1,0,0:0:0:0:
448,0,62862,1,0,0:0:0:0:
320,0,62912,1,0,0:0:0:0:
192,0,62962,1,0,0:0:0:0:
64,0,63012,1,0,0:0:0:0:
448,0,63062,1,0,0:0:0:0:
192,0,63112,1,0,0:0:0:0:
320,0,63162,1,0,0:0:0:0:
64,0,63212,1,0,0:0:0:0:
192,0,63261,1,0,0:0:0:0:
320,0,63312,1,0,0:0:0:0:
448,0,63361,1,0,0:0:0:0:
192,0,63412,1,0,0:0:0:0:
320,0,63461,1,0,0:0:0:0:
64,0,63512,1,0,0:0:0:0:
448,0,63561,1,0,0:0:0:0:
192,0,63612,1,0,0:0:0:0:
320,0,63661,1,0,0:0:0:0:
64,0,63712,1,0,0:0:0:0:
192,0,63761,1,0,0:0:0:0:
320,0,63811,1,0,0:0:0:0:
448,0,63861,1,0,0:0:0:0:
64,0,63911,1,0,0:0:0:0:
192,0,63961,1,0,0:0:0:0:
320,0,63961,1,0,0:0:0:0:
320,0,64061,1,0,0:0:0:0:
192,0,64161,1,0,0:0:0:0:
64,0,64260,1,0,0:0:0:0:
192,0,64260,1,0,0:0:0:0:
448,0,64260,1,0,0:0:0:0:
448,0,64360,1,0,0:0:0:0:
320,0,64411,1,0,0:0:0:0:
192,0,64460,1,0,0:0:0:0:
64,0,64560,1,0,0:0:0:0:
64,0,64760,1,0,0:0:0:0:
192,0,64760,1,0,0:0:0:0:
320,0,64760,1,0,0:0:0:0:
448,0,64760,1,0,0:0:0:0:
192,0,64910,1,0,0:0:0:0:
448,0,64960,128,0,65160:0:0:0:0:
192,0,65160,1,0,0:0:0:0:
192,0,65360,1,0,0:0:0:0:
64,0,65410,1,0,0:0:0:0:
320,0,65460,1,0,0:0:0:0:
448,0,65510,1,0,0:0:0:0:
64,0,65560,1,0,0:0:0:0:
192,0,65560,1,0,0:0:0:0:
192,0,65660,1,0,0:0:0:0:
320,0,65760,1,0,0:0:0:0:
192,0,65860,1,0,0:0:0:0:
320,0,65860,1,0,0:0:0:0:
448,0,65860,1,0,0:0:0:0:
64,0,65960,1,0,0:0:0:0:
192,0,66009,1,0,0:0:0:0:
448,0,66060,1,0,0:0:0:0:
320,0,66109,1,0,0:0:0:0:
192,0,66160,1,0,0:0:0:0:
64,0,66209,1,0,0:0:0:0:
448,0,66259,1,0,0:0:0:0:
192,0,66309,1,0,0:0:0:0:
320,0,66359,1,0,0:0:0:0:
64,0,66459,1,0,0:0:0:0:
448,0,66459,1,0,0:0:0:0:
64,0,66659,1,0,0:0:0:0:
192,0,66659,1,0,0:0:0:0:
320,0,66708,1,0,0:0:0:0:
448,0,66759,1,0,0:0:0:0:
64,0,66808,1,0,0:0:0:0:
192,0,66859,1,0,0:0:0:0:
320,0,66908,1,0,0:0:0:0:
64,0,66959,1,0,0:0:0:0:
448,0,66959,1,0,0:0:0:0:
192,0,67059,1,0,0:0:0:0:
64,0,67158,1,0,0:0:0:0:
192,0,67158,1,0,0:0:0:0:
448,0,67158,1,0,0:0:0:0:
320,0,67258,1,0,0:0:0:0:
320,0,67358,1,0,0:0:0:0:
64,0,67458,1,0,0:0:0:0:
192,0,67458,1,0,0:0:0:0:
448,0,67458,1,0,0:0:0:0:
192,0,67658,1,0,0:0:0:0:
320,0,67658,1,0,0:0:0:0:
64,0,67758,1,0,0:0:0:0:
320,0,67758,1,0,0:0:0:0:
448,0,67758,1,0,0:0:0:0:
64,0,67858,1,0,0:0:0:0:
192,0,67858,1,0,0:0:0:0:
320,0,67958,1,0,0:0:0:0:
64,0,68058,1,0,0:0:0:0:
192,0,68058,1,0,0:0:0:0:
448,0,68058,1,0,0:0:0:0:
320,0,68157,1,0,0:0:0:0:
448,0,68157,1,0,0:0:0:0:
64,0,68257,1,0,0:0:0:0:
192,0,68257,1,0,0:0:0:0:
448,0,68357,1,0,0:0:0:0:
320,0,68407,1,0,0:0:0:0:
192,0,68457,1,0,0:0:0:0:
64,0,68507,1,0,0:0:0:0:
448,0,68557,1,0,0:0:0:0:
192,0,68607,1,0,0:0:0:0:
320,0,68657,1,0,0:0:0:0:
448,0,68706,1,0,0:0:0:0:
64,0,68757,1,0,0:0:0:0:
192,0,68757,1,0,0:0:0:0:
64,0,68857,1,0,0:0:0:0:
64,0,68957,1,0,0:0:0:0:
192,0,69057,1,0,0:0:0:0:
320,0,69057,1,0,0:0:0:0:
448,0,69057,1,0,0:0:0:0:
320,0,69156,1,0,0:0:0:0:
320,0,69256,1,0,0:0:0:0:
64,0,69356,1,0,0:0:0:0:
448,0,69356,1,0,0:0:0:0:
192,0,69406,1,0,0:0:0:0:
320,0,69456,1,0,0:0:0:0:
64,0,69556,1,0,0:0:0:0:
448,0,69556,128,0,69756:0:0:0:0:
192,0,69605,1,0,0:0:0:0:
64,0,69856,1,0,0:0:0:0:
448,0,69856,128,0,70056:0:0:0:0:
192,0,69905,1,0,0:0:0:0:
192,0,70155,1,0,0:0:0:0:
448,0,70155,128,0,70355:0:0:0:0:
320,0,70205,1,0,0:0:0:0:
64,0,70355,1,0,0:0:0:0:
192,0,70355,1,0,0:0:0:0:
320,0,70355,1,0,0:0:0:0:
192,0,70455,1,0,0:0:0:0:
192,0,70555,1,0,0:0:0:0:
320,0,70655,1,0,0:0:0:0:
448,0,70655,1,0,0:0:0:0:
64,0,70704,1,0,0:0:0:0:
192,0,70755,1,0,0:0:0:0:
320,0,70804,1,0,0:0:0:0:
448,0,70855,1,0,0:0:0:0:
192,0,70904,1,0,0:0:0:0:
64,0,70955,1,0,0:0:0:0:
320,0,70955,1,0,0:0:0:0:
448,0,71004,1,0,0:0:0:0:
192,0,71055,1,0,0:0:0:0:
320,0,71104,1,0,0:0:0:0:
64,0,71154,1,0,0:0:0:0:
448,0,71154,1,0,0:0:0:0:
192,0,71254,1,0,0:0:0:0:
320,0,71404,1,0,0:0:0:0:
192,0,71454,1,0,0:0:0:0:
320,0,71554,1,0,0:0:0:0:
448,0,71654,1,0,0:0:0:0:
192,0,71803,1,0,0:0:0:0:
64,0,71954,1,0,0:0:0:0:
320,0,71954,1,0,0:0:0:0:
448,0,71954,1,0,0:0:0:0:
320,0,72053,1,0,0:0:0:0:
192,0,72153,1,0,0:0:0:0:
64,0,72253,1,0,0:0:0:0:
192,0,72253,1,0,0:0:0:0:
320,0,72303,1,0,0:0:0:0:
448,0,72353,1,0,0:0:0:0:
64,0,72403,1,0,0:0:0:0:
192,0,72453,1,0,0:0:0:0:
320,0,72503,1,0,0:0:0:0:
448,0,72553,1,0,0:0:0:0:
192,0,72602,1,0,0:0:0:0:
320,0,72653,1,0,0:0:0:0:
64,0,72702,1,0,0:0:0:0:
192,0,72753,1,0,0:0:0:0:
320,0,72753,1,0,0:0:0:0:
448,0,72802,1,0,0:0:0:0:
64,0,72853,1,0,0:0:0:0:
192,0,72902,1,0,0:0:0:0:
320,0,72953,1,0,0:0:0:0:
448,0,72953,1,0,0:0:0:0:
64,0,73002,1,0,0:0:0:0:
192,0,73052,1,0,0:0:0:0:
320,0,73102,1,0,0:0:0:0:
64,0,73152,1,0,0:0:0:0:
448,0,73152,1,0,0:0:0:0:
192,0,73202,1,0,0:0:0:0:
320,0,73252,1,0,0:0:0:0:
448,0,73302,1,0,0:0:0:0:
64,0,73352,1,0,0:0:0:0:
192,0,73352,1,0,0:0:0:0:
320,0,73402,1,0,0:0:0:0:
448,0,73452,1,0,0:0:0:0:
64,0,73502,1,0,0:0:0:0:
192,0,73552,1,0,0:0:0:0:
320,0,73552,1,0,0:0:0:0:
320,0,73652,1,0,0:0:0:0:
192,0,73752,1,0,0:0:0:0:
64,0,73852,1,0,0:0:0:0:
320,0,73852,1,0,0:0:0:0:
448,0,73852,1,0,0:0:0:0:
320,0,73952,1,0,0:0:0:0:
192,0,74051,1,0,0:0:0:0:
64,0,74151,1,0,0:0:0:0:
320,0,74151,1,0,0:0:0:0:
448,0,74151,1,0,0:0:0:0:
192,0,74251,1,0,0:0:0:0:
192,0,74351,1,0,0:0:0:0:
64,0,74451,1,0,0:0:0:0:
320,0,74451,1,0,0:0:0:0:
448,0,74451,1,0,0:0:0:0:
320,0,74551,1,0,0:0:0:0:
448,0,74551,1,0,0:0:0:0:
64,0,74751,1,0,0:0:0:0:
192,0,74751,1,0,0:0:0:0:
320,0,74751,1,0,0:0:0:0:
448,0,74751,1,0,0:0:0:0:
64,0,75150,1,0,0:0:0:0:
192,0,75150,1,0,0:0:0:0:
320,0,75250,1,0,0:0:0:0:
192,0,75350,1,0,0:0:0:0:
448,0,75450,1,0,0:0:0:0:
320,0,75550,1,0,0:0:0:0:
192,0,75650,1,0,0:0:0:0:
448,0,75750,1,0,0:0:0:0:
64,0,75850,1,0,0:0:0:0:
192,0,75950,1,0,0:0:0:0:
320,0,75950,1,0,0:0:0:0:
448,0,75950,1,0,0:0:0:0:
64,0,76075,1,0,0:0:0:0:
320,0,76149,1,0,0:0:0:0:
64,0,76249,1,0,0:0:0:0:
192,0,76249,1,0,0:0:0:0:
192,0,76349,1,0,0:0:0:0:
448,0,76349,1,0,0:0:0:0:
320,0,76474,1,0,0:0:0:0:
192,0,76549,1,0,0:0:0:0:
448,0,76624,1,0,0:0:0:0:
64,0,76749,1,0,0:0:0:0:
192,0,76749,1,0,0:0:0:0:
448,0,76749,1,0,0:0:0:0:
64,0,76948,1,0,0:0:0:0:
192,0,76948,1,0,0:0:0:0:
320,0,77048,1,0,0:0:0:0:
448,0,77048,1,0,0:0:0:0:
64,0,77148,1,0,0:0:0:0:
192,0,77148,1,0,0:0:0:0:
320,0,77148,1,0,0:0:0:0:
448,0,77148,1,0,0:0:0:0:
64,0,77248,1,0,0:0:0:0:
192,0,77248,1,0,0:0:0:0:
192,0,77348,1,0,0:0:0:0:
320,0,77348,1,0,0:0:0:0:
320,0,77448,1,0,0:0:0:0:
448,0,77448,1,0,0:0:0:0:
64,0,77548,1,0,0:0:0:0:
192,0,77548,1,0,0:0:0:0:
320,0,77548,1,0,0:0:0:0:
448,0,77548,1,0,0:0:0:0:
64,0,77748,1,0,0:0:0:0:
320,0,77748,1,0,0:0:0:0:
448,0,77748,1,0,0:0:0:0:
64,0,77947,1,0,0:0:0:0:
192,0,77947,1,0,0:0:0:0:
320,0,77947,1,0,0:0:0:0:
448,0,77947,1,0,0:0:0:0:
64,0,78147,1,0,0:0:0:0:
192,0,78147,1,0,0:0:0:0:
320,0,78147,1,0,0:0:0:0:
64,0,78347,1,0,0:0:0:0:
192,0,78347,1,0,0:0:0:0:
320,0,78347,1,0,0:0:0:0:
448,0,78347,1,0,0:0:0:0:
64,0,78547,1,0,0:0:0:0:
192,0,78547,1,0,0:0:0:0:
320,0,78647,1,0,0:0:0:0:
448,0,78647,1,0,0:0:0:0:
64,0,78747,1,0,0:0:0:0:
192,0,78747,1,0,0:0:0:0:
320,0,78747,1,0,0:0:0:0:
448,0,78747,1,0,0:0:0:0:
64,0,78847,1,0,0:0:0:0:
192,0,78847,1,0,0:0:0:0:
320,0,78946,1,0,0:0:0:0:
448,0,78946,1,0,0:0:0:0:
192,0,79046,1,0,0:0:0:0:
320,0,79046,1,0,0:0:0:0:
64,0,79146,1,0,0:0:0:0:
192,0,79146,1,0,0:0:0:0:
320,0,79146,1,0,0:0:0:0:
448,0,79146,1,0,0:0:0:0:
64,0,79346,1,0,0:0:0:0:
192,0,79346,1,0,0:0:0:0:
448,0,79346,1,0,0:0:0:0:
64,0,79546,1,0,0:0:0:0:
192,0,79546,1,0,0:0:0:0:
320,0,79621,1,0,0:0:0:0:
448,0,79621,1,0,0:0:0:0:
64,0,79671,1,0,0:0:0:0:
192,0,79671,1,0,0:0:0:0:
320,0,79746,1,0,0:0:0:0:
448,0,79746,1,0,0:0:0:0:
64,0,79820,1,0,0:0:0:0:
192,0,79820,1,0,0:0:0:0:
320,0,79871,1,0,0:0:0:0:
448,0,79871,1,0,0:0:0:0:
64,0,79945,1,0,0:0:0:0:
192,0,79945,1,0,0:0:0:0:
320,0,80045,1,0,0:0:0:0:
448,0,80045,1,0,0:0:0:0:
192,0,80145,1,0,0:0:0:0:
320,0,80145,1,0,0:0:0:0:
64,0,80245,1,0,0:0:0:0:
448,0,80245,1,0,0:0:0:0:
64,0,80345,1,0,0:0:0:0:
192,0,80345,1,0,0:0:0:0:
320,0,80345,1,0,0:0:0:0:
448,0,80345,1,0,0:0:0:0:
192,0,80445,1,0,0:0:0:0:
320,0,80445,1,0,0:0:0:0:
64,0,80545,1,0,0:0:0:0:
448,0,80545,1,0,0:0:0:0:
192,0,80645,1,0,0:0:0:0:
320,0,80645,1,0,0:0:0:0:
64,0,80745,1,0,0:0:0:0:
192,0,80745,1,0,0:0:0:0:
320,0,80745,1,0,0:0:0:0:
448,0,80745,1,0,0:0:0:0:
192,0,80944,1,0,0:0:0:0:
320,0,80944,1,0,0:0:0:0:
448,0,80944,1,0,0:0:0:0:
64,0,81044,1,0,0:0:0:0:
64,0,81144,1,0,0:0:0:0:
192,0,81144,1,0,0:0:0:0:
320,0,81144,1,0,0:0:0:0:
448,0,81144,1,0,0:0:0:0:
64,0,81344,1,0,0:0:0:0:
192,0,81344,1,0,0:0:0:0:
448,0,81344,1,0,0:0:0:0:
64,0,81544,1,0,0:0:0:0:
192,0,81544,1,0,0:0:0:0:
320,0,81544,1,0,0:0:0:0:
448,0,81544,1,0,0:0:0:0:
64,0,81644,1,0,0:0:0:0:
192,0,81644,1,0,0:0:0:0:
320,0,81744,1,0,0:0:0:0:
448,0,81744,1,0,0:0:0:0:
192,0,81843,1,0,0:0:0:0:
320,0,81843,1,0,0:0:0:0:
64,0,81943,1,0,0:0:0:0:
192,0,81943,1,0,0:0:0:0:
448,0,81994,1,0,0:0:0:0:
320,0,82043,1,0,0:0:0:0:
192,0,82094,1,0,0:0:0:0:
64,0,82143,1,0,0:0:0:0:
192,0,82194,1,0,0:0:0:0:
320,0,82243,1,0,0:0:0:0:
448,0,82294,1,0,0:0:0:0:
64,0,82343,1,0,0:0:0:0:
192,0,82343,1,0,0:0:0:0:
320,0,82343,1,0,0:0:0:0:
64,0,82443,1,0,0:0:0:0:
192,0,82443,1,0,0:0:0:0:
320,0,82543,1,0,0:0:0:0:
448,0,82543,1,0,0:0:0:0:
64,0,82643,1,0,0:0:0:0:
192,0,82643,1,0,0:0:0:0:
64,0,82743,1,0,0:0:0:0:
192,0,82743,1,0,0:0:0:0:
320,0,82743,1,0,0:0:0:0:
448,0,82743,1,0,0:0:0:0:
192,0,82942,1,0,0:0:0:0:
320,0,82942,1,0,0:0:0:0:
64,0,83042,1,0,0:0:0:0:
448,0,83042,1,0,0:0:0:0:
64,0,83142,1,0,0:0:0:0:
192,0,83142,1,0,0:0:0:0:
320,0,83142,1,0,0:0:0:0:
448,0,83142,1,0,0:0:0:0:
192,0,83242,1,0,0:0:0:0:
320,0,83242,1,0,0:0:0:0:
64,0,83342,1,0,0:0:0:0:
448,0,83342,1,0,0:0:0:0:
192,0,83442,1,0,0:0:0:0:
320,0,83442,1,0,0:0:0:0:
64,0,83542,1,0,0:0:0:0:
192,0,83542,1,0,0:0:0:0:
320,0,83542,1,0,0:0:0:0:
448,0,83542,1,0,0:0:0:0:
64,0,83642,1,0,0:0:0:0:
448,0,83642,1,0,0:0:0:0:
192,0,83742,1,0,0:0:0:0:
320,0,83742,1,0,0:0:0:0:
64,0,83941,1,0,0:0:0:0:
192,0,83941,1,0,0:0:0:0:
320,0,83941,1,0,0:0:0:0:
448,0,83941,1,0,0:0:0:0:
192,0,84141,1,0,0:0:0:0:
320,0,84141,1,0,0:0:0:0:
448,0,84141,1,0,0:0:0:0:
64,0,84341,1,0,0:0:0:0:
192,0,84341,1,0,0:0:0:0:
320,0,84341,1,0,0:0:0:0:
448,0,84341,1,0,0:0:0:0:
64,0,84541,1,0,0:0:0:0:
320,0,84541,1,0,0:0:0:0:
448,0,84541,1,0,0:0:0:0:
64,0,84741,1,0,0:0:0:0:
192,0,84741,1,0,0:0:0:0:
320,0,84741,1,0,0:0:0:0:
448,0,84741,1,0,0:0:0:0:
64,0,84840,1,0,0:0:0:0:
192,0,84840,1,0,0:0:0:0:
320,0,84940,1,0,0:0:0:0:
448,0,84940,1,0,0:0:0:0:
64,0,85040,1,0,0:0:0:0:
192,0,85040,1,0,0:0:0:0:
64,0,85140,1,0,0:0:0:0:
192,0,85140,1,0,0:0:0:0:
320,0,85140,1,0,0:0:0:0:
448,0,85140,1,0,0:0:0:0:
320,0,85240,1,0,0:0:0:0:
448,0,85240,1,0,0:0:0:0:
64,0,85340,1,0,0:0:0:0:
192,0,85340,1,0,0:0:0:0:
320,0,85440,1,0,0:0:0:0:
448,0,85440,1,0,0:0:0:0:
64,0,85540,1,0,0:0:0:0:
192,0,85540,1,0,0:0:0:0:
320,0,85540,1,0,0:0:0:0:
448,0,85540,1,0,0:0:0:0:
448,0,85740,1,0,0:0:0:0:
320,0,85790,1,0,0:0:0:0:
192,0,85840,1,0,0:0:0:0:
64,0,85890,1,0,0:0:0:0:
192,0,85940,1,0,0:0:0:0:
320,0,85940,1,0,0:0:0:0:
448,0,85940,1,0,0:0:0:0:
320,0,86040,1,0,0:0:0:0:
192,0,86140,1,0,0:0:0:0:
448,0,86240,1,0,0:0:0:0:
64,0,86340,1,0,0:0:0:0:
192,0,86340,1,0,0:0:0:0:
320,0,86340,1,0,0:0:0:0:
448,0,86340,1,0,0:0:0:0:
64,0,86440,1,0,0:0:0:0:
192,0,86440,1,0,0:0:0:0:
192,0,86540,1,0,0:0:0:0:
320,0,86540,1,0,0:0:0:0:
320,0,86640,1,0,0:0:0:0:
448,0,86640,1,0,0:0:0:0:
64,0,86739,1,0,0:0:0:0:
192,0,86739,1,0,0:0:0:0:
320,0,86739,1,0,0:0:0:0:
448,0,86739,1,0,0:0:0:0:
64,0,86839,1,0,0:0:0:0:
192,0,86839,1,0,0:0:0:0:
320,0,86939,1,0,0:0:0:0:
448,0,86939,1,0,0:0:0:0:
64,0,87139,1,0,0:0:0:0:
192,0,87139,1,0,0:0:0:0:
320,0,87139,1,0,0:0:0:0:
448,0,87139,1,0,0:0:0:0:
192,0,87239,1,0,0:0:0:0:
64,0,87339,1,0,0:0:0:0:
320,0,87339,1,0,0:0:0:0:
448,0,87339,1,0,0:0:0:0:
64,0,87539,1,0,0:0:0:0:
192,0,87539,1,0,0:0:0:0:
320,0,87539,1,0,0:0:0:0:
448,0,87539,1,0,0:0:0:0:
64,0,87738,1,0,0:0:0:0:
192,0,87738,1,0,0:0:0:0:
448,0,87738,1,0,0:0:0:0:
64,0,87938,1,0,0:0:0:0:
192,0,87938,1,0,0:0:0:0:
320,0,87938,1,0,0:0:0:0:
448,0,87938,1,0,0:0:0:0:
320,0,88038,1,0,0:0:0:0:
448,0,88038,1,0,0:0:0:0:
64,0,88138,1,0,0:0:0:0:
192,0,88138,1,0,0:0:0:0:
192,0,88238,1,0,0:0:0:0:
320,0,88238,1,0,0:0:0:0:
64,0,88338,1,0,0:0:0:0:
192,0,88338,1,0,0:0:0:0:
320,0,88338,1,0,0:0:0:0:
448,0,88338,1,0,0:0:0:0:
64,0,88438,1,0,0:0:0:0:
448,0,88438,1,0,0:0:0:0:
192,0,88538,1,0,0:0:0:0:
320,0,88538,1,0,0:0:0:0:
64,0,88638,1,0,0:0:0:0:
448,0,88638,1,0,0:0:0:0:
64,0,88737,1,0,0:0:0:0:
192,0,88737,1,0,0:0:0:0:
320,0,88737,1,0,0:0:0:0:
448,0,88737,1,0,0:0:0:0:
320,0,88937,1,0,0:0:0:0:
448,0,88937,1,0,0:0:0:0:
64,0,88987,1,0,0:0:0:0:
192,0,89037,1,0,0:0:0:0:
320,0,89137,1,0,0:0:0:0:
448,0,89137,1,0,0:0:0:0:
192,0,89237,1,0,0:0:0:0:
320,0,89237,1,0,0:0:0:0:
64,0,89337,1,0,0:0:0:0:
192,0,89337,1,0,0:0:0:0:
320,0,89437,1,0,0:0:0:0:
448,0,89437,1,0,0:0:0:0:
64,0,89537,1,0,0:0:0:0:
192,0,89537,1,0,0:0:0:0:
320,0,89537,1,0,0:0:0:0:
448,0,89537,1,0,0:0:0:0:
64,0,89637,1,0,0:0:0:0:
192,0,89637,1,0,0:0:0:0:
320,0,89736,1,0,0:0:0:0:
448,0,89736,1,0,0:0:0:0:
64,0,89836,1,0,0:0:0:0:
192,0,89836,1,0,0:0:0:0:
64,0,89936,1,0,0:0:0:0:
192,0,89936,1,0,0:0:0:0:
320,0,89936,1,0,0:0:0:0:
448,0,89936,1,0,0:0:0:0:
320,0,90036,1,0,0:0:0:0:
448,0,90036,1,0,0:0:0:0:
192,0,90136,1,0,0:0:0:0:
320,0,90136,1,0,0:0:0:0:
64,0,90236,1,0,0:0:0:0:
448,0,90236,1,0,0:0:0:0:
64,0,90336,1,0,0:0:0:0:
192,0,90336,1,0,0:0:0:0:
320,0,90336,1,0,0:0:0:0:
448,0,90336,1,0,0:0:0:0:
64,0,90536,1,0,0:0:0:0:
320,0,90536,1,0,0:0:0:0:
448,0,90536,1,0,0:0:0:0:
64,0,90735,1,0,0:0:0:0:
192,0,90735,1,0,0:0:0:0:
320,0,90735,1,0,0:0:0:0:
448,0,90735,1,0,0:0:0:0:
320,0,90835,1,0,0:0:0:0:
448,0,90835,1,0,0:0:0:0:
64,0,90935,1,0,0:0:0:0:
192,0,90935,1,0,0:0:0:0:
64,0,91135,1,0,0:0:0:0:
192,0,91135,1,0,0:0:0:0:
320,0,91135,1,0,0:0:0:0:
448,0,91135,1,0,0:0:0:0:
192,0,91235,1,0,0:0:0:0:
320,0,91235,1,0,0:0:0:0:
320,0,91335,1,0,0:0:0:0:
448,0,91335,1,0,0:0:0:0:
64,0,91435,1,0,0:0:0:0:
192,0,91435,1,0,0:0:0:0:
64,0,91535,1,0,0:0:0:0:
192,0,91535,1,0,0:0:0:0:
320,0,91535,1,0,0:0:0:0:
448,0,91535,1,0,0:0:0:0:
320,0,91634,1,0,0:0:0:0:
448,0,91634,1,0,0:0:0:0:
64,0,91734,1,0,0:0:0:0:
192,0,91734,1,0,0:0:0:0:
320,0,91834,1,0,0:0:0:0:
448,0,91834,1,0,0:0:0:0:
64,0,91934,1,0,0:0:0:0:
192,0,91934,1,0,0:0:0:0:
320,0,91934,1,0,0:0:0:0:
448,0,91934,1,0,0:0:0:0:
64,0,92134,1,0,0:0:0:0:
192,0,92134,1,0,0:0:0:0:
448,0,92134,1,0,0:0:0:0:
64,0,92334,1,0,0:0:0:0:
192,0,92334,1,0,0:0:0:0:
320,0,92334,1,0,0:0:0:0:
448,0,92383,1,0,0:0:0:0:
320,0,92434,1,0,0:0:0:0:
192,0,92483,1,0,0:0:0:0:
448,0,92534,1,0,0:0:0:0:
64,0,92583,1,0,0:0:0:0:
192,0,92633,1,0,0:0:0:0:
320,0,92683,1,0,0:0:0:0:
64,0,92733,1,0,0:0:0:0:
192,0,92733,1,0,0:0:0:0:
448,0,92733,1,0,0:0:0:0:
64,0,92833,1,0,0:0:0:0:
192,0,92833,1,0,0:0:0:0:
320,0,92933,1,0,0:0:0:0:
448,0,92933,1,0,0:0:0:0:
192,0,93033,1,0,0:0:0:0:
320,0,93033,1,0,0:0:0:0:
64,0,93133,1,0,0:0:0:0:
192,0,93133,1,0,0:0:0:0:
320,0,93133,1,0,0:0:0:0:
448,0,93133,1,0,0:0:0:0:
64,0,93233,1,0,0:0:0:0:
448,0,93233,1,0,0:0:0:0:
192,0,93333,1,0,0:0:0:0:
320,0,93333,1,0,0:0:0:0:
64,0,93433,1,0,0:0:0:0:
448,0,93433,1,0,0:0:0:0:
64,0,93533,1,0,0:0:0:0:
192,0,93533,1,0,0:0:0:0:
320,0,93533,1,0,0:0:0:0:
448,0,93533,1,0,0:0:0:0:
64,0,93732,1,0,0:0:0:0:
192,0,93732,1,0,0:0:0:0:
320,0,93732,1,0,0:0:0:0:
64,0,93932,1,0,0:0:0:0:
192,0,93932,1,0,0:0:0:0:
320,0,93932,1,0,0:0:0:0:
448,0,93932,1,0,0:0:0:0:
320,0,94032,1,0,0:0:0:0:
448,0,94032,1,0,0:0:0:0:
64,0,94132,1,0,0:0:0:0:
192,0,94132,1,0,0:0:0:0:
320,0,94232,1,0,0:0:0:0:
448,0,94232,1,0,0:0:0:0:
64,0,94332,1,0,0:0:0:0:
192,0,94332,1,0,0:0:0:0:
320,0,94332,1,0,0:0:0:0:
448,0,94332,1,0,0:0:0:0:
64,0,94432,1,0,0:0:0:0:
192,0,94432,1,0,0:0:0:0:
192,0,94532,1,0,0:0:0:0:
320,0,94532,1,0,0:0:0:0:
320,0,94631,1,0,0:0:0:0:
448,0,94631,1,0,0:0:0:0:
64,0,94731,1,0,0:0:0:0:
192,0,94731,1,0,0:0:0:0:
320,0,94731,1,0,0:0:0:0:
448,0,94731,1,0,0:0:0:0:
64,0,94831,1,0,0:0:0:0:
192,0,94831,1,0,0:0:0:0:
320,0,94931,1,0,0:0:0:0:
448,0,94931,1,0,0:0:0:0:
64,0,95031,1,0,0:0:0:0:
192,0,95031,1,0,0:0:0:0:
64,0,95131,1,0,0:0:0:0:
192,0,95131,1,0,0:0:0:0:
320,0,95131,1,0,0:0:0:0:
448,0,95131,1,0,0:0:0:0:
64,0,95331,1,0,0:0:0:0:
192,0,95331,1,0,0:0:0:0:
320,0,95431,1,0,0:0:0:0:
448,0,95431,1,0,0:0:0:0:
64,0,95531,1,0,0:0:0:0:
192,0,95531,1,0,0:0:0:0:
320,0,95531,1,0,0:0:0:0:
448,0,95531,1,0,0:0:0:0:
64,0,95630,1,0,0:0:0:0:
192,0,95630,1,0,0:0:0:0:
320,0,95730,1,0,0:0:0:0:
448,0,95730,1,0,0:0:0:0:
64,0,95830,1,0,0:0:0:0:
192,0,95830,1,0,0:0:0:0:
64,0,95930,1,0,0:0:0:0:
192,0,95930,1,0,0:0:0:0:
320,0,95930,1,0,0:0:0:0:
448,0,95930,1,0,0:0:0:0:
448,0,96130,1,0,0:0:0:0:
320,0,96180,1,0,0:0:0:0:
192,0,96230,1,0,0:0:0:0:
64,0,96280,1,0,0:0:0:0:
448,0,96330,1,0,0:0:0:0:
192,0,96380,1,0,0:0:0:0:
320,0,96430,1,0,0:0:0:0:
64,0,96480,1,0,0:0:0:0:
192,0,96530,1,0,0:0:0:0:
320,0,96580,1,0,0:0:0:0:
448,0,96629,1,0,0:0:0:0:
64,0,96680,1,0,0:0:0:0:
192,0,96729,1,0,0:0:0:0:
320,0,96780,1,0,0:0:0:0:
448,0,96829,1,0,0:0:0:0:
192,0,96880,1,0,0:0:0:0:
64,0,96929,128,0,97229:0:0:0:0:
192,0,97129,1,0,0:0:0:0:
448,0,97229,128,0,97429:0:0:0:0:
320,0,97329,1,0,0:0:0:0:
64,0,97528,1,0,0:0:0:0:
192,0,97528,1,0,0:0:0:0:
320,0,97528,1,0,0:0:0:0:
448,0,97528,1,0,0:0:0:0:
64,0,97728,1,0,0:0:0:0:
448,0,97728,1,0,0:0:0:0:
192,0,97828,1,0,0:0:0:0:
320,0,97828,1,0,0:0:0:0:
64,0,97928,1,0,0:0:0:0:
448,0,97928,1,0,0:0:0:0:
64,0,98028,1,0,0:0:0:0:
192,0,98028,1,0,0:0:0:0:
320,0,98128,1,0,0:0:0:0:
448,0,98128,1,0,0:0:0:0:
192,0,98228,1,0,0:0:0:0:
320,0,98228,1,0,0:0:0:0:
64,0,98328,1,0,0:0:0:0:
192,0,98328,1,0,0:0:0:0:
320,0,98428,1,0,0:0:0:0:
448,0,98428,1,0,0:0:0:0:
64,0,98527,1,0,0:0:0:0:
192,0,98578,1,0,0:0:0:0:
448,0,98627,1,0,0:0:0:0:
320,0,98678,1,0,0:0:0:0:
192,0,98727,1,0,0:0:0:0:
64,0,98778,1,0,0:0:0:0:
448,0,98827,1,0,0:0:0:0:
192,0,98878,1,0,0:0:0:0:
320,0,98927,1,0,0:0:0:0:
64,0,98978,1,0,0:0:0:0:
192,0,99027,1,0,0:0:0:0:
320,0,99077,1,0,0:0:0:0:
64,0,99127,1,0,0:0:0:0:
192,0,99127,1,0,0:0:0:0:
448,0,99127,1,0,0:0:0:0:
64,0,99327,1,0,0:0:0:0:
448,0,99327,1,0,0:0:0:0:
192,0,99427,1,0,0:0:0:0:
320,0,99427,1,0,0:0:0:0:
64,0,99526,1,0,0:0:0:0:
192,0,99526,1,0,0:0:0:0:
320,0,99626,1,0,0:0:0:0:
448,0,99626,1,0,0:0:0:0:
64,0,99726,1,0,0:0:0:0:
192,0,99726,1,0,0:0:0:0:
64,0,99926,1,0,0:0:0:0:
192,0,99926,1,0,0:0:0:0:
320,0,99926,1,0,0:0:0:0:
448,0,99926,1,0,0:0:0:0:
320,0,100026,1,0,0:0:0:0:
448,0,100026,1,0,0:0:0:0:
64,0,100126,1,0,0:0:0:0:
192,0,100126,1,0,0:0:0:0:
448,0,100176,1,0,0:0:0:0:
320,0,100226,1,0,0:0:0:0:
192,0,100276,1,0,0:0:0:0:
64,0,100326,1,0,0:0:0:0:
192,0,100426,1,0,0:0:0:0:
320,0,100476,1,0,0:0:0:0:
448,0,100525,1,0,0:0:0:0:
64,0,100576,1,0,0:0:0:0:
192,0,100625,1,0,0:0:0:0:
320,0,100676,1,0,0:0:0:0:
64,0,100725,1,0,0:0:0:0:
192,0,100725,1,0,0:0:0:0:
448,0,100725,1,0,0:0:0:0:
320,0,100800,1,0,0:0:0:0:
64,0,100850,1,0,0:0:0:0:
192,0,100850,1,0,0:0:0:0:
448,0,100925,1,0,0:0:0:0:
192,0,101000,1,0,0:0:0:0:
320,0,101000,1,0,0:0:0:0:
64,0,101050,1,0,0:0:0:0:
192,0,101125,1,0,0:0:0:0:
320,0,101125,1,0,0:0:0:0:
448,0,101125,1,0,0:0:0:0:
64,0,101200,1,0,0:0:0:0:
320,0,101250,1,0,0:0:0:0:
448,0,101250,1,0,0:0:0:0:
192,0,101325,1,0,0:0:0:0:
64,0,101400,1,0,0:0:0:0:
448,0,101400,1,0,0:0:0:0:
64,0,101524,1,0,0:0:0:0:
192,0,101524,1,0,0:0:0:0:
320,0,101524,1,0,0:0:0:0:
448,0,101524,1,0,0:0:0:0:
192,0,101624,1,0,0:0:0:0:
320,0,101624,1,0,0:0:0:0:
320,0,101724,1,0,0:0:0:0:
448,0,101724,1,0,0:0:0:0:
64,0,101824,1,0,0:0:0:0:
192,0,101824,1,0,0:0:0:0:
64,0,101924,1,0,0:0:0:0:
192,0,101924,1,0,0:0:0:0:
320,0,101924,1,0,0:0:0:0:
448,0,101924,1,0,0:0:0:0:
320,0,102024,1,0,0:0:0:0:
448,0,102024,1,0,0:0:0:0:
64,0,102124,1,0,0:0:0:0:
192,0,102124,1,0,0:0:0:0:
320,0,102224,1,0,0:0:0:0:
448,0,102224,1,0,0:0:0:0:
64,0,102324,1,0,0:0:0:0:
192,0,102324,1,0,0:0:0:0:
320,0,102523,1,0,0:0:0:0:
64,0,102723,1,0,0:0:0:0:
320,0,102923,1,0,0:0:0:0:
64,0,103123,1,0,0:0:0:0:
448,0,103123,1,0,0:0:0:0:
320,0,103323,1,0,0:0:0:0:
192,0,103522,1,0,0:0:0:0:
448,0,103722,1,0,0:0:0:0:
64,0,103922,1,0,0:0:0:0:
320,0,104122,1,0,0:0:0:0:
192,0,104322,1,0,0:0:0:0:
448,0,104521,1,0,0:0:0:0:
64,0,104721,1,0,0:0:0:0:
192,0,104721,1,0,0:0:0:0:
320,0,104921,1,0,0:0:0:0:
64,0,105121,1,0,0:0:0:0:
448,0,105321,1,0,0:0:0:0:
192,0,105520,1,0,0:0:0:0:
320,0,105720,1,0,0:0:0:0:
64,0,105920,1,0,0:0:0:0:
320,0,106120,1,0,0:0:0:0:
192,0,106320,1,0,0:0:0:0:
448,0,106520,1,0,0:0:0:0:
64,0,106720,1,0,0:0:0:0:
320,0,106920,1,0,0:0:0:0:
64,0,107120,1,0,0:0:0:0:
320,0,107169,1,0,0:0:0:0:
64,0,107220,1,0,0:0:0:0:
192,0,107319,1,0,0:0:0:0:
192,0,107519,1,0,0:0:0:0:
320,0,107569,1,0,0:0:0:0:
448,0,107619,1,0,0:0:0:0:
192,0,107719,1,0,0:0:0:0:
192,0,107919,1,0,0:0:0:0:
320,0,107919,1,0,0:0:0:0:
448,0,107968,1,0,0:0:0:0:
64,0,108019,1,0,0:0:0:0:
320,0,108119,1,0,0:0:0:0:
192,0,108318,1,0,0:0:0:0:
448,0,108368,1,0,0:0:0:0:
320,0,108418,1,0,0:0:0:0:
320,0,108718,1,0,0:0:0:0:
448,0,108718,1,0,0:0:0:0:
64,0,108768,1,0,0:0:0:0:
192,0,108818,1,0,0:0:0:0:
448,0,108918,1,0,0:0:0:0:
64,0,109018,1,0,0:0:0:0:
320,0,109118,1,0,0:0:0:0:
192,0,109167,1,0,0:0:0:0:
448,0,109218,1,0,0:0:0:0:
64,0,109317,1,0,0:0:0:0:
192,0,109417,1,0,0:0:0:0:
320,0,109517,1,0,0:0:0:0:
448,0,109517,1,0,0:0:0:0:
64,0,109567,1,0,0:0:0:0:
192,0,109617,1,0,0:0:0:0:
320,0,109717,1,0,0:0:0:0:
448,0,109817,1,0,0:0:0:0:
64,0,109917,1,0,0:0:0:0:
320,0,109966,1,0,0:0:0:0:
192,0,110017,1,0,0:0:0:0:
448,0,110117,1,0,0:0:0:0:
320,0,110217,1,0,0:0:0:0:
192,0,110316,1,0,0:0:0:0:
64,0,110366,1,0,0:0:0:0:
448,0,110416,1,0,0:0:0:0:
192,0,110516,1,0,0:0:0:0:
64,0,110616,1,0,0:0:0:0:
192,0,110716,1,0,0:0:0:0:
320,0,110765,1,0,0:0:0:0:
448,0,110816,1,0,0:0:0:0:
192,0,110916,1,0,0:0:0:0:
320,0,111016,1,0,0:0:0:0:
64,0,111116,1,0,0:0:0:0:
448,0,111116,1,0,0:0:0:0:
192,0,111216,1,0,0:0:0:0:
320,0,111315,1,0,0:0:0:0:
192,0,111415,1,0,0:0:0:0:
64,0,111515,1,0,0:0:0:0:
320,0,111615,1,0,0:0:0:0:
192,0,111715,1,0,0:0:0:0:
448,0,111815,1,0,0:0:0:0:
64,0,111915,1,0,0:0:0:0:
192,0,112015,1,0,0:0:0:0:
320,0,112115,1,0,0:0:0:0:
64,0,112214,1,0,0:0:0:0:
448,0,112214,1,0,0:0:0:0:
192,0,112314,1,0,0:0:0:0:
320,0,112414,1,0,0:0:0:0:
448,0,112514,1,0,0:0:0:0:
320,0,112614,1,0,0:0:0:0:
64,0,112714,1,0,0:0:0:0:
192,0,112714,1,0,0:0:0:0:
320,0,112814,1,0,0:0:0:0:
448,0,112914,1,0,0:0:0:0:
192,0,113014,1,0,0:0:0:0:
64,0,113114,1,0,0:0:0:0:
320,0,113313,1,0,0:0:0:0:
448,0,113413,1,0,0:0:0:0:
64,0,113513,1,0,0:0:0:0:
192,0,113563,1,0,0:0:0:0:
448,0,113613,1,0,0:0:0:0:
192,0,113713,1,0,0:0:0:0:
64,0,113813,1,0,0:0:0:0:
320,0,113913,1,0,0:0:0:0:
448,0,113962,1,0,0:0:0:0:
192,0,114013,1,0,0:0:0:0:
448,0,114113,1,0,0:0:0:0:
320,0,114212,1,0,0:0:0:0:
64,0,114312,1,0,0:0:0:0:
192,0,114312,1,0,0:0:0:0:
320,0,114362,1,0,0:0:0:0:
448,0,114412,1,0,0:0:0:0:
192,0,114512,1,0,0:0:0:0:
320,0,114512,1,0,0:0:0:0:
64,0,114612,1,0,0:0:0:0:
448,0,114612,1,0,0:0:0:0:
192,0,114712,1,0,0:0:0:0:
320,0,114712,1,0,0:0:0:0:
448,0,114761,1,0,0:0:0:0:
64,0,114812,1,0,0:0:0:0:
192,0,114912,1,0,0:0:0:0:
192,0,115012,1,0,0:0:0:0:
320,0,115112,1,0,0:0:0:0:
448,0,115112,1,0,0:0:0:0:
64,0,115161,1,0,0:0:0:0:
192,0,115211,1,0,0:0:0:0:
320,0,115311,1,0,0:0:0:0:
320,0,115411,1,0,0:0:0:0:
448,0,115411,1,0,0:0:0:0:
192,0,115511,1,0,0:0:0:0:
64,0,115561,1,0,0:0:0:0:
320,0,115611,1,0,0:0:0:0:
64,0,115711,1,0,0:0:0:0:
448,0,115711,1,0,0:0:0:0:
448,0,115811,1,0,0:0:0:0:
64,0,115911,1,0,0:0:0:0:
192,0,115911,1,0,0:0:0:0:
320,0,115960,1,0,0:0:0:0:
448,0,116011,1,0,0:0:0:0:
192,0,116111,1,0,0:0:0:0:
64,0,116210,1,0,0:0:0:0:
320,0,116210,1,0,0:0:0:0:
192,0,116310,1,0,0:0:0:0:
320,0,116360,1,0,0:0:0:0:
64,0,116410,1,0,0:0:0:0:
192,0,116510,1,0,0:0:0:0:
320,0,116510,1,0,0:0:0:0:
448,0,116610,1,0,0:0:0:0:
192,0,116710,1,0,0:0:0:0:
320,0,116760,1,0,0:0:0:0:
64,0,116810,1,0,0:0:0:0:
448,0,116910,1,0,0:0:0:0:
320,0,117010,1,0,0:0:0:0:
448,0,117010,1,0,0:0:0:0:
192,0,117109,1,0,0:0:0:0:
64,0,117160,1,0,0:0:0:0:
320,0,117209,1,0,0:0:0:0:
64,0,117309,1,0,0:0:0:0:
448,0,117309,1,0,0:0:0:0:
320,0,117409,1,0,0:0:0:0:
64,0,117509,1,0,0:0:0:0:
192,0,117509,1,0,0:0:0:0:
320,0,117560,1,0,0:0:0:0:
448,0,117609,1,0,0:0:0:0:
64,0,117709,1,0,0:0:0:0:
192,0,117809,1,0,0:0:0:0:
320,0,117809,1,0,0:0:0:0:
448,0,117909,1,0,0:0:0:0:
192,0,117959,1,0,0:0:0:0:
64,0,118009,1,0,0:0:0:0:
320,0,118108,1,0,0:0:0:0:
448,0,118108,1,0,0:0:0:0:
192,0,118208,1,0,0:0:0:0:
64,0,118308,1,0,0:0:0:0:
448,0,118308,1,0,0:0:0:0:
320,0,118359,1,0,0:0:0:0:
192,0,118408,1,0,0:0:0:0:
320,0,118508,1,0,0:0:0:0:
192,0,118608,1,0,0:0:0:0:
320,0,118608,1,0,0:0:0:0:
64,0,118708,1,0,0:0:0:0:
448,0,118758,1,0,0:0:0:0:
192,0,118808,1,0,0:0:0:0:
320,0,118908,1,0,0:0:0:0:
448,0,118908,1,0,0:0:0:0:
64,0,119008,1,0,0:0:0:0:
192,0,119107,1,0,0:0:0:0:
320,0,119107,1,0,0:0:0:0:
64,0,119158,1,0,0:0:0:0:
448,0,119207,1,0,0:0:0:0:
320,0,119307,1,0,0:0:0:0:
64,0,119407,1,0,0:0:0:0:
192,0,119407,1,0,0:0:0:0:
320,0,119507,1,0,0:0:0:0:
192,0,119557,1,0,0:0:0:0:
64,0,119607,1,0,0:0:0:0:
320,0,119707,1,0,0:0:0:0:
448,0,119707,1,0,0:0:0:0:
192,0,119807,1,0,0:0:0:0:
320,0,119907,1,0,0:0:0:0:
64,0,119957,1,0,0:0:0:0:
448,0,120007,1,0,0:0:0:0:
64,0,120106,1,0,0:0:0:0:
192,0,120206,1,0,0:0:0:0:
320,0,120206,1,0,0:0:0:0:
64,0,120306,1,0,0:0:0:0:
448,0,120306,1,0,0:0:0:0:
320,0,120357,1,0,0:0:0:0:
192,0,120406,1,0,0:0:0:0:
320,0,120506,1,0,0:0:0:0:
448,0,120506,1,0,0:0:0:0:
64,0,120606,1,0,0:0:0:0:
192,0,120706,1,0,0:0:0:0:
320,0,120756,1,0,0:0:0:0:
448,0,120806,1,0,0:0:0:0:
64,0,120906,1,0,0:0:0:0:
192,0,120906,1,0,0:0:0:0:
320,0,121006,1,0,0:0:0:0:
448,0,121006,1,0,0:0:0:0:
64,0,121105,1,0,0:0:0:0:
192,0,121105,1,0,0:0:0:0:
320,0,121156,1,0,0:0:0:0:
448,0,121205,1,0,0:0:0:0:
192,0,121305,1,0,0:0:0:0:
448,0,121405,1,0,0:0:0:0:
192,0,121505,1,0,0:0:0:0:
320,0,121505,1,0,0:0:0:0:
64,0,121555,1,0,0:0:0:0:
448,0,121605,1,0,0:0:0:0:
192,0,121705,1,0,0:0:0:0:
320,0,121805,1,0,0:0:0:0:
448,0,121805,1,0,0:0:0:0:
64,0,121905,1,0,0:0:0:0:
192,0,121955,1,0,0:0:0:0:
320,0,122004,1,0,0:0:0:0:
64,0,122104,1,0,0:0:0:0:
448,0,122104,1,0,0:0:0:0:
320,0,122204,1,0,0:0:0:0:
64,0,122304,1,0,0:0:0:0:
192,0,122304,1,0,0:0:0:0:
448,0,122355,1,0,0:0:0:0:
320,0,122404,1,0,0:0:0:0:
192,0,122504,1,0,0:0:0:0:
64,0,122604,1,0,0:0:0:0:
320,0,122604,1,0,0:0:0:0:
448,0,122704,1,0,0:0:0:0:
192,0,122754,1,0,0:0:0:0:
64,0,122804,1,0,0:0:0:0:
320,0,122904,1,0,0:0:0:0:
448,0,122904,1,0,0:0:0:0:
192,0,123003,1,0,0:0:0:0:
320,0,123103,1,0,0:0:0:0:
64,0,123154,1,0,0:0:0:0:
192,0,123203,1,0,0:0:0:0:
448,0,123303,1,0,0:0:0:0:
192,0,123403,1,0,0:0:0:0:
320,0,123403,1,0,0:0:0:0:
448,0,123503,1,0,0:0:0:0:
64,0,123553,1,0,0:0:0:0:
192,0,123603,1,0,0:0:0:0:
320,0,123703,1,0,0:0:0:0:
448,0,123703,1,0,0:0:0:0:
64,0,123803,1,0,0:0:0:0:
192,0,123903,1,0,0:0:0:0:
320,0,123903,1,0,0:0:0:0:
64,0,123953,1,0,0:0:0:0:
448,0,124002,1,0,0:0:0:0:
320,0,124102,1,0,0:0:0:0:
64,0,124202,1,0,0:0:0:0:
192,0,124202,1,0,0:0:0:0:
320,0,124302,1,0,0:0:0:0:
448,0,124353,1,0,0:0:0:0:
64,0,124402,1,0,0:0:0:0:
192,0,124502,1,0,0:0:0:0:
320,0,124502,1,0,0:0:0:0:
448,0,124602,1,0,0:0:0:0:
64,0,124702,1,0,0:0:0:0:
192,0,124702,1,0,0:0:0:0:
320,0,124752,1,0,0:0:0:0:
448,0,124802,1,0,0:0:0:0:
192,0,124902,1,0,0:0:0:0:
320,0,125001,1,0,0:0:0:0:
448,0,125001,1,0,0:0:0:0:
64,0,125101,1,0,0:0:0:0:
320,0,125152,1,0,0:0:0:0:
192,0,125201,1,0,0:0:0:0:
64,0,125301,1,0,0:0:0:0:
448,0,125301,1,0,0:0:0:0:
320,0,125401,1,0,0:0:0:0:
64,0,125501,1,0,0:0:0:0:
192,0,125501,1,0,0:0:0:0:
448,0,125551,1,0,0:0:0:0:
320,0,125601,1,0,0:0:0:0:
64,0,125701,1,0,0:0:0:0:
192,0,125801,1,0,0:0:0:0:
320,0,125801,1,0,0:0:0:0:
448,0,125901,1,0,0:0:0:0:
64,0,125951,1,0,0:0:0:0:
192,0,126000,1,0,0:0:0:0:
320,0,126100,1,0,0:0:0:0:
448,0,126100,1,0,0:0:0:0:
64,0,126200,1,0,0:0:0:0:
320,0,126300,1,0,0:0:0:0:
192,0,126351,1,0,0:0:0:0:
448,0,126400,1,0,0:0:0:0:
320,0,126500,1,0,0:0:0:0:
64,0,126600,1,0,0:0:0:0:
192,0,126600,1,0,0:0:0:0:
448,0,126700,1,0,0:0:0:0:
320,0,126750,1,0,0:0:0:0:
64,0,126800,1,0,0:0:0:0:
192,0,126900,1,0,0:0:0:0:
320,0,126900,1,0,0:0:0:0:
448,0,127000,1,0,0:0:0:0:
192,0,127100,1,0,0:0:0:0:
320,0,127100,1,0,0:0:0:0:
64,0,127150,1,0,0:0:0:0:
448,0,127200,1,0,0:0:0:0:
64,0,127300,1,0,0:0:0:0:
192,0,127300,1,0,0:0:0:0:
320,0,127400,1,0,0:0:0:0:
448,0,127400,1,0,0:0:0:0:
64,0,127500,1,0,0:0:0:0:
192,0,127500,1,0,0:0:0:0:
320,0,127549,1,0,0:0:0:0:
448,0,127600,1,0,0:0:0:0:
64,0,127700,1,0,0:0:0:0:
192,0,127700,1,0,0:0:0:0:
320,0,127800,1,0,0:0:0:0:
64,0,127899,1,0,0:0:0:0:
448,0,127899,1,0,0:0:0:0:
320,0,127949,1,0,0:0:0:0:
192,0,127999,1,0,0:0:0:0:
64,0,128049,1,0,0:0:0:0:
448,0,128099,1,0,0:0:0:0:
192,0,128149,1,0,0:0:0:0:
320,0,128199,1,0,0:0:0:0:
448,0,128249,1,0,0:0:0:0:
64,0,128299,1,0,0:0:0:0:
320,0,128349,1,0,0:0:0:0:
192,0,128399,1,0,0:0:0:0:
320,0,128499,1,0,0:0:0:0:
448,0,128499,1,0,0:0:0:0:
192,0,128599,1,0,0:0:0:0:
64,0,128699,1,0,0:0:0:0:
320,0,128699,1,0,0:0:0:0:
448,0,128699,1,0,0:0:0:0:
192,0,128799,1,0,0:0:0:0:
320,0,128898,1,0,0:0:0:0:
448,0,128898,1,0,0:0:0:0:
320,0,128998,1,0,0:0:0:0:
448,0,128998,1,0,0:0:0:0:
64,0,129098,1,0,0:0:0:0:
192,0,129098,1,0,0:0:0:0:
448,0,129173,1,0,0:0:0:0:
320,0,129222,1,0,0:0:0:0:
192,0,129298,1,0,0:0:0:0:
64,0,129373,1,0,0:0:0:0:
448,0,129422,1,0,0:0:0:0:
320,0,129498,1,0,0:0:0:0:
192,0,129547,1,0,0:0:0:0:
320,0,129598,1,0,0:0:0:0:
192,0,129647,1,0,0:0:0:0:
448,0,129698,1,0,0:0:0:0:
320,0,129747,1,0,0:0:0:0:
192,0,129798,1,0,0:0:0:0:
64,0,129847,1,0,0:0:0:0:
448,0,129897,1,0,0:0:0:0:
320,0,129947,1,0,0:0:0:0:
192,0,129997,1,0,0:0:0:0:
448,0,130097,1,0,0:0:0:0:
64,0,130147,1,0,0:0:0:0:
192,0,130197,1,0,0:0:0:0:
320,0,130297,1,0,0:0:0:0:
448,0,130297,1,0,0:0:0:0:
64,0,130346,1,0,0:0:0:0:
192,0,130397,1,0,0:0:0:0:
320,0,130497,1,0,0:0:0:0:
448,0,130546,1,0,0:0:0:0:
192,0,130597,1,0,0:0:0:0:
320,0,130697,1,0,0:0:0:0:
320,0,130797,1,0,0:0:0:0:
192,0,130896,1,0,0:0:0:0:
448,0,130896,1,0,0:0:0:0:
192,0,130996,1,0,0:0:0:0:
64,0,131096,1,0,0:0:0:0:
320,0,131146,1,0,0:0:0:0:
448,0,131196,1,0,0:0:0:0:
192,0,131246,1,0,0:0:0:0:
64,0,131296,1,0,0:0:0:0:
320,0,131345,1,0,0:0:0:0:
448,0,131396,1,0,0:0:0:0:
192,0,131445,1,0,0:0:0:0:
64,0,131496,1,0,0:0:0:0:
320,0,131570,1,0,0:0:0:0:
448,0,131620,1,0,0:0:0:0:
64,0,131696,1,0,0:0:0:0:
192,0,131696,1,0,0:0:0:0:
320,0,131696,1,0,0:0:0:0:
64,0,131895,1,0,0:0:0:0:
192,0,131895,1,0,0:0:0:0:
320,0,131895,1,0,0:0:0:0:
448,0,131895,1,0,0:0:0:0:
192,0,132095,1,0,0:0:0:0:
192,0,132195,1,0,0:0:0:0:
320,0,132295,1,0,0:0:0:0:
448,0,132295,1,0,0:0:0:0:
64,0,132344,1,0,0:0:0:0:
192,0,132395,1,0,0:0:0:0:
320,0,132444,1,0,0:0:0:0:
448,0,132495,1,0,0:0:0:0:
192,0,132695,1,0,0:0:0:0:
320,0,132695,1,0,0:0:0:0:
448,0,132744,1,0,0:0:0:0:
64,0,132794,1,0,0:0:0:0:
192,0,132844,1,0,0:0:0:0:
320,0,132894,1,0,0:0:0:0:
448,0,132944,1,0,0:0:0:0:
192,0,132994,1,0,0:0:0:0:
320,0,133044,1,0,0:0:0:0:
64,0,133094,1,0,0:0:0:0:
448,0,133144,1,0,0:0:0:0:
320,0,133194,1,0,0:0:0:0:
192,0,133244,1,0,0:0:0:0:
64,0,133294,1,0,0:0:0:0:
448,0,133294,1,0,0:0:0:0:
64,0,133494,1,0,0:0:0:0:
192,0,133494,1,0,0:0:0:0:
320,0,133494,1,0,0:0:0:0:
448,0,133494,1,0,0:0:0:0:
192,0,133694,1,0,0:0:0:0:
320,0,133694,1,0,0:0:0:0:
448,0,133694,1,0,0:0:0:0:
320,0,133893,1,0,0:0:0:0:
448,0,133893,1,0,0:0:0:0:
192,0,133943,1,0,0:0:0:0:
64,0,133993,1,0,0:0:0:0:
448,0,134043,1,0,0:0:0:0:
192,0,134093,1,0,0:0:0:0:
320,0,134093,1,0,0:0:0:0:
64,0,134293,1,0,0:0:0:0:
448,0,134293,1,0,0:0:0:0:
192,0,134368,1,0,0:0:0:0:
64,0,134418,1,0,0:0:0:0:
192,0,134493,1,0,0:0:0:0:
320,0,134542,1,0,0:0:0:0:
448,0,134593,1,0,0:0:0:0:
64,0,134642,1,0,0:0:0:0:
192,0,134693,1,0,0:0:0:0:
448,0,134742,1,0,0:0:0:0:
320,0,134792,1,0,0:0:0:0:
192,0,134842,1,0,0:0:0:0:
64,0,134892,1,0,0:0:0:0:
192,0,135092,1,0,0:0:0:0:
320,0,135092,1,0,0:0:0:0:
64,0,135292,1,0,0:0:0:0:
192,0,135292,1,0,0:0:0:0:
192,0,135392,1,0,0:0:0:0:
320,0,135392,1,0,0:0:0:0:
320,0,135492,1,0,0:0:0:0:
448,0,135492,1,0,0:0:0:0:
64,0,135541,1,0,0:0:0:0:
192,0,135592,1,0,0:0:0:0:
320,0,135641,1,0,0:0:0:0:
448,0,135692,1,0,0:0:0:0:
448,0,135791,1,0,0:0:0:0:
64,0,135891,1,0,0:0:0:0:
192,0,135891,1,0,0:0:0:0:
448,0,135941,1,0,0:0:0:0:
320,0,135991,1,0,0:0:0:0:
192,0,136041,1,0,0:0:0:0:
64,0,136091,1,0,0:0:0:0:
320,0,136191,1,0,0:0:0:0:
448,0,136191,1,0,0:0:0:0:
192,0,136291,1,0,0:0:0:0:
64,0,136340,1,0,0:0:0:0:
320,0,136391,1,0,0:0:0:0:
192,0,136491,1,0,0:0:0:0:
448,0,136540,1,0,0:0:0:0:
64,0,136591,1,0,0:0:0:0:
192,0,136690,1,0,0:0:0:0:
320,0,136690,1,0,0:0:0:0:
448,0,136740,1,0,0:0:0:0:
64,0,136790,1,0,0:0:0:0:
192,0,136890,1,0,0:0:0:0:
320,0,136940,1,0,0:0:0:0:
448,0,136990,1,0,0:0:0:0:
64,0,137090,1,0,0:0:0:0:
192,0,137140,1,0,0:0:0:0:
320,0,137190,1,0,0:0:0:0:
448,0,137240,1,0,0:0:0:0:
64,0,137290,1,0,0:0:0:0:
192,0,137340,1,0,0:0:0:0:
320,0,137390,1,0,0:0:0:0:
448,0,137440,1,0,0:0:0:0:
64,0,137490,1,0,0:0:0:0:
192,0,137490,1,0,0:0:0:0:
320,0,137564,1,0,0:0:0:0:
448,0,137564,1,0,0:0:0:0:
64,0,137615,1,0,0:0:0:0:
192,0,137615,1,0,0:0:0:0:
320,0,137689,1,0,0:0:0:0:
448,0,137689,1,0,0:0:0:0:
64,0,137764,1,0,0:0:0:0:
192,0,137764,1,0,0:0:0:0:
320,0,137815,1,0,0:0:0:0:
448,0,137815,1,0,0:0:0:0:
64,0,137889,1,0,0:0:0:0:
192,0,137889,1,0,0:0:0:0:
320,0,137964,1,0,0:0:0:0:
448,0,137964,1,0,0:0:0:0:
64,0,138014,1,0,0:0:0:0:
192,0,138014,1,0,0:0:0:0:
320,0,138089,1,0,0:0:0:0:
448,0,138089,1,0,0:0:0:0:
64,0,138164,1,0,0:0:0:0:
192,0,138164,1,0,0:0:0:0:
320,0,138214,1,0,0:0:0:0:
448,0,138214,1,0,0:0:0:0:
64,0,138289,1,0,0:0:0:0:
192,0,138289,1,0,0:0:0:0:
64,0,138489,1,0,0:0:0:0:
192,0,138489,1,0,0:0:0:0:
192,0,138589,1,0,0:0:0:0:
320,0,138589,1,0,0:0:0:0:
320,0,138688,1,0,0:0:0:0:
448,0,138688,1,0,0:0:0:0:
64,0,138763,1,0,0:0:0:0:
192,0,138763,1,0,0:0:0:0:
320,0,138814,1,0,0:0:0:0:
448,0,138814,1,0,0:0:0:0:
64,0,138888,1,0,0:0:0:0:
192,0,138888,1,0,0:0:0:0:
320,0,138963,1,0,0:0:0:0:
448,0,138963,1,0,0:0:0:0:
64,0,139088,1,0,0:0:0:0:
192,0,139088,1,0,0:0:0:0:
320,0,139163,1,0,0:0:0:0:
448,0,139163,1,0,0:0:0:0:
64,0,139213,1,0,0:0:0:0:
192,0,139213,1,0,0:0:0:0:
320,0,139288,1,0,0:0:0:0:
448,0,139288,1,0,0:0:0:0:
64,0,139363,1,0,0:0:0:0:
192,0,139363,1,0,0:0:0:0:
320,0,139488,1,0,0:0:0:0:
448,0,139488,1,0,0:0:0:0:
64,0,139562,1,0,0:0:0:0:
192,0,139562,1,0,0:0:0:0:
320,0,139613,1,0,0:0:0:0:
448,0,139613,1,0,0:0:0:0:
64,0,139687,1,0,0:0:0:0:
192,0,139687,1,0,0:0:0:0:
320,0,139762,1,0,0:0:0:0:
448,0,139762,1,0,0:0:0:0:
64,0,139887,1,0,0:0:0:0:
192,0,139887,1,0,0:0:0:0:
192,0,140087,1,0,0:0:0:0:
64,0,140187,1,0,0:0:0:0:
448,0,140187,1,0,0:0:0:0:
320,0,140287,1,0,0:0:0:0:
320,0,140487,1,0,0:0:0:0:
448,0,140487,1,0,0:0:0:0:
192,0,140537,1,0,0:0:0:0:
64,0,140587,1,0,0:0:0:0:
320,0,140637,1,0,0:0:0:0:
64,0,140686,1,0,0:0:0:0:
192,0,140686,1,0,0:0:0:0:
448,0,140686,1,0,0:0:0:0:
320,0,140761,1,0,0:0:0:0:
192,0,140812,1,0,0:0:0:0:
64,0,140886,1,0,0:0:0:0:
320,0,140986,1,0,0:0:0:0:
448,0,140986,1,0,0:0:0:0:
192,0,141086,1,0,0:0:0:0:
320,0,141086,1,0,0:0:0:0:
64,0,141186,1,0,0:0:0:0:
448,0,141186,1,0,0:0:0:0:
192,0,141286,1,0,0:0:0:0:
320,0,141286,1,0,0:0:0:0:
320,0,141486,1,0,0:0:0:0:
448,0,141486,1,0,0:0:0:0:
64,0,141685,1,0,0:0:0:0:
192,0,141685,1,0,0:0:0:0:
192,0,141785,1,0,0:0:0:0:
320,0,141785,1,0,0:0:0:0:
320,0,141885,1,0,0:0:0:0:
448,0,141885,1,0,0:0:0:0:
64,0,141985,1,0,0:0:0:0:
448,0,141985,1,0,0:0:0:0:
64,0,142085,1,0,0:0:0:0:
192,0,142085,1,0,0:0:0:0:
320,0,142285,1,0,0:0:0:0:
448,0,142285,1,0,0:0:0:0:
192,0,142335,1,0,0:0:0:0:
64,0,142385,1,0,0:0:0:0:
448,0,142435,1,0,0:0:0:0:
192,0,142485,1,0,0:0:0:0:
320,0,142485,1,0,0:0:0:0:
64,0,142584,1,0,0:0:0:0:
448,0,142584,1,0,0:0:0:0:
192,0,142684,1,0,0:0:0:0:
320,0,142684,1,0,0:0:0:0:
64,0,142884,1,0,0:0:0:0:
192,0,142884,1,0,0:0:0:0:
320,0,142884,1,0,0:0:0:0:
192,0,143084,1,0,0:0:0:0:
320,0,143084,1,0,0:0:0:0:
448,0,143084,1,0,0:0:0:0:
64,0,143284,1,0,0:0:0:0:
192,0,143284,1,0,0:0:0:0:
320,0,143284,1,0,0:0:0:0:
320,0,143484,1,0,0:0:0:0:
448,0,143484,1,0,0:0:0:0:
320,0,143583,1,0,0:0:0:0:
448,0,143583,1,0,0:0:0:0:
320,0,143683,1,0,0:0:0:0:
448,0,143683,1,0,0:0:0:0:
64,0,143883,1,0,0:0:0:0:
448,0,143883,1,0,0:0:0:0:
320,0,143934,1,0,0:0:0:0:
192,0,143983,1,0,0:0:0:0:
64,0,144033,1,0,0:0:0:0:
448,0,144083,1,0,0:0:0:0:
320,0,144133,1,0,0:0:0:0:
64,0,144183,1,0,0:0:0:0:
192,0,144183,1,0,0:0:0:0:
192,0,144283,1,0,0:0:0:0:
320,0,144283,1,0,0:0:0:0:
64,0,144383,1,0,0:0:0:0:
448,0,144383,1,0,0:0:0:0:
192,0,144483,1,0,0:0:0:0:
320,0,144483,1,0,0:0:0:0:
64,0,144682,1,0,0:0:0:0:
320,0,144682,1,0,0:0:0:0:
448,0,144682,1,0,0:0:0:0:
64,0,144882,1,0,0:0:0:0:
192,0,144882,1,0,0:0:0:0:
192,0,144982,1,0,0:0:0:0:
320,0,144982,1,0,0:0:0:0:
64,0,145082,1,0,0:0:0:0:
448,0,145082,1,0,0:0:0:0:
320,0,145182,1,0,0:0:0:0:
448,0,145182,1,0,0:0:0:0:
192,0,145282,1,0,0:0:0:0:
320,0,145282,1,0,0:0:0:0:
64,0,145482,1,0,0:0:0:0:
192,0,145482,1,0,0:0:0:0:
320,0,145532,1,0,0:0:0:0:
448,0,145581,1,0,0:0:0:0:
64,0,145632,1,0,0:0:0:0:
192,0,145681,1,0,0:0:0:0:
320,0,145681,1,0,0:0:0:0:
64,0,145781,1,0,0:0:0:0:
448,0,145781,1,0,0:0:0:0:
192,0,145881,1,0,0:0:0:0:
320,0,145881,1,0,0:0:0:0:
64,0,145981,1,0,0:0:0:0:
192,0,145981,1,0,0:0:0:0:
320,0,146081,1,0,0:0:0:0:
448,0,146081,1,0,0:0:0:0:
64,0,146281,1,0,0:0:0:0:
192,0,146281,1,0,0:0:0:0:
64,0,146381,1,0,0:0:0:0:
192,0,146381,1,0,0:0:0:0:
320,0,146481,1,0,0:0:0:0:
448,0,146481,1,0,0:0:0:0:
320,0,146580,1,0,0:0:0:0:
448,0,146580,1,0,0:0:0:0:
64,0,146680,1,0,0:0:0:0:
192,0,146680,1,0,0:0:0:0:
192,0,146780,1,0,0:0:0:0:
320,0,146780,1,0,0:0:0:0:
320,0,146880,1,0,0:0:0:0:
448,0,146880,1,0,0:0:0:0:
192,0,146956,1,0,0:0:0:0:
320,0,147005,1,0,0:0:0:0:
64,0,147080,1,0,0:0:0:0:
64,0,147205,1,0,0:0:0:0:
64,0,147355,1,0,0:0:0:0:
320,0,147380,1,0,0:0:0:0:
448,0,147380,1,0,0:0:0:0:
64,0,147480,1,0,0:0:0:0:
192,0,147480,1,0,0:0:0:0:
320,0,147580,1,0,0:0:0:0:
64,0,147605,1,0,0:0:0:0:
448,0,147680,1,0,0:0:0:0:
64,0,147755,1,0,0:0:0:0:
320,0,147780,1,0,0:0:0:0:
64,0,147880,1,0,0:0:0:0:
448,0,147880,1,0,0:0:0:0:
192,0,147980,1,0,0:0:0:0:
64,0,148004,1,0,0:0:0:0:
320,0,148080,1,0,0:0:0:0:
64,0,148155,1,0,0:0:0:0:
448,0,148180,1,0,0:0:0:0:
64,0,148280,1,0,0:0:0:0:
448,0,148354,1,0,0:0:0:0:
64,0,148404,1,0,0:0:0:0:
448,0,148479,1,0,0:0:0:0:
64,0,148554,1,0,0:0:0:0:
448,0,148679,1,0,0:0:0:0:
320,0,148729,1,0,0:0:0:0:
192,0,148779,1,0,0:0:0:0:
64,0,148829,1,0,0:0:0:0:
320,0,148879,1,0,0:0:0:0:
448,0,148954,1,0,0:0:0:0:
64,0,149079,1,0,0:0:0:0:
192,0,149128,1,0,0:0:0:0:
320,0,149179,1,0,0:0:0:0:
448,0,149203,1,0,0:0:0:0:
64,0,149279,1,0,0:0:0:0:
448,0,149353,1,0,0:0:0:0:
192,0,149379,1,0,0:0:0:0:
320,0,149379,1,0,0:0:0:0:
64,0,149478,1,0,0:0:0:0:
448,0,149478,1,0,0:0:0:0:
64,0,149578,1,0,0:0:0:0:
320,0,149678,1,0,0:0:0:0:
448,0,149678,1,0,0:0:0:0:
448,0,149778,1,0,0:0:0:0:
64,0,149878,1,0,0:0:0:0:
192,0,149878,1,0,0:0:0:0:
320,0,149927,1,0,0:0:0:0:
448,0,149978,1,0,0:0:0:0:
64,0,150027,1,0,0:0:0:0:
192,0,150078,1,0,0:0:0:0:
320,0,150127,1,0,0:0:0:0:
448,0,150178,1,0,0:0:0:0:
64,0,150278,1,0,0:0:0:0:
192,0,150278,1,0,0:0:0:0:
320,0,150327,1,0,0:0:0:0:
448,0,150378,1,0,0:0:0:0:
192,0,150427,1,0,0:0:0:0:
320,0,150477,1,0,0:0:0:0:
64,0,150527,1,0,0:0:0:0:
192,0,150577,1,0,0:0:0:0:
448,0,150627,1,0,0:0:0:0:
320,0,150677,1,0,0:0:0:0:
192,0,150727,1,0,0:0:0:0:
64,0,150777,1,0,0:0:0:0:
448,0,150827,1,0,0:0:0:0:
192,0,150877,1,0,0:0:0:0:
320,0,150926,1,0,0:0:0:0:
64,0,150977,1,0,0:0:0:0:
192,0,151026,1,0,0:0:0:0:
320,0,151077,1,0,0:0:0:0:
448,0,151126,1,0,0:0:0:0:
192,0,151177,1,0,0:0:0:0:
64,0,151226,1,0,0:0:0:0:
448,0,151277,1,0,0:0:0:0:
320,0,151326,1,0,0:0:0:0:
192,0,151377,1,0,0:0:0:0:
64,0,151426,1,0,0:0:0:0:
448,0,151476,1,0,0:0:0:0:
320,0,151526,1,0,0:0:0:0:
192,0,151576,1,0,0:0:0:0:
64,0,151626,1,0,0:0:0:0:
448,0,151676,1,0,0:0:0:0:
320,0,151726,1,0,0:0:0:0:
192,0,151776,1,0,0:0:0:0:
64,0,151826,1,0,0:0:0:0:
320,0,151876,1,0,0:0:0:0:
192,0,151925,1,0,0:0:0:0:
320,0,151976,1,0,0:0:0:0:
192,0,152076,1,0,0:0:0:0:
320,0,152176,1,0,0:0:0:0:
64,0,152276,1,0,0:0:0:0:
448,0,152325,1,0,0:0:0:0:
64,0,152375,1,0,0:0:0:0:
320,0,152475,1,0,0:0:0:0:
192,0,152575,1,0,0:0:0:0:
64,0,152675,1,0,0:0:0:0:
64,0,152800,1,0,0:0:0:0:
64,0,152950,1,0,0:0:0:0:
64,0,153075,1,0,0:0:0:0:
192,0,153075,1,0,0:0:0:0:
320,0,153075,1,0,0:0:0:0:
448,0,153075,1,0,0:0:0:0:
192,0,153275,1,0,0:0:0:0:
192,0,153374,1,0,0:0:0:0:
320,0,153374,1,0,0:0:0:0:
448,0,153374,1,0,0:0:0:0:
64,0,153474,1,0,0:0:0:0:
192,0,153524,1,0,0:0:0:0:
320,0,153574,1,0,0:0:0:0:
448,0,153624,1,0,0:0:0:0:
64,0,153674,1,0,0:0:0:0:
320,0,153774,1,0,0:0:0:0:
448,0,153774,1,0,0:0:0:0:
64,0,153824,1,0,0:0:0:0:
192,0,153874,1,0,0:0:0:0:
320,0,153923,1,0,0:0:0:0:
448,0,153974,1,0,0:0:0:0:
64,0,154074,1,0,0:0:0:0:
320,0,154074,1,0,0:0:0:0:
448,0,154123,1,0,0:0:0:0:
192,0,154174,1,0,0:0:0:0:
64,0,154274,1,0,0:0:0:0:
320,0,154274,1,0,0:0:0:0:
448,0,154274,1,0,0:0:0:0:
192,0,154323,1,0,0:0:0:0:
320,0,154373,1,0,0:0:0:0:
448,0,154423,1,0,0:0:0:0:
64,0,154473,1,0,0:0:0:0:
320,0,154573,1,0,0:0:0:0:
448,0,154573,1,0,0:0:0:0:
64,0,154623,1,0,0:0:0:0:
192,0,154673,1,0,0:0:0:0:
320,0,154723,1,0,0:0:0:0:
448,0,154773,1,0,0:0:0:0:
64,0,154873,1,0,0:0:0:0:
192,0,154873,1,0,0:0:0:0:
448,0,154922,1,0,0:0:0:0:
320,0,154973,1,0,0:0:0:0:
64,0,155022,1,0,0:0:0:0:
192,0,155073,1,0,0:0:0:0:
448,0,155122,1,0,0:0:0:0:
320,0,155173,1,0,0:0:0:0:
192,0,155222,1,0,0:0:0:0:
64,0,155273,1,0,0:0:0:0:
320,0,155372,1,0,0:0:0:0:
448,0,155372,1,0,0:0:0:0:
64,0,155472,1,0,0:0:0:0:
448,0,155472,1,0,0:0:0:0:
192,0,155522,1,0,0:0:0:0:
320,0,155572,1,0,0:0:0:0:
64,0,155672,1,0,0:0:0:0:
448,0,155672,1,0,0:0:0:0:
192,0,155722,1,0,0:0:0:0:
320,0,155772,1,0,0:0:0:0:
64,0,155872,1,0,0:0:0:0:
192,0,155872,1,0,0:0:0:0:
448,0,155872,1,0,0:0:0:0:
320,0,155921,1,0,0:0:0:0:
192,0,155972,1,0,0:0:0:0:
64,0,156021,1,0,0:0:0:0:
448,0,156072,1,0,0:0:0:0:
320,0,156121,1,0,0:0:0:0:
64,0,156172,1,0,0:0:0:0:
192,0,156172,1,0,0:0:0:0:
448,0,156272,1,0,0:0:0:0:
320,0,156371,1,0,0:0:0:0:
64,0,156471,1,0,0:0:0:0:
192,0,156471,1,0,0:0:0:0:
192,0,156571,1,0,0:0:0:0:
64,0,156671,1,0,0:0:0:0:
448,0,156671,1,0,0:0:0:0:
192,0,156721,1,0,0:0:0:0:
320,0,156771,1,0,0:0:0:0:
448,0,156871,1,0,0:0:0:0:
192,0,156920,1,0,0:0:0:0:
320,0,156971,1,0,0:0:0:0:
448,0,157071,1,0,0:0:0:0:
192,0,157120,1,0,0:0:0:0:
320,0,157171,1,0,0:0:0:0:
448,0,157270,1,0,0:0:0:0:
192,0,157320,1,0,0:0:0:0:
320,0,157370,1,0,0:0:0:0:
64,0,157470,1,0,0:0:0:0:
192,0,157470,1,0,0:0:0:0:
448,0,157470,1,0,0:0:0:0:
64,0,157670,1,0,0:0:0:0:
192,0,157670,1,0,0:0:0:0:
320,0,157770,1,0,0:0:0:0:
448,0,157770,1,0,0:0:0:0:
64,0,157870,1,0,0:0:0:0:
192,0,157870,1,0,0:0:0:0:
448,0,157920,1,0,0:0:0:0:
320,0,157970,1,0,0:0:0:0:
192,0,158020,1,0,0:0:0:0:
64,0,158070,1,0,0:0:0:0:
448,0,158120,1,0,0:0:0:0:
320,0,158170,1,0,0:0:0:0:
192,0,158220,1,0,0:0:0:0:
64,0,158269,1,0,0:0:0:0:
448,0,158269,1,0,0:0:0:0:
192,0,158369,1,0,0:0:0:0:
320,0,158369,1,0,0:0:0:0:
64,0,158544,1,0,0:0:0:0:
192,0,158569,1,0,0:0:0:0:
320,0,158594,1,0,0:0:0:0:
448,0,158644,1,0,0:0:0:0:
64,0,158669,1,0,0:0:0:0:
192,0,158694,1,0,0:0:0:0:
320,0,158744,1,0,0:0:0:0:
448,0,158769,1,0,0:0:0:0:
64,0,158794,1,0,0:0:0:0:
192,0,158844,1,0,0:0:0:0:
320,0,158869,1,0,0:0:0:0:
448,0,158894,1,0,0:0:0:0:
64,0,158944,1,0,0:0:0:0:
192,0,158969,1,0,0:0:0:0:
320,0,158994,1,0,0:0:0:0:
448,0,159043,1,0,0:0:0:0:
64,0,159069,1,0,0:0:0:0:
192,0,159069,1,0,0:0:0:0:
64,0,159268,1,0,0:0:0:0:
448,0,159268,1,0,0:0:0:0:
192,0,159368,1,0,0:0:0:0:
320,0,159368,1,0,0:0:0:0:
448,0,159368,1,0,0:0:0:0:
64,0,159468,1,0,0:0:0:0:
192,0,159468,1,0,0:0:0:0:
320,0,159468,1,0,0:0:0:0:
192,0,159668,1,0,0:0:0:0:
320,0,159668,1,0,0:0:0:0:
448,0,159668,1,0,0:0:0:0:
64,0,159868,1,0,0:0:0:0:
192,0,159868,1,0,0:0:0:0:
448,0,159868,1,0,0:0:0:0:
320,0,159918,1,0,0:0:0:0:
448,0,159968,1,0,0:0:0:0:
64,0,160018,1,0,0:0:0:0:
192,0,160068,1,0,0:0:0:0:
320,0,160118,1,0,0:0:0:0:
64,0,160168,1,0,0:0:0:0:
448,0,160168,1,0,0:0:0:0:
192,0,160267,1,0,0:0:0:0:
320,0,160267,1,0,0:0:0:0:
448,0,160467,128,0,160667:0:0:0:0:
64,0,160667,1,0,0:0:0:0:
192,0,160667,1,0,0:0:0:0:
320,0,160667,128,0,160867:0:0:0:0:
192,0,160867,128,0,161067:0:0:0:0:
320,0,160967,1,0,0:0:0:0:
448,0,160967,1,0,0:0:0:0:
64,0,161067,128,0,161266:0:0:0:0:
192,0,161266,1,0,0:0:0:0:
320,0,161266,128,0,161466:0:0:0:0:
64,0,161466,1,0,0:0:0:0:
192,0,161466,1,0,0:0:0:0:
320,0,161517,1,0,0:0:0:0:
448,0,161566,1,0,0:0:0:0:
64,0,161617,1,0,0:0:0:0:
192,0,161666,1,0,0:0:0:0:
320,0,161716,1,0,0:0:0:0:
448,0,161766,1,0,0:0:0:0:
64,0,161866,128,0,162265:0:0:0:0:
192,0,161866,1,0,0:0:0:0:
320,0,161866,1,0,0:0:0:0:
320,0,161966,1,0,0:0:0:0:
192,0,162066,1,0,0:0:0:0:
320,0,162165,1,0,0:0:0:0:
192,0,162265,1,0,0:0:0:0:
320,0,162265,1,0,0:0:0:0:
448,0,162265,1,0,0:0:0:0:
64,0,162365,1,0,0:0:0:0:
192,0,162365,1,0,0:0:0:0:
320,0,162465,1,0,0:0:0:0:
448,0,162465,1,0,0:0:0:0:
192,0,162565,1,0,0:0:0:0:
320,0,162565,1,0,0:0:0:0:
64,0,162665,1,0,0:0:0:0:
192,0,162665,1,0,0:0:0:0:
64,0,162765,1,0,0:0:0:0:
448,0,162765,1,0,0:0:0:0:
320,0,162865,1,0,0:0:0:0:
448,0,162865,1,0,0:0:0:0:
64,0,162965,1,0,0:0:0:0:
192,0,162965,1,0,0:0:0:0:
320,0,163065,1,0,0:0:0:0:
448,0,163065,1,0,0:0:0:0:
64,0,163115,1,0,0:0:0:0:
192,0,163164,1,0,0:0:0:0:
320,0,163215,1,0,0:0:0:0:
448,0,163264,1,0,0:0:0:0:
64,0,163464,1,0,0:0:0:0:
320,0,163464,1,0,0:0:0:0:
448,0,163464,1,0,0:0:0:0:
192,0,163589,1,0,0:0:0:0:
320,0,163589,1,0,0:0:0:0:
448,0,163589,1,0,0:0:0:0:
64,0,163740,1,0,0:0:0:0:
192,0,163740,1,0,0:0:0:0:
320,0,163740,1,0,0:0:0:0:
64,0,163864,1,0,0:0:0:0:
192,0,163864,1,0,0:0:0:0:
448,0,163864,1,0,0:0:0:0:
320,0,163914,1,0,0:0:0:0:
448,0,163964,1,0,0:0:0:0:
64,0,164014,1,0,0:0:0:0:
192,0,164064,1,0,0:0:0:0:
320,0,164163,1,0,0:0:0:0:
448,0,164163,1,0,0:0:0:0:
192,0,164214,1,0,0:0:0:0:
64,0,164263,1,0,0:0:0:0:
448,0,164314,1,0,0:0:0:0:
192,0,164363,1,0,0:0:0:0:
64,0,164463,1,0,0:0:0:0:
448,0,164463,1,0,0:0:0:0:
320,0,164514,1,0,0:0:0:0:
192,0,164563,1,0,0:0:0:0:
320,0,164663,1,0,0:0:0:0:
448,0,164663,1,0,0:0:0:0:
64,0,164713,1,0,0:0:0:0:
192,0,164763,1,0,0:0:0:0:
320,0,164813,1,0,0:0:0:0:
448,0,164863,1,0,0:0:0:0:
64,0,164913,1,0,0:0:0:0:
192,0,164963,1,0,0:0:0:0:
320,0,165013,1,0,0:0:0:0:
448,0,165063,1,0,0:0:0:0:
64,0,165113,1,0,0:0:0:0:
192,0,165162,1,0,0:0:0:0:
320,0,165262,1,0,0:0:0:0:
448,0,165362,1,0,0:0:0:0:
64,0,165462,1,0,0:0:0:0:
192,0,165462,1,0,0:0:0:0:
320,0,165462,1,0,0:0:0:0:
64,0,165662,1,0,0:0:0:0:
192,0,165662,1,0,0:0:0:0:
448,0,165662,1,0,0:0:0:0:
64,0,165762,1,0,0:0:0:0:
192,0,165762,1,0,0:0:0:0:
448,0,165762,1,0,0:0:0:0:
64,0,165862,1,0,0:0:0:0:
192,0,165862,1,0,0:0:0:0:
320,0,165912,1,0,0:0:0:0:
448,0,165962,1,0,0:0:0:0:
64,0,166012,1,0,0:0:0:0:
192,0,166062,1,0,0:0:0:0:
320,0,166062,1,0,0:0:0:0:
64,0,166161,1,0,0:0:0:0:
448,0,166161,1,0,0:0:0:0:
320,0,166261,1,0,0:0:0:0:
448,0,166261,1,0,0:0:0:0:
64,0,166337,1,0,0:0:0:0:
192,0,166337,1,0,0:0:0:0:
320,0,166386,1,0,0:0:0:0:
448,0,166386,1,0,0:0:0:0:
64,0,166461,1,0,0:0:0:0:
192,0,166461,1,0,0:0:0:0:
320,0,166537,1,0,0:0:0:0:
448,0,166537,1,0,0:0:0:0:
64,0,166586,1,0,0:0:0:0:
192,0,166586,1,0,0:0:0:0:
320,0,166661,1,0,0:0:0:0:
448,0,166661,1,0,0:0:0:0:
192,0,166861,1,0,0:0:0:0:
320,0,166861,1,0,0:0:0:0:
64,0,166961,1,0,0:0:0:0:
192,0,167060,1,0,0:0:0:0:
320,0,167060,1,0,0:0:0:0:
448,0,167060,1,0,0:0:0:0:
64,0,167260,1,0,0:0:0:0:
192,0,167260,1,0,0:0:0:0:
448,0,167260,1,0,0:0:0:0:
320,0,167360,1,0,0:0:0:0:
448,0,167360,1,0,0:0:0:0:
64,0,167460,1,0,0:0:0:0:
192,0,167460,1,0,0:0:0:0:
320,0,167460,1,0,0:0:0:0:
192,0,167660,1,0,0:0:0:0:
320,0,167660,1,0,0:0:0:0:
448,0,167660,1,0,0:0:0:0:
64,0,167860,1,0,0:0:0:0:
320,0,167860,1,0,0:0:0:0:
448,0,167860,1,0,0:0:0:0:
192,0,167910,1,0,0:0:0:0:
320,0,167960,1,0,0:0:0:0:
448,0,168010,1,0,0:0:0:0:
64,0,168060,1,0,0:0:0:0:
192,0,168110,1,0,0:0:0:0:
320,0,168160,1,0,0:0:0:0:
192,0,168210,1,0,0:0:0:0:
320,0,168260,1,0,0:0:0:0:
448,0,168260,1,0,0:0:0:0:
192,0,168460,1,0,0:0:0:0:
64,0,168660,1,0,0:0:0:0:
192,0,168660,1,0,0:0:0:0:
448,0,168660,1,0,0:0:0:0:
192,0,168860,1,0,0:0:0:0:
320,0,168860,1,0,0:0:0:0:
448,0,168860,1,0,0:0:0:0:
64,0,168960,1,0,0:0:0:0:
448,0,168960,1,0,0:0:0:0:
64,0,169059,1,0,0:0:0:0:
192,0,169059,1,0,0:0:0:0:
320,0,169059,1,0,0:0:0:0:
192,0,169259,1,0,0:0:0:0:
320,0,169259,1,0,0:0:0:0:
448,0,169259,1,0,0:0:0:0:
64,0,169459,128,0,169859:0:0:0:0:
320,0,169459,1,0,0:0:0:0:
448,0,169459,1,0,0:0:0:0:
192,0,169583,1,0,0:0:0:0:
320,0,169734,1,0,0:0:0:0:
192,0,169859,1,0,0:0:0:0:
448,0,169859,1,0,0:0:0:0:
192,0,170058,1,0,0:0:0:0:
320,0,170058,1,0,0:0:0:0:
64,0,170258,1,0,0:0:0:0:
320,0,170258,1,0,0:0:0:0:
448,0,170258,1,0,0:0:0:0:
64,0,170458,1,0,0:0:0:0:
192,0,170458,1,0,0:0:0:0:
320,0,170458,1,0,0:0:0:0:
64,0,170558,1,0,0:0:0:0:
448,0,170558,1,0,0:0:0:0:
192,0,170658,1,0,0:0:0:0:
320,0,170658,1,0,0:0:0:0:
448,0,170658,1,0,0:0:0:0:
64,0,170858,1,0,0:0:0:0:
320,0,170858,1,0,0:0:0:0:
448,0,170858,1,0,0:0:0:0:
64,0,171057,1,0,0:0:0:0:
192,0,171057,1,0,0:0:0:0:
320,0,171057,1,0,0:0:0:0:
448,0,171107,1,0,0:0:0:0:
64,0,171157,1,0,0:0:0:0:
192,0,171207,1,0,0:0:0:0:
320,0,171257,1,0,0:0:0:0:
448,0,171307,1,0,0:0:0:0:
192,0,171357,1,0,0:0:0:0:
320,0,171407,1,0,0:0:0:0:
64,0,171457,1,0,0:0:0:0:
448,0,171457,1,0,0:0:0:0:
192,0,171532,1,0,0:0:0:0:
320,0,171581,1,0,0:0:0:0:
64,0,171657,1,0,0:0:0:0:
448,0,171657,1,0,0:0:0:0:
320,0,171731,1,0,0:0:0:0:
192,0,171781,1,0,0:0:0:0:
64,0,171857,1,0,0:0:0:0:
320,0,171857,1,0,0:0:0:0:
448,0,171857,1,0,0:0:0:0:
448,0,171956,1,0,0:0:0:0:
64,0,172056,1,0,0:0:0:0:
192,0,172056,1,0,0:0:0:0:
320,0,172056,1,0,0:0:0:0:
64,0,172156,1,0,0:0:0:0:
448,0,172156,1,0,0:0:0:0:
192,0,172256,1,0,0:0:0:0:
320,0,172256,1,0,0:0:0:0:
448,0,172256,1,0,0:0:0:0:
192,0,172356,1,0,0:0:0:0:
64,0,172456,1,0,0:0:0:0:
320,0,172456,1,0,0:0:0:0:
448,0,172456,1,0,0:0:0:0:
320,0,172556,1,0,0:0:0:0:
64,0,172656,1,0,0:0:0:0:
192,0,172656,1,0,0:0:0:0:
448,0,172656,1,0,0:0:0:0:
320,0,172705,1,0,0:0:0:0:
64,0,172756,1,0,0:0:0:0:
192,0,172805,1,0,0:0:0:0:
320,0,172856,1,0,0:0:0:0:
448,0,172905,1,0,0:0:0:0:
64,0,172955,1,0,0:0:0:0:
192,0,173005,1,0,0:0:0:0:
320,0,173055,1,0,0:0:0:0:
448,0,173105,1,0,0:0:0:0:
64,0,173155,1,0,0:0:0:0:
192,0,173205,1,0,0:0:0:0:
320,0,173255,1,0,0:0:0:0:
448,0,173305,1,0,0:0:0:0:
192,0,173355,1,0,0:0:0:0:
64,0,173405,1,0,0:0:0:0:
320,0,173455,1,0,0:0:0:0:
448,0,173455,1,0,0:0:0:0:
192,0,173504,1,0,0:0:0:0:
64,0,173555,1,0,0:0:0:0:
448,0,173604,1,0,0:0:0:0:
192,0,173655,1,0,0:0:0:0:
320,0,173704,1,0,0:0:0:0:
64,0,173755,1,0,0:0:0:0:
192,0,173804,1,0,0:0:0:0:
320,0,173855,1,0,0:0:0:0:
448,0,173904,1,0,0:0:0:0:
64,0,173954,1,0,0:0:0:0:
192,0,174004,1,0,0:0:0:0:
320,0,174054,1,0,0:0:0:0:
64,0,174104,1,0,0:0:0:0:
448,0,174154,1,0,0:0:0:0:
320,0,174204,1,0,0:0:0:0:
64,0,174254,1,0,0:0:0:0:
192,0,174254,1,0,0:0:0:0:
448,0,174304,1,0,0:0:0:0:
320,0,174354,1,0,0:0:0:0:
64,0,174403,1,0,0:0:0:0:
192,0,174454,1,0,0:0:0:0:
448,0,174503,1,0,0:0:0:0:
64,0,174554,1,0,0:0:0:0:
320,0,174603,1,0,0:0:0:0:
192,0,174654,1,0,0:0:0:0:
448,0,174703,1,0,0:0:0:0:
320,0,174754,1,0,0:0:0:0:
192,0,174803,1,0,0:0:0:0:
64,0,174854,1,0,0:0:0:0:
448,0,174903,1,0,0:0:0:0:
320,0,174953,1,0,0:0:0:0:
192,0,175003,1,0,0:0:0:0:
64,0,175053,1,0,0:0:0:0:
448,0,175053,1,0,0:0:0:0:
320,0,175103,1,0,0:0:0:0:
192,0,175153,1,0,0:0:0:0:
448,0,175203,1,0,0:0:0:0:
64,0,175253,1,0,0:0:0:0:
192,0,175303,1,0,0:0:0:0:
320,0,175353,1,0,0:0:0:0:
448,0,175402,1,0,0:0:0:0:
64,0,175453,1,0,0:0:0:0:
192,0,175502,1,0,0:0:0:0:
320,0,175553,1,0,0:0:0:0:
448,0,175602,1,0,0:0:0:0:
64,0,175653,1,0,0:0:0:0:
192,0,175702,1,0,0:0:0:0:
320,0,175753,1,0,0:0:0:0:
64,0,175802,1,0,0:0:0:0:
192,0,175853,1,0,0:0:0:0:
448,0,175853,1,0,0:0:0:0:
320,0,175902,1,0,0:0:0:0:
64,0,175952,1,0,0:0:0:0:
448,0,176002,1,0,0:0:0:0:
320,0,176052,1,0,0:0:0:0:
192,0,176102,1,0,0:0:0:0:
64,0,176152,1,0,0:0:0:0:
448,0,176202,1,0,0:0:0:0:
192,0,176252,1,0,0:0:0:0:
320,0,176252,1,0,0:0:0:0:
64,0,176302,1,0,0:0:0:0:
448,0,176352,1,0,0:0:0:0:
192,0,176401,1,0,0:0:0:0:
320,0,176452,1,0,0:0:0:0:
64,0,176501,1,0,0:0:0:0:
192,0,176552,1,0,0:0:0:0:
320,0,176601,1,0,0:0:0:0:
64,0,176652,1,0,0:0:0:0:
448,0,176652,1,0,0:0:0:0:
192,0,176701,1,0,0:0:0:0:
320,0,176752,1,0,0:0:0:0:
448,0,176801,1,0,0:0:0:0:
192,0,176851,1,0,0:0:0:0:
64,0,176901,1,0,0:0:0:0:
320,0,176951,1,0,0:0:0:0:
192,0,177001,1,0,0:0:0:0:
64,0,177051,1,0,0:0:0:0:
448,0,177051,1,0,0:0:0:0:
320,0,177101,1,0,0:0:0:0:
192,0,177151,1,0,0:0:0:0:
448,0,177201,1,0,0:0:0:0:
64,0,177251,1,0,0:0:0:0:
192,0,177301,1,0,0:0:0:0:
320,0,177351,1,0,0:0:0:0:
448,0,177400,1,0,0:0:0:0:
64,0,177451,1,0,0:0:0:0:
192,0,177451,1,0,0:0:0:0:
320,0,177500,1,0,0:0:0:0:
448,0,177551,1,0,0:0:0:0:
64,0,177600,1,0,0:0:0:0:
192,0,177651,1,0,0:0:0:0:
320,0,177651,1,0,0:0:0:0:
448,0,177700,1,0,0:0:0:0:
64,0,177751,1,0,0:0:0:0:
192,0,177800,1,0,0:0:0:0:
320,0,177850,1,0,0:0:0:0:
448,0,177850,1,0,0:0:0:0:
64,0,177900,1,0,0:0:0:0:
192,0,177950,1,0,0:0:0:0:
320,0,178000,1,0,0:0:0:0:
64,0,178050,1,0,0:0:0:0:
448,0,178050,1,0,0:0:0:0:
192,0,178100,1,0,0:0:0:0:
320,0,178150,1,0,0:0:0:0:
448,0,178200,1,0,0:0:0:0:
64,0,178250,1,0,0:0:0:0:
192,0,178250,1,0,0:0:0:0:
320,0,178300,1,0,0:0:0:0:
448,0,178350,1,0,0:0:0:0:
64,0,178400,1,0,0:0:0:0:
192,0,178450,1,0,0:0:0:0:
320,0,178450,1,0,0:0:0:0:
448,0,178500,1,0,0:0:0:0:
64,0,178550,1,0,0:0:0:0:
192,0,178600,1,0,0:0:0:0:
320,0,178650,1,0,0:0:0:0:
448,0,178650,1,0,0:0:0:0:
64,0,178700,1,0,0:0:0:0:
192,0,178700,1,0,0:0:0:0:
320,0,178750,1,0,0:0:0:0:
448,0,178750,1,0,0:0:0:0:
64,0,178849,1,0,0:0:0:0:
192,0,178849,1,0,0:0:0:0:
320,0,178900,1,0,0:0:0:0:
448,0,178900,1,0,0:0:0:0:
64,0,178949,1,0,0:0:0:0:
192,0,178949,1,0,0:0:0:0:
64,0,179049,1,0,0:0:0:0:
320,0,179049,1,0,0:0:0:0:
448,0,179049,1,0,0:0:0:0:
192,0,179100,1,0,0:0:0:0:
320,0,179149,1,0,0:0:0:0:
192,0,179200,1,0,0:0:0:0:
448,0,179249,1,0,0:0:0:0:
64,0,179299,1,0,0:0:0:0:
320,0,179349,1,0,0:0:0:0:
64,0,179449,1,0,0:0:0:0:
448,0,179449,1,0,0:0:0:0:
192,0,179499,1,0,0:0:0:0:
320,0,179549,1,0,0:0:0:0:
448,0,179599,1,0,0:0:0:0:
64,0,179649,1,0,0:0:0:0:
192,0,179699,1,0,0:0:0:0:
320,0,179749,1,0,0:0:0:0:
64,0,179848,1,0,0:0:0:0:
448,0,179848,1,0,0:0:0:0:
192,0,179899,1,0,0:0:0:0:
320,0,179948,1,0,0:0:0:0:
192,0,179999,1,0,0:0:0:0:
64,0,180048,1,0,0:0:0:0:
448,0,180099,1,0,0:0:0:0:
320,0,180148,1,0,0:0:0:0:
64,0,180248,1,0,0:0:0:0:
192,0,180248,1,0,0:0:0:0:
448,0,180298,1,0,0:0:0:0:
320,0,180348,1,0,0:0:0:0:
192,0,180398,1,0,0:0:0:0:
64,0,180448,1,0,0:0:0:0:
448,0,180498,1,0,0:0:0:0:
192,0,180548,1,0,0:0:0:0:
64,0,180648,1,0,0:0:0:0:
320,0,180648,1,0,0:0:0:0:
448,0,180648,1,0,0:0:0:0:
192,0,180748,1,0,0:0:0:0:
320,0,180748,1,0,0:0:0:0:
64,0,180847,1,0,0:0:0:0:
192,0,180847,1,0,0:0:0:0:
320,0,180947,1,0,0:0:0:0:
448,0,180947,1,0,0:0:0:0:
64,0,181047,1,0,0:0:0:0:
192,0,181047,1,0,0:0:0:0:
320,0,181047,1,0,0:0:0:0:
64,0,181147,1,0,0:0:0:0:
448,0,181147,1,0,0:0:0:0:
192,0,181247,1,0,0:0:0:0:
320,0,181247,1,0,0:0:0:0:
64,0,181347,1,0,0:0:0:0:
320,0,181347,1,0,0:0:0:0:
448,0,181347,1,0,0:0:0:0:
64,0,181447,1,0,0:0:0:0:
192,0,181447,1,0,0:0:0:0:
320,0,181447,1,0,0:0:0:0:
64,0,181647,1,0,0:0:0:0:
192,0,181647,1,0,0:0:0:0:
64,0,181846,1,0,0:0:0:0:
192,0,181846,1,0,0:0:0:0:
320,0,181846,1,0,0:0:0:0:
448,0,181846,1,0,0:0:0:0:
448,0,182046,1,0,0:0:0:0:
64,0,182097,1,0,0:0:0:0:
320,0,182246,1,0,0:0:0:0:
448,0,182246,1,0,0:0:0:0:
64,0,182296,1,0,0:0:0:0:
192,0,182346,1,0,0:0:0:0:
320,0,182396,1,0,0:0:0:0:
448,0,182446,1,0,0:0:0:0:
192,0,182496,1,0,0:0:0:0:
320,0,182546,1,0,0:0:0:0:
64,0,182646,1,0,0:0:0:0:
192,0,182646,1,0,0:0:0:0:
448,0,182696,1,0,0:0:0:0:
320,0,182745,1,0,0:0:0:0:
192,0,182796,1,0,0:0:0:0:
64,0,182845,1,0,0:0:0:0:
448,0,182896,1,0,0:0:0:0:
192,0,182945,1,0,0:0:0:0:
320,0,183045,1,0,0:0:0:0:
448,0,183045,1,0,0:0:0:0:
64,0,183096,1,0,0:0:0:0:
192,0,183145,1,0,0:0:0:0:
448,0,183196,1,0,0:0:0:0:
320,0,183245,1,0,0:0:0:0:
64,0,183295,1,0,0:0:0:0:
192,0,183345,1,0,0:0:0:0:
64,0,183445,1,0,0:0:0:0:
448,0,183445,1,0,0:0:0:0:
320,0,183495,1,0,0:0:0:0:
192,0,183545,1,0,0:0:0:0:
64,0,183595,1,0,0:0:0:0:
448,0,183645,1,0,0:0:0:0:
320,0,183695,1,0,0:0:0:0:
192,0,183744,1,0,0:0:0:0:
320,0,183844,1,0,0:0:0:0:
448,0,183844,1,0,0:0:0:0:
64,0,183944,1,0,0:0:0:0:
192,0,183944,1,0,0:0:0:0:
192,0,184044,1,0,0:0:0:0:
320,0,184044,1,0,0:0:0:0:
64,0,184144,1,0,0:0:0:0:
448,0,184144,1,0,0:0:0:0:
192,0,184244,1,0,0:0:0:0:
320,0,184244,1,0,0:0:0:0:
448,0,184244,1,0,0:0:0:0:
192,0,184344,1,0,0:0:0:0:
320,0,184344,1,0,0:0:0:0:
64,0,184444,1,0,0:0:0:0:
448,0,184444,1,0,0:0:0:0:
64,0,184544,1,0,0:0:0:0:
192,0,184544,1,0,0:0:0:0:
320,0,184644,1,0,0:0:0:0:
448,0,184644,1,0,0:0:0:0:
320,0,184743,1,0,0:0:0:0:
448,0,184743,1,0,0:0:0:0:
320,0,184943,1,0,0:0:0:0:
448,0,184943,1,0,0:0:0:0:
320,0,185043,1,0,0:0:0:0:
448,0,185043,1,0,0:0:0:0:
64,0,185094,1,0,0:0:0:0:
192,0,185094,1,0,0:0:0:0:
320,0,185143,1,0,0:0:0:0:
448,0,185143,1,0,0:0:0:0:
64,0,185243,1,0,0:0:0:0:
192,0,185243,1,0,0:0:0:0:
320,0,185293,1,0,0:0:0:0:
448,0,185293,1,0,0:0:0:0:
64,0,185343,1,0,0:0:0:0:
192,0,185343,1,0,0:0:0:0:
320,0,185443,1,0,0:0:0:0:
448,0,185443,1,0,0:0:0:0:
64,0,185493,1,0,0:0:0:0:
192,0,185543,1,0,0:0:0:0:
320,0,185593,1,0,0:0:0:0:
448,0,185643,1,0,0:0:0:0:
64,0,185693,1,0,0:0:0:0:
320,0,185742,1,0,0:0:0:0:
64,0,185842,1,0,0:0:0:0:
448,0,185842,1,0,0:0:0:0:
192,0,185893,1,0,0:0:0:0:
320,0,185942,1,0,0:0:0:0:
192,0,185993,1,0,0:0:0:0:
448,0,186042,1,0,0:0:0:0:
320,0,186093,1,0,0:0:0:0:
192,0,186142,1,0,0:0:0:0:
64,0,186242,1,0,0:0:0:0:
448,0,186242,1,0,0:0:0:0:
320,0,186292,1,0,0:0:0:0:
192,0,186342,1,0,0:0:0:0:
64,0,186392,1,0,0:0:0:0:
448,0,186442,1,0,0:0:0:0:
192,0,186492,1,0,0:0:0:0:
320,0,186542,1,0,0:0:0:0:
64,0,186641,1,0,0:0:0:0:
192,0,186641,1,0,0:0:0:0:
448,0,186692,1,0,0:0:0:0:
320,0,186741,1,0,0:0:0:0:
64,0,186792,1,0,0:0:0:0:
192,0,186841,1,0,0:0:0:0:
320,0,186892,1,0,0:0:0:0:
448,0,186941,1,0,0:0:0:0:
64,0,187041,1,0,0:0:0:0:
192,0,187041,1,0,0:0:0:0:
192,0,187141,1,0,0:0:0:0:
320,0,187141,1,0,0:0:0:0:
64,0,187241,1,0,0:0:0:0:
448,0,187241,1,0,0:0:0:0:
192,0,187341,1,0,0:0:0:0:
320,0,187341,1,0,0:0:0:0:
64,0,187441,1,0,0:0:0:0:
320,0,187441,1,0,0:0:0:0:
448,0,187441,1,0,0:0:0:0:
64,0,187541,1,0,0:0:0:0:
448,0,187541,1,0,0:0:0:0:
192,0,187640,1,0,0:0:0:0:
320,0,187640,1,0,0:0:0:0:
320,0,187740,1,0,0:0:0:0:
448,0,187740,1,0,0:0:0:0:
64,0,187840,1,0,0:0:0:0:
192,0,187840,1,0,0:0:0:0:
448,0,187840,1,0,0:0:0:0:
64,0,188040,1,0,0:0:0:0:
448,0,188040,1,0,0:0:0:0:
320,0,188091,1,0,0:0:0:0:
192,0,188140,1,0,0:0:0:0:
64,0,188190,1,0,0:0:0:0:
320,0,188240,1,0,0:0:0:0:
448,0,188240,1,0,0:0:0:0:
192,0,188290,1,0,0:0:0:0:
64,0,188340,1,0,0:0:0:0:
448,0,188390,1,0,0:0:0:0:
192,0,188440,1,0,0:0:0:0:
320,0,188440,1,0,0:0:0:0:
64,0,188490,1,0,0:0:0:0:
448,0,188540,1,0,0:0:0:0:
320,0,188590,1,0,0:0:0:0:
64,0,188640,1,0,0:0:0:0:
192,0,188640,1,0,0:0:0:0:
192,0,188740,1,0,0:0:0:0:
320,0,188740,1,0,0:0:0:0:
320,0,188840,1,0,0:0:0:0:
448,0,188840,1,0,0:0:0:0:
64,0,188940,1,0,0:0:0:0:
192,0,188940,1,0,0:0:0:0:
192,0,189040,1,0,0:0:0:0:
320,0,189040,1,0,0:0:0:0:
448,0,189040,1,0,0:0:0:0:
448,0,189140,1,0,0:0:0:0:
64,0,189240,1,0,0:0:0:0:
192,0,189240,1,0,0:0:0:0:
64,0,189440,1,0,0:0:0:0:
320,0,189440,1,0,0:0:0:0:
448,0,189440,1,0,0:0:0:0:
192,0,189540,1,0,0:0:0:0:
320,0,189540,1,0,0:0:0:0:
64,0,189739,1,0,0:0:0:0:
192,0,189739,1,0,0:0:0:0:
64,0,189839,1,0,0:0:0:0:
192,0,189839,1,0,0:0:0:0:
320,0,189889,1,0,0:0:0:0:
448,0,189939,1,0,0:0:0:0:
64,0,189989,1,0,0:0:0:0:
192,0,190039,1,0,0:0:0:0:
320,0,190088,1,0,0:0:0:0:
448,0,190139,1,0,0:0:0:0:
64,0,190239,1,0,0:0:0:0:
192,0,190239,1,0,0:0:0:0:
320,0,190239,1,0,0:0:0:0:
192,0,190339,1,0,0:0:0:0:
448,0,190339,1,0,0:0:0:0:
64,0,190439,1,0,0:0:0:0:
320,0,190439,1,0,0:0:0:0:
192,0,190539,1,0,0:0:0:0:
448,0,190539,1,0,0:0:0:0:
64,0,190638,1,0,0:0:0:0:
448,0,190638,1,0,0:0:0:0:
192,0,190738,1,0,0:0:0:0:
320,0,190738,1,0,0:0:0:0:
64,0,190838,1,0,0:0:0:0:
448,0,190838,1,0,0:0:0:0:
64,0,190938,1,0,0:0:0:0:
192,0,190938,1,0,0:0:0:0:
320,0,191038,1,0,0:0:0:0:
448,0,191038,1,0,0:0:0:0:
320,0,191138,1,0,0:0:0:0:
448,0,191138,1,0,0:0:0:0:
320,0,191338,1,0,0:0:0:0:
448,0,191338,1,0,0:0:0:0:
320,0,191438,1,0,0:0:0:0:
448,0,191438,1,0,0:0:0:0:
64,0,191487,1,0,0:0:0:0:
192,0,191487,1,0,0:0:0:0:
320,0,191537,1,0,0:0:0:0:
448,0,191537,1,0,0:0:0:0:
64,0,191637,1,0,0:0:0:0:
192,0,191637,1,0,0:0:0:0:
320,0,191687,1,0,0:0:0:0:
448,0,191687,1,0,0:0:0:0:
64,0,191737,1,0,0:0:0:0:
192,0,191737,1,0,0:0:0:0:
192,0,191837,1,0,0:0:0:0:
320,0,191837,1,0,0:0:0:0:
448,0,191837,1,0,0:0:0:0:
64,0,191937,1,0,0:0:0:0:
448,0,191937,1,0,0:0:0:0:
192,0,192037,1,0,0:0:0:0:
320,0,192037,1,0,0:0:0:0:
64,0,192137,1,0,0:0:0:0:
192,0,192137,1,0,0:0:0:0:
320,0,192237,1,0,0:0:0:0:
448,0,192237,1,0,0:0:0:0:
64,0,192337,1,0,0:0:0:0:
192,0,192337,1,0,0:0:0:0:
64,0,192437,1,0,0:0:0:0:
320,0,192437,1,0,0:0:0:0:
448,0,192437,1,0,0:0:0:0:
192,0,192536,1,0,0:0:0:0:
64,0,192636,1,0,0:0:0:0:
320,0,192636,1,0,0:0:0:0:
448,0,192636,1,0,0:0:0:0:
192,0,192936,1,0,0:0:0:0:
320,0,192936,1,0,0:0:0:0:
448,0,192936,1,0,0:0:0:0:
64,0,193036,1,0,0:0:0:0:
192,0,193036,1,0,0:0:0:0:
320,0,193036,1,0,0:0:0:0:
448,0,193036,1,0,0:0:0:0:
64,0,193236,1,0,0:0:0:0:
192,0,193285,1,0,0:0:0:0:
320,0,193336,1,0,0:0:0:0:
448,0,193385,1,0,0:0:0:0:
64,0,193436,1,0,0:0:0:0:
192,0,193436,1,0,0:0:0:0:
320,0,193436,1,0,0:0:0:0:
192,0,193535,1,0,0:0:0:0:
448,0,193635,1,0,0:0:0:0:
320,0,193735,1,0,0:0:0:0:
64,0,193835,1,0,0:0:0:0:
448,0,193835,1,0,0:0:0:0:
192,0,193935,1,0,0:0:0:0:
320,0,194035,1,0,0:0:0:0:
448,0,194035,1,0,0:0:0:0:
64,0,194135,1,0,0:0:0:0:
192,0,194135,1,0,0:0:0:0:
64,0,194235,1,0,0:0:0:0:
192,0,194235,1,0,0:0:0:0:
320,0,194235,1,0,0:0:0:0:
448,0,194235,1,0,0:0:0:0:
320,0,194335,1,0,0:0:0:0:
64,0,194435,1,0,0:0:0:0:
192,0,194435,1,0,0:0:0:0:
320,0,194534,1,0,0:0:0:0:
448,0,194534,1,0,0:0:0:0:
64,0,194634,1,0,0:0:0:0:
192,0,194634,1,0,0:0:0:0:
320,0,194684,1,0,0:0:0:0:
448,0,194684,1,0,0:0:0:0:
64,0,194734,1,0,0:0:0:0:
192,0,194734,1,0,0:0:0:0:
320,0,194834,1,0,0:0:0:0:
448,0,194834,1,0,0:0:0:0:
64,0,194884,1,0,0:0:0:0:
192,0,194884,1,0,0:0:0:0:
320,0,194934,1,0,0:0:0:0:
448,0,194934,1,0,0:0:0:0:
64,0,195034,1,0,0:0:0:0:
192,0,195034,1,0,0:0:0:0:
192,0,195134,1,0,0:0:0:0:
320,0,195234,1,0,0:0:0:0:
320,0,195334,1,0,0:0:0:0:
64,0,195434,1,0,0:0:0:0:
448,0,195434,1,0,0:0:0:0:
64,0,195533,1,0,0:0:0:0:
320,0,195633,1,0,0:0:0:0:
448,0,195633,1,0,0:0:0:0:
64,0,195833,1,0,0:0:0:0:
192,0,195833,1,0,0:0:0:0:
320,0,195833,1,0,0:0:0:0:
448,0,195833,1,0,0:0:0:0:
192,0,196133,1,0,0:0:0:0:
320,0,196133,1,0,0:0:0:0:
64,0,196233,1,0,0:0:0:0:
192,0,196233,1,0,0:0:0:0:
320,0,196233,1,0,0:0:0:0:
448,0,196233,1,0,0:0:0:0:
64,0,196433,1,0,0:0:0:0:
192,0,196433,1,0,0:0:0:0:
64,0,196632,1,0,0:0:0:0:
192,0,196632,1,0,0:0:0:0:
320,0,196632,1,0,0:0:0:0:
448,0,196632,1,0,0:0:0:0:
320,0,196732,1,0,0:0:0:0:
192,0,196832,1,0,0:0:0:0:
320,0,196932,1,0,0:0:0:0:
192,0,197032,1,0,0:0:0:0:
448,0,197032,1,0,0:0:0:0:
64,0,197132,1,0,0:0:0:0:
192,0,197181,1,0,0:0:0:0:
320,0,197232,1,0,0:0:0:0:
448,0,197281,1,0,0:0:0:0:
64,0,197332,1,0,0:0:0:0:
192,0,197381,1,0,0:0:0:0:
320,0,197431,1,0,0:0:0:0:
448,0,197431,1,0,0:0:0:0:
320,0,197531,1,0,0:0:0:0:
448,0,197531,1,0,0:0:0:0:
320,0,197731,1,0,0:0:0:0:
448,0,197731,1,0,0:0:0:0:
320,0,197831,1,0,0:0:0:0:
448,0,197831,1,0,0:0:0:0:
64,0,197881,1,0,0:0:0:0:
192,0,197881,1,0,0:0:0:0:
320,0,197931,1,0,0:0:0:0:
448,0,197931,1,0,0:0:0:0:
64,0,198031,1,0,0:0:0:0:
192,0,198031,1,0,0:0:0:0:
320,0,198080,1,0,0:0:0:0:
448,0,198080,1,0,0:0:0:0:
64,0,198131,1,0,0:0:0:0:
192,0,198131,1,0,0:0:0:0:
320,0,198231,1,0,0:0:0:0:
448,0,198231,1,0,0:0:0:0:
64,0,198280,1,0,0:0:0:0:
192,0,198331,1,0,0:0:0:0:
320,0,198380,1,0,0:0:0:0:
448,0,198430,1,0,0:0:0:0:
192,0,198480,1,0,0:0:0:0:
320,0,198530,1,0,0:0:0:0:
64,0,198580,1,0,0:0:0:0:
448,0,198630,1,0,0:0:0:0:
320,0,198680,1,0,0:0:0:0:
192,0,198730,1,0,0:0:0:0:
64,0,198780,1,0,0:0:0:0:
448,0,198830,1,0,0:0:0:0:
320,0,198880,1,0,0:0:0:0:
192,0,198930,1,0,0:0:0:0:
64,0,198980,1,0,0:0:0:0:
320,0,199030,1,0,0:0:0:0:
448,0,199030,1,0,0:0:0:0:
192,0,199080,1,0,0:0:0:0:
64,0,199130,1,0,0:0:0:0:
448,0,199180,1,0,0:0:0:0:
192,0,199230,1,0,0:0:0:0:
64,0,199280,1,0,0:0:0:0:
320,0,199330,1,0,0:0:0:0:
448,0,199380,1,0,0:0:0:0:
64,0,199429,1,0,0:0:0:0:
192,0,199429,1,0,0:0:0:0:
320,0,199480,1,0,0:0:0:0:
448,0,199480,1,0,0:0:0:0:
64,0,199529,1,0,0:0:0:0:
192,0,199529,1,0,0:0:0:0:
320,0,199629,1,0,0:0:0:0:
448,0,199629,1,0,0:0:0:0:
64,0,199680,1,0,0:0:0:0:
192,0,199680,1,0,0:0:0:0:
320,0,199729,1,0,0:0:0:0:
448,0,199729,1,0,0:0:0:0:
64,0,199829,1,0,0:0:0:0:
192,0,199829,1,0,0:0:0:0:
320,0,199879,1,0,0:0:0:0:
448,0,199929,1,0,0:0:0:0:
64,0,199979,1,0,0:0:0:0:
192,0,200029,1,0,0:0:0:0:
320,0,200079,1,0,0:0:0:0:
448,0,200129,1,0,0:0:0:0:
192,0,200179,1,0,0:0:0:0:
64,0,200229,1,0,0:0:0:0:
448,0,200279,1,0,0:0:0:0:
320,0,200329,1,0,0:0:0:0:
192,0,200379,1,0,0:0:0:0:
64,0,200428,1,0,0:0:0:0:
448,0,200479,1,0,0:0:0:0:
320,0,200528,1,0,0:0:0:0:
192,0,200579,1,0,0:0:0:0:
64,0,200628,1,0,0:0:0:0:
448,0,200628,1,0,0:0:0:0:
320,0,200679,1,0,0:0:0:0:
192,0,200728,1,0,0:0:0:0:
448,0,200779,1,0,0:0:0:0:
64,0,200828,1,0,0:0:0:0:
192,0,200878,1,0,0:0:0:0:
320,0,200928,1,0,0:0:0:0:
448,0,200978,1,0,0:0:0:0:
64,0,201028,1,0,0:0:0:0:
192,0,201028,1,0,0:0:0:0:
320,0,201078,1,0,0:0:0:0:
448,0,201078,1,0,0:0:0:0:
64,0,201128,1,0,0:0:0:0:
192,0,201128,1,0,0:0:0:0:
320,0,201228,1,0,0:0:0:0:
448,0,201228,1,0,0:0:0:0:
64,0,201278,1,0,0:0:0:0:
192,0,201278,1,0,0:0:0:0:
320,0,201328,1,0,0:0:0:0:
448,0,201328,1,0,0:0:0:0:
64,0,201427,1,0,0:0:0:0:
192,0,201427,1,0,0:0:0:0:
192,0,201553,1,0,0:0:0:0:
320,0,201553,1,0,0:0:0:0:
448,0,201553,1,0,0:0:0:0:
64,0,201702,1,0,0:0:0:0:
320,0,201702,1,0,0:0:0:0:
448,0,201702,1,0,0:0:0:0:
320,0,201827,1,0,0:0:0:0:
448,0,201827,1,0,0:0:0:0:
64,0,201877,1,0,0:0:0:0:
192,0,201877,1,0,0:0:0:0:
320,0,201927,1,0,0:0:0:0:
448,0,201927,1,0,0:0:0:0:
64,0,202027,1,0,0:0:0:0:
192,0,202027,1,0,0:0:0:0:
320,0,202077,1,0,0:0:0:0:
448,0,202077,1,0,0:0:0:0:
64,0,202127,1,0,0:0:0:0:
192,0,202127,1,0,0:0:0:0:
320,0,202227,1,0,0:0:0:0:
448,0,202227,1,0,0:0:0:0:
64,0,202352,1,0,0:0:0:0:
192,0,202352,1,0,0:0:0:0:
320,0,202352,1,0,0:0:0:0:
64,0,202501,1,0,0:0:0:0:
192,0,202501,1,0,0:0:0:0:
448,0,202501,1,0,0:0:0:0:
320,0,202626,1,0,0:0:0:0:
448,0,202626,1,0,0:0:0:0:
64,0,202677,1,0,0:0:0:0:
192,0,202677,1,0,0:0:0:0:
320,0,202726,1,0,0:0:0:0:
448,0,202726,1,0,0:0:0:0:
64,0,202826,1,0,0:0:0:0:
192,0,202826,1,0,0:0:0:0:
320,0,202876,1,0,0:0:0:0:
448,0,202876,1,0,0:0:0:0:
64,0,202926,1,0,0:0:0:0:
192,0,202926,1,0,0:0:0:0:
320,0,203026,1,0,0:0:0:0:
448,0,203026,1,0,0:0:0:0:
64,0,203076,1,0,0:0:0:0:
192,0,203126,1,0,0:0:0:0:
320,0,203176,1,0,0:0:0:0:
448,0,203226,1,0,0:0:0:0:
64,0,203276,1,0,0:0:0:0:
320,0,203325,1,0,0:0:0:0:
192,0,203376,1,0,0:0:0:0:
64,0,203425,1,0,0:0:0:0:
448,0,203425,1,0,0:0:0:0:
320,0,203476,1,0,0:0:0:0:
192,0,203525,1,0,0:0:0:0:
64,0,203576,1,0,0:0:0:0:
448,0,203625,1,0,0:0:0:0:
320,0,203676,1,0,0:0:0:0:
64,0,203725,1,0,0:0:0:0:
192,0,203776,1,0,0:0:0:0:
320,0,203825,1,0,0:0:0:0:
448,0,203825,1,0,0:0:0:0:
64,0,203875,1,0,0:0:0:0:
192,0,203925,1,0,0:0:0:0:
448,0,203975,1,0,0:0:0:0:
64,0,204025,1,0,0:0:0:0:
192,0,204075,1,0,0:0:0:0:
320,0,204125,1,0,0:0:0:0:
448,0,204175,1,0,0:0:0:0:
64,0,204225,1,0,0:0:0:0:
192,0,204225,1,0,0:0:0:0:
320,0,204275,1,0,0:0:0:0:
448,0,204275,1,0,0:0:0:0:
64,0,204324,1,0,0:0:0:0:
192,0,204324,1,0,0:0:0:0:
320,0,204424,1,0,0:0:0:0:
448,0,204424,1,0,0:0:0:0:
64,0,204475,1,0,0:0:0:0:
192,0,204475,1,0,0:0:0:0:
320,0,204524,1,0,0:0:0:0:
448,0,204524,1,0,0:0:0:0:
64,0,204625,128,0,206822:0:0:0:0:
192,0,204625,128,0,206822:0:0:0:0:
320,0,204625,128,0,206822:0:0:0:0:
448,0,204625,128,0,206822:0:0:0:0:
