osu file format v14

[General]
AudioFilename: audio.mp3
AudioLeadIn: 0
PreviewTime: 13756
Countdown: 0
SampleSet: Drum
StackLeniency: 0.7
Mode: 0
LetterboxInBreaks: 0
WidescreenStoryboard: 1

[Editor]
Bookmarks: 1585,15160,24210,42310,51361,67198
DistanceSpacing: 0.9
BeatDivisor: 4
GridSize: 8
TimelineZoom: 1.9

[Metadata]
Title:I Want You (TV Size)
TitleUnicode:I Want You (TV Size)
Artist:Savage Garden
ArtistUnicode:Savage Garden
Creator:ztrot
Version:Normal
Source:ジョジョの奇妙な冒険 ダイヤモンドは砕けない
Tags:JoJo's Bizarre Adventure: Diamond Is Unbreakable Voli Synitri short version English Anime jjba Pop Synth Synth-pop
BeatmapID:1171440
BeatmapSetID:527051

[Difficulty]
HPDrainRate:3
CircleSize:3.5
OverallDifficulty:4
ApproachRate:5
SliderMultiplier:1.8
SliderTickRate:2

[Events]
//Background and Video events
Video,-207,"BG.mp4"
0,0,"jojo_s_bizarre_adventure_j4_wallpaper_by_jombs24-d9yv2e51.jpg",0,0
//Break Periods
//Storyboard Layer 0 (Background)
//Storyboard Layer 1 (Fail)
//Storyboard Layer 2 (Pass)
//Storyboard Layer 3 (Foreground)
//Storyboard Layer 4 (Overlay)
//Storyboard Sound Samples

[TimingPoints]
170,566.037735849057,4,3,1,30,1,0
13756,565.637735849057,4,3,1,70,1,0
49956,564.971751412429,4,3,1,70,1,1
65775,-100,4,3,1,70,0,0

[Colours]
Combo1 : 55,255,155
Combo2 : 91,91,255
Combo3 : 255,128,255
Combo4 : 228,196,82

[HitObjects]
392,336,170,5,4,0:0:0:0:
352,264,453,1,0,0:0:0:0:
312,336,736,1,8,0:0:0:0:
120,336,1302,5,4,0:0:0:0:
160,264,1585,1,0,0:0:0:0:
200,336,1868,1,8,0:0:0:0:
56,184,2434,5,4,0:0:0:0:
128,152,2717,1,0,0:0:0:0:
184,96,3000,1,8,0:0:0:0:
328,96,3566,5,4,0:0:0:0:
384,152,3849,1,0,0:0:0:0:
456,184,4132,1,8,0:0:0:0:
320,272,4698,5,4,0:0:0:0:
256,328,4981,1,0,0:0:0:0:
192,272,5264,1,8,0:0:0:0:
256,216,5547,2,0,L|256:112,1,90,0|4,0:0|0:0,0:0:0:0:
176,104,6113,2,0,L|176:208,1,90,0|8,0:0|0:0,0:0:0:0:
336,104,6962,5,4,0:0:0:0:
408,144,7245,1,0,0:0:0:0:
352,208,7528,1,8,0:0:0:0:
364,288,7811,2,0,L|268:288,1,90,0|4,0:0|0:0,0:0:0:0:
216,344,8377,2,0,L|126:344,1,90,0|8,0:0|0:0,0:0:0:0:
96,184,9226,5,4,0:0:0:0:
120,104,9509,1,0,0:0:0:0:
200,104,9792,1,8,0:0:0:0:
256,160,10075,2,0,L|256:264,1,90,0|4,0:0|0:0,0:0:0:0:
336,208,10641,2,0,L|336:112,1,90,0|8,0:0|0:0,0:0:0:0:
256,192,11773,12,8,13188,0:0:0:0:
64,240,13756,6,0,P|96:296|169:309,2,135,4|0|0,0:1|0:0|0:0,0:0:0:0:
144,232,14887,1,4,0:0:0:0:
224,232,15170,1,0,0:0:0:0:
288,176,15452,1,4,0:0:0:0:
370,168,15735,1,0,0:0:0:0:
448,176,16018,6,0,P|416:232|336:240,2,135,4|0|0,0:0|0:0|0:0,0:0:0:0:
370,168,17149,2,0,P|320:168|288:192,1,90,4|0,0:0|0:0,0:0:0:0:
272,272,17715,2,0,P|239:301|195:301,1,90,4|0,0:0|0:0,0:0:0:0:
192,216,18281,6,0,P|120:224|64:176,2,135,4|0|0,0:0|0:0|0:0,0:0:0:0:
152,144,19412,1,4,0:0:0:0:
232,144,19695,1,0,0:0:0:0:
280,208,19978,1,4,0:0:0:0:
360,200,20260,1,0,0:0:0:0:
430,159,20543,6,0,P|374:119|310:135,2,135,4|0|0,0:0|0:0|0:0,0:0:0:0:
360,200,21674,2,0,P|390:233|438:242,1,90,4|0,0:0|0:0,0:0:0:0:
419,322,22240,2,0,L|299:322,1,90,4|0,0:0|0:0,0:0:0:0:
248,296,22806,5,4,0:1:0:0:
256,136,23371,2,0,P|304:120|328:88,1,90,4|0,0:0|0:0,0:0:0:0:
256,56,23937,2,0,P|200:72|176:112,1,90,4|0,0:0|0:0,0:0:0:0:
176,176,24503,2,0,P|152:216|152:272,1,90,4|0,0:0|0:0,0:0:0:0:
200,320,25068,6,0,P|284:325|343:256,1,180,4|4,0:0|0:0,0:0:0:0:
280,208,25917,1,0,0:0:0:0:
208,168,26200,2,0,P|272:128|328:144,2,135,4|0|0,0:0|0:0|0:0,0:0:0:0:
171,92,27331,6,0,P|262:53|355:72,1,180,4|0,0:0|0:1,0:0:0:0:
416,96,28179,1,0,0:0:0:0:
448,168,28462,2,0,P|432:216|389:236,1,90,4|0,0:0|0:0,0:0:0:0:
360,160,29028,2,0,L|280:224,1,90,4|0,0:0|0:0,0:0:0:0:
224,264,29593,6,0,P|176:352|88:344,1,180,4|4,0:0|0:0,0:0:0:0:
141,274,30442,1,0,0:0:0:0:
120,192,30725,2,0,L|247:192,1,90,4|0,0:0|0:0,0:0:0:0:
184,112,31290,2,0,L|80:112,1,90,4|0,0:0|0:0,0:0:0:0:
40,168,31856,5,4,0:1:0:0:
104,320,32422,2,0,P|160:320|208:336,1,90
256,280,32987,2,0,P|296:296|352:288,1,90,4|0,0:0|0:0,0:0:0:0:
400,240,33553,2,0,P|352:216|304:224,1,90,4|0,0:0|0:0,0:0:0:0:
256,280,34118,6,4,P|224:368|136:352,1,180
176,288,34967,1,0,0:0:0:0:
128,224,35250,2,0,P|176:208|224:224,1,90,4|0,0:0|0:0,0:0:0:0:
296,216,35815,2,0,P|336:232|400:216,1,90
424,296,36381,6,0,P|336:320|248:288,1,180,4|4,0:0|0:0,0:0:0:0:
232,216,37229,1,0,0:0:0:0:
152,240,37512,2,0,L|56:240,1,90,4|0,0:0|0:0,0:0:0:0:
86,320,38078,2,0,L|190:320,1,90,4|0,0:0|0:0,0:0:0:0:
232,264,38644,6,0,P|304:216|288:128,1,180,4|0,0:0|0:0,0:0:0:0:
128,136,39775,1,4,0:0:0:0:
232,264,40340,1,4,0:0:0:0:
376,328,40906,6,0,P|304:375|216:344,1,180,4|4,0:1|0:0,0:1:0:0:
291,295,41755,2,0,P|201:266|136:328,1,180
80,248,42603,2,0,P|115:211|162:183,1,90,4|0,0:0|0:0,0:0:0:0:
139,108,43169,6,0,P|211:61|299:92,1,180,4|4,0:1|0:0,0:0:0:0:
224,144,44017,2,0,P|314:173|379:111,1,180
440,176,44866,2,0,P|408:216|360:248,1,90,4|0,0:0|0:0,0:0:0:0:
336,312,45431,6,0,L|152:312,1,180,4|4,0:1|0:0,0:0:0:0:
160,232,46280,2,0,L|360:232,1,180
424,224,47128,2,0,L|424:120,1,90,4|0,0:0|0:0,0:0:0:0:
384,64,47694,6,0,L|280:64,1,90,12|8,0:0|0:0,0:0:0:0:
216,64,48259,2,0,L|120:64,1,90,8|8,0:0|0:0,0:0:0:0:
72,120,48825,2,0,L|72:168,2,45,8|8|8,0:0|0:0|0:0,0:0:0:0:
48,40,49391,1,0,0:0:0:0:
166,150,49956,6,0,L|350:150,1,180,4|8,0:1|0:0,0:0:0:0:
328,232,50803,1,0,0:0:0:0:
304,312,51085,2,0,L|400:312,1,90,4|0,0:0|0:0,0:0:0:0:
464,280,51650,1,8,0:0:0:0:
464,200,51933,1,0,0:0:0:0:
464,120,52215,6,0,L|368:120,1,90,4|0,0:0|0:0,0:0:0:0:
328,56,52780,2,0,L|238:56,1,90,8|0,0:0|0:0,0:0:0:0:
192,120,53345,2,0,L|96:120,1,90,4|0,0:0|0:0,0:0:0:0:
64,48,53910,1,8,0:0:0:0:
128,200,54475,6,0,P|64:232|32:144,1,180,4|8,0:1|0:0,0:0:0:0:
88,96,55323,1,0,0:0:0:0:
168,80,55605,2,0,P|208:104|232:152,1,90,4|0,0:0|0:0,0:0:0:0:
256,216,56170,1,8,0:0:0:0:
256,216,56453,1,0,0:0:0:0:
312,160,56735,6,0,P|336:240|256:296,2,180,4|8|4,0:0|0:0|0:0,0:0:0:0:
168,80,58430,1,8,0:0:0:0:
256,216,58995,6,0,L|56:216,1,180,4|8,0:1|0:0,0:0:0:0:
48,296,59843,1,0,0:0:0:0:
112,344,60125,2,0,L|208:344,1,90,4|0,0:0|0:0,0:0:0:0:
280,344,60690,1,8,0:0:0:0:
360,344,60972,1,0,0:0:0:0:
360,264,61255,6,0,L|240:264,1,90,4|0,0:0|0:0,0:0:0:0:
200,224,61820,2,0,L|200:128,1,90,8|0,0:0|0:0,0:0:0:0:
272,96,62385,2,0,L|368:96,1,90,4|0,0:0|0:0,0:0:0:0:
440,96,62950,1,8,0:0:0:0:
328,208,63515,6,0,L|368:288,2,90,6|8|8,0:0|0:0|0:0,0:0:0:0:
256,248,64362,1,0,0:0:0:0:
184,208,64645,2,0,L|144:288,2,90,6|8|8,0:0|0:0|0:0,0:0:0:0:
256,168,65492,1,8,0:0:0:0:
328,208,65775,1,4,0:1:0:0:
