osu file format v14

[General]
AudioFilename: audio.mp3
AudioLeadIn: 0
PreviewTime: 13756
Countdown: 0
SampleSet: Drum
StackLeniency: 0.7
Mode: 0
LetterboxInBreaks: 0
WidescreenStoryboard: 0

[Editor]
DistanceSpacing: 1
BeatDivisor: 8
GridSize: 4
TimelineZoom: 1

[Metadata]
Title:I Want You (TV Size)
TitleUnicode:I Want You (TV Size)
Artist:Savage Garden
ArtistUnicode:Savage Garden
Creator:ztrot
Version:Insane
Source:ジョジョの奇妙な冒険 ダイヤモンドは砕けない
Tags:JoJo's Bizarre Adventure: Diamond Is Unbreakable Voli Synitri short version English Anime jjba Pop Synth Synth-pop
BeatmapID:1118258
BeatmapSetID:527051

[Difficulty]
HPDrainRate:6
CircleSize:4
OverallDifficulty:8
ApproachRate:9
SliderMultiplier:2.3
SliderTickRate:2

[Events]
//Background and Video events
0,0,"jojo_s_bizarre_adventure_j4_wallpaper_by_jombs24-d9yv2e51.jpg",0,0
Video,-207,"BG.mp4"
//Break Periods
//Storyboard Layer 0 (Background)
//Storyboard Layer 1 (Fail)
//Storyboard Layer 2 (Pass)
//Storyboard Layer 3 (Foreground)
//Storyboard Layer 4 (Overlay)
//Storyboard Sound Samples

[TimingPoints]
170,566.037735849057,4,3,1,30,1,0
13756,565.637735849057,4,3,1,70,1,0
49956,564.971751412429,4,3,1,70,1,1
65775,-100,4,3,1,70,0,0

[Colours]
Combo1 : 55,255,155
Combo2 : 91,91,255
Combo3 : 255,128,255
Combo4 : 228,196,82

[HitObjects]
256,80,170,5,4,3:0:0:0:
256,192,453,1,0,0:0:0:0:
256,192,594,1,0,0:0:0:0:
256,192,736,2,0,P|200:200|152:168,1,115,8|0,0:0|0:0,0:0:0:0:
120,288,1160,1,0,0:0:0:0:
120,288,1302,2,0,P|184:296|224:328,1,115,4|0,0:0|0:0,0:0:0:0:
336,272,1726,1,0,0:0:0:0:
336,272,1868,2,0,P|392:288|448:256,1,115,8|0,0:0|0:0,0:0:0:0:
376,160,2292,1,0,0:0:0:0:
376,160,2434,6,0,P|312:136|296:88,1,115,4|0,0:0|0:0,0:0:0:0:
424,88,2858,1,0,0:0:0:0:
424,88,3000,2,0,P|464:128|464:184,1,115,8|0,0:0|0:0,0:0:0:0:
464,183,3424,1,4,0:0:0:0:
256,280,3707,5,0,0:0:0:0:
256,160,3849,1,0,0:0:0:0:
328,216,3990,1,0,0:0:0:0:
184,216,4132,1,8,0:0:0:0:
72,80,4415,2,0,P|104:80|136:56,2,57.5,0|0|4,0:0|0:0|0:0,0:0:0:0:
32,240,4981,6,0,L|64:192,1,57.5
176,192,5264,2,0,L|208:240,1,57.5,8|0,0:0|0:0,0:0:0:0:
144,328,5547,2,0,L|64:328,2,57.5,0|0|4,0:0|0:0|0:0,0:0:0:0:
480,240,6113,6,0,L|448:192,1,57.5
336,192,6396,2,0,L|304:240,1,57.5,8|0,0:0|0:0,0:0:0:0:
368,328,6679,2,0,L|448:328,2,57.5,0|0|4,0:0|0:0|0:0,0:0:0:0:
144,327,7245,6,0,L|104:271,1,57.5
256,156,7528,2,0,L|256:216,1,57.5,8|0,0:0|0:0,0:0:0:0:
367,327,7811,2,0,L|407:271,2,57.5,0|0|4,0:0|0:0|0:0,0:0:0:0:
256,160,8377,5,0,0:0:0:0:
323,126,8519,1,0,0:0:0:0:
256,80,8660,1,8,0:0:0:0:
188,126,8802,1,0,0:0:0:0:
188,201,8943,1,0,0:0:0:0:
256,236,9085,1,0,0:0:0:0:
323,201,9226,1,4,0:0:0:0:
152,272,9509,5,0,0:0:0:0:
152,272,9651,1,0,0:0:0:0:
64,240,9792,1,8,0:0:0:0:
64,240,9934,1,0,0:0:0:0:
136,176,10075,1,0,0:0:0:0:
136,176,10217,1,0,0:0:0:0:
152,270,10358,1,4,0:0:0:0:
360,272,10641,5,0,0:0:0:0:
360,272,10783,1,0,0:0:0:0:
448,240,10924,1,8,0:0:0:0:
448,240,11066,1,0,0:0:0:0:
376,176,11207,1,0,0:0:0:0:
376,176,11349,1,0,0:0:0:0:
360,272,11490,1,4,0:0:0:0:
256,176,11773,5,0,0:0:0:0:
328,88,11915,1,0,0:0:0:0:
176,168,12056,1,8,0:0:0:0:
336,168,12198,1,0,0:0:0:0:
184,88,12339,1,0,0:0:0:0:
256,208,12481,1,0,0:0:0:0:
256,40,12622,1,4,0:0:0:0:
256,272,12905,5,0,0:0:0:0:
256,272,13047,1,0,0:0:0:0:
200,192,13188,1,8,0:0:0:0:
200,192,13330,1,0,0:0:0:0:
312,192,13471,1,0,0:0:0:0:
312,192,13613,1,0,0:0:0:0:
256,112,13754,6,0,P|304:80|368:88,1,115,4|0,0:1|0:0,0:0:0:0:
328,168,14180,2,0,P|384:174|430:143,1,115
428,48,14604,2,0,P|482:62|521:115,1,115,0|4,0:0|0:0,0:0:0:0:
496,224,15028,1,0,0:0:0:0:
328,168,15311,1,0,0:0:0:0:
328,168,15452,1,4,0:0:0:0:
372,308,15735,1,0,0:0:0:0:
256,112,16018,6,0,P|208:80|144:88,1,115,4|0,0:0|0:0,0:0:0:0:
184,168,16442,2,0,P|128:174|82:143,1,115
84,48,16867,2,0,P|30:62|-9:115,1,115,0|4,0:0|0:0,0:0:0:0:
16,224,17291,1,0,0:0:0:0:
184,272,17574,1,0,0:0:0:0:
184,272,17715,1,4,0:0:0:0:
328,272,17998,1,0,0:0:0:0:
352,72,18281,6,0,P|368:144|328:184,1,115,4|0,0:1|0:0,0:0:0:0:
272,120,18705,2,0,P|256:192|296:232,1,115
352,256,19129,2,0,P|312:304|256:304,1,115,0|4,0:0|0:0,0:0:0:0:
168,320,19553,1,0,0:0:0:0:
176,88,19836,1,0,0:0:0:0:
176,88,19978,1,4,0:0:0:0:
336,88,20260,1,0,0:0:0:0:
216,168,20543,6,0,P|188:224|136:240,1,115,4|0,0:0|0:0,0:0:0:0:
136,160,20967,2,0,P|164:104|220:88,1,115
296,168,21392,2,0,P|324:224|376:240,1,115,0|4,0:0|0:0,0:0:0:0:
376,160,21816,2,0,P|348:104|292:88,1,115
216,168,22240,2,0,P|188:224|136:240,1,115,4|0,0:0|0:0,0:0:0:0:
304,224,22806,5,4,0:1:0:0:
384,224,22947,1,0,0:0:0:0:
344,160,23089,1,0,0:0:0:0:
264,152,23230,2,0,L|224:208,1,57.5,0|4,0:0|0:0,0:0:0:0:
424,152,23513,2,0,L|457:198,1,57.5
315,85,23796,2,0,L|372:85,1,57.5,0|4,0:0|0:0,0:0:0:0:
344,160,24078,1,0,0:0:0:0:
344,240,24220,1,0,0:0:0:0:
240,88,24361,5,0,0:0:0:0:
448,88,24644,1,0,0:0:0:0:
344,240,24927,1,0,0:0:0:0:
168,144,25210,5,0,0:0:0:0:
168,224,25351,1,0,0:0:0:0:
248,232,25492,2,0,L|288:176,1,57.5,0|4,0:0|0:0,0:0:0:0:
197,299,25775,2,0,L|133:299,1,57.5
54,185,26058,2,0,L|88:232,1,57.5,0|4,0:0|0:0,0:0:0:0:
168,224,26341,1,0,0:0:0:0:
168,144,26482,1,0,0:0:0:0:
268,300,26624,5,0,0:0:0:0:
68,300,26907,1,0,0:0:0:0:
168,144,27189,1,0,0:0:0:0:
344,112,27472,5,0,0:0:0:0:
344,192,27614,1,0,0:0:0:0:
416,152,27755,1,0,0:0:0:0:
256,264,28038,1,0,0:0:0:0:
96,152,28321,1,0,0:0:0:0:
168,192,28462,1,4,0:0:0:0:
168,112,28603,1,0,0:0:0:0:
336,112,28745,6,0,P|304:96|288:72,1,57.5
160,96,29028,2,0,P|184:112|200:144,1,57.5,4|0,0:0|0:0,0:0:0:0:
272,200,29311,2,0,P|304:216|320:240,1,57.5
232,304,29593,2,0,P|208:328|184:336,1,57.5,4|0,0:0|0:0,0:0:0:0:
136,240,29876,2,0,P|104:240|80:232,1,57.5
128,128,30159,2,0,P|96:112|80:88,1,57.5,4|0,0:0|0:0,0:0:0:0:
200,56,30442,6,0,P|224:72|248:104,1,57.5
382,77,30725,2,0,P|408:86|429:106,1,57.5,4|0,0:0|0:0,0:0:0:0:
397,213,31007,2,0,P|368:207|340:207,1,57.5
270,293,31290,2,0,P|312:331|368:328,1,115,4|0,0:0|0:0,0:0:0:0:
144,88,31856,6,0,L|80:88,1,57.5,4|0,0:1|0:0,0:0:0:0:
256,160,32139,2,0,L|168:160,1,57.5
32,200,32422,2,0,L|104:200,1,57.5,4|0,0:0|0:0,0:0:0:0:
208,320,32704,1,0,0:0:0:0:
272,256,32846,2,0,P|216:232|160:248,1,115
120,312,33270,1,0,0:0:0:0:
88,240,33411,5,0,0:0:0:0:
256,72,33694,1,0,0:0:0:0:
424,240,33977,1,0,0:0:0:0:
344,320,34118,6,0,L|408:320,1,57.5,4|0,0:0|0:0,0:0:0:0:
256,224,34401,2,0,L|344:224,1,57.5
480,184,34684,2,0,L|408:184,1,57.5,4|0,0:0|0:0,0:0:0:0:
304,64,34967,1,0,0:0:0:0:
240,128,35108,2,0,P|296:152|352:136,1,115
392,72,35533,1,0,0:0:0:0:
424,144,35674,5,0,0:0:0:0:
256,312,35957,1,0,0:0:0:0:
88,144,36240,2,0,P|136:184|184:160,1,115
152,88,36664,6,0,P|120:64|88:56,1,57.5
220,40,36947,2,0,P|264:88|236:132,1,115,4|0,0:0|0:0,0:0:0:0:
336,104,37371,2,0,P|352:128|400:136,1,57.5,0|4,0:0|0:0,0:0:0:0:
416,240,37654,2,0,L|480:240,1,57.5
328,208,37937,2,0,L|264:208,1,57.5,0|4,0:0|0:0,0:0:0:0:
352,296,38219,2,0,L|272:296,1,57.5
392,144,38502,2,0,P|328:148|285:100,1,115
360,64,38926,1,0,0:0:0:0:
360,64,39068,1,0,0:0:0:0:
442,75,39209,6,0,P|474:131|465:183,1,115,4|0,0:0|0:0,0:0:0:0:
376,320,39633,1,0,0:0:0:0:
304,240,39775,1,4,0:0:0:0:
40,128,40058,5,0,0:0:0:0:
48,256,40199,1,0,0:0:0:0:
144,192,40340,2,0,P|192:176|192:112,1,115,4|0,0:0|0:0,0:0:0:0:
256,336,40906,5,4,0:1:0:0:
144,192,41189,1,0,0:0:0:0:
368,192,41472,1,4,0:0:0:0:
256,48,41755,1,0,0:0:0:0:
256,48,41896,2,0,P|176:104|144:88,1,115
189,36,42320,2,0,P|234:77|228:141,1,115,0|4,0:0|0:0,0:0:0:0:
69,268,42886,1,0,0:0:0:0:
256,336,43169,5,4,0:1:0:0:
368,192,43451,1,0,0:0:0:0:
144,192,43734,1,4,0:0:0:0:
256,48,44017,1,0,0:0:0:0:
256,48,44159,2,0,P|336:104|368:88,1,115
323,36,44583,2,0,P|278:77|284:141,1,115,0|4,0:0|0:0,0:0:0:0:
443,268,45148,1,0,0:0:0:0:
256,344,45431,5,4,0:1:0:0:
144,344,45714,1,0,0:0:0:0:
368,344,45997,1,4,0:0:0:0:
144,232,46280,1,0,0:0:0:0:
144,232,46421,1,0,0:0:0:0:
368,232,46704,1,0,0:0:0:0:
368,232,46845,2,0,P|408:184|384:136,2,115,0|4|0,0:0|0:0|0:0,0:0:0:0:
328,336,47694,6,0,L|302:276,1,57.5,4|0,0:0|0:0,0:0:0:0:
184,336,47977,2,0,L|209:276,1,57.5,8|0,0:0|0:0,0:0:0:0:
104,192,48259,2,0,L|163:192,1,57.5,8|0,0:0|0:0,0:0:0:0:
186,48,48542,2,0,L|211:115,1,57.5,0|8,0:0|0:0,0:0:0:0:
328,48,48825,2,0,L|302:108,1,57.5,4|8,0:0|0:0,0:0:0:0:
408,192,49108,6,8,L|341:191,1,57.5
46,192,49391,2,8,L|113:191,1,57.5
467,191,49673,2,8,L|401:192,1,57.5
88,328,49956,6,0,L|216:328,1,115,4|0,0:1|0:0,0:0:0:0:
424,328,50520,2,0,L|304:328,1,115,8|0,0:0|0:0,0:0:0:0:
296,328,50944,1,0,0:0:0:0:
280,328,51085,1,4,0:0:0:0:
160,192,51368,1,0,0:0:0:0:
352,192,51650,1,8,0:0:0:0:
144,64,51933,1,0,0:0:0:0:
368,64,52215,6,0,P|352:136|384:144,1,115,4|0,0:0|0:0,0:0:0:0:
256,24,52780,1,8,0:0:0:0:
184,176,53063,1,8,0:0:0:0:
184,176,53204,1,0,0:0:0:0:
320,176,53487,1,8,0:0:0:0:
320,176,53628,1,0,0:0:0:0:
256,24,53910,1,8,0:0:0:0:
256,139,54193,1,0,0:0:0:0:
128,88,54475,6,0,P|88:144|104:200,1,115,4|0,0:0|0:0,0:0:0:0:
384,88,55040,2,0,P|424:144|408:200,1,115,8|0,0:0|0:0,0:0:0:0:
200,196,55605,1,4,0:0:0:0:
256,188,55746,1,0,0:0:0:0:
312,196,55888,1,0,0:0:0:0:
320,320,56170,2,0,P|256:369|192:320,1,172.5,8|0,0:0|0:0,0:0:0:0:
360,248,56735,5,4,0:0:0:0:
152,248,57018,1,0,0:0:0:0:
328,176,57300,1,8,0:0:0:0:
184,176,57583,1,0,0:0:0:0:
184,176,57724,1,0,0:0:0:0:
184,176,57865,1,4,0:0:0:0:
376,48,58148,1,0,0:0:0:0:
136,48,58430,1,8,0:0:0:0:
256,208,58713,1,0,0:0:0:0:
88,328,58995,6,0,L|216:328,1,115,4|0,0:0|0:0,0:0:0:0:
424,328,59560,2,0,L|304:328,1,115,8|0,0:0|0:0,0:0:0:0:
296,328,59984,1,0,0:0:0:0:
280,328,60125,1,4,0:0:0:0:
352,192,60407,1,0,0:0:0:0:
160,192,60690,1,8,0:0:0:0:
368,64,60972,1,0,0:0:0:0:
144,64,61255,6,0,P|160:136|128:144,1,115,4|0,0:0|0:0,0:0:0:0:
256,24,61820,1,8,0:0:0:0:
328,176,62102,1,8,0:0:0:0:
328,176,62244,1,0,0:0:0:0:
192,176,62526,1,8,0:0:0:0:
192,176,62667,1,0,0:0:0:0:
256,24,62950,1,8,0:0:0:0:
256,139,63232,1,0,0:0:0:0:
384,88,63515,6,0,P|424:144|408:200,1,115,4|8,0:0|0:0,0:0:0:0:
128,88,64080,2,0,P|88:144|104:200,1,115,8|0,0:0|0:0,0:0:0:0:
312,192,64645,1,12,0:0:0:0:
256,168,64786,1,0,0:0:0:0:
204,192,64927,1,8,0:0:0:0:
320,320,65210,2,0,P|256:369|192:320,1,172.5,8|0,0:0|0:0,0:0:0:0:
256,224,65775,5,4,0:1:0:0:
