osu file format v14

[General]
AudioFilename: audio.mp3
AudioLeadIn: 0
PreviewTime: 13756
Countdown: 0
SampleSet: Drum
StackLeniency: 0.7
Mode: 0
LetterboxInBreaks: 0
WidescreenStoryboard: 1

[Editor]
Bookmarks: 48815,49664
DistanceSpacing: 0.8
BeatDivisor: 4
GridSize: 4
TimelineZoom: 0.3999999

[Metadata]
Title:I Want You (TV Size)
TitleUnicode:I Want You (TV Size)
Artist:Savage Garden
ArtistUnicode:Savage Garden
Creator:ztrot
Version:Easy
Source:ジョジョの奇妙な冒険 ダイヤモンドは砕けない
Tags:JoJo's Bizarre Adventure: Diamond Is Unbreakable Voli Synitri short version English Anime jjba Pop Synth Synth-pop
BeatmapID:1156354
BeatmapSetID:527051

[Difficulty]
HPDrainRate:3
CircleSize:3
OverallDifficulty:2
ApproachRate:3.5
SliderMultiplier:1.4
SliderTickRate:2

[Events]
//Background and Video events
Video,-207,"BG.mp4"
0,0,"jojo_s_bizarre_adventure_j4_wallpaper_by_jombs24-d9yv2e51.jpg",0,0
//Break Periods
//Storyboard Layer 0 (Background)
//Storyboard Layer 1 (Fail)
//Storyboard Layer 2 (Pass)
//Storyboard Layer 3 (Foreground)
//Storyboard Layer 4 (Overlay)
//Storyboard Sound Samples

[TimingPoints]
170,566.037735849057,4,3,1,30,1,0
13756,565.637735849057,4,3,1,70,1,0
49956,564.971751412429,4,3,1,70,1,1
65775,-100,4,3,1,70,0,0

[Colours]
Combo1 : 55,255,155
Combo2 : 91,91,255
Combo3 : 255,128,255
Combo4 : 228,196,82

[HitObjects]
80,344,170,6,0,P|144:344|192:288,1,140,4|8,0:0|0:0,0:0:0:0:
320,290,1302,2,0,P|364:344|432:344,1,140,4|8,0:0|0:0,0:0:0:0:
420,228,2434,2,0,P|444:152|416:72,1,140,4|8,0:0|0:0,0:0:0:0:
320,152,3566,2,0,P|256:176|192:152,1,140,4|8,0:0|0:0,0:0:0:0:
85,86,4698,5,4,0:0:0:0:
96,140,4981,1,0,0:0:0:0:
92,196,5264,2,0,P|92:280|212:304,1,210,8|0,0:0|0:0,0:0:0:0:
252,300,6396,1,8,0:0:0:0:
204,140,6962,1,4,0:0:0:0:
256,128,7245,1,0,0:0:0:0:
312,112,7528,2,0,P|407:125|422:226,1,210,8|0,0:0|0:0,0:0:0:0:
380,272,8660,1,8,0:0:0:0:
256,264,9226,5,4,0:0:0:0:
192,264,9509,1,0,0:0:0:0:
128,264,9792,2,0,P|71:208|131:111,1,210,8|0,0:0|0:0,0:0:0:0:
184,92,10924,1,8,0:0:0:0:
268,224,11490,1,4,0:0:0:0:
320,260,11773,1,0,0:0:0:0:
384,264,12056,2,0,P|441:208|381:111,1,210,8|0,0:0|0:0,0:0:0:0:
328,92,13188,1,8,0:0:0:0:
192,88,13754,5,4,0:1:0:0:
64,88,14321,1,4,0:0:0:0:
64,216,14887,2,0,P|128:240|192:216,1,140,4|4,0:0|0:0,0:0:0:0:
320,216,16018,1,4,0:0:0:0:
448,216,16584,1,4,0:0:0:0:
448,88,17149,2,0,P|384:64|320:88,1,140,4|4,0:0|0:0,0:0:0:0:
256,200,18281,6,0,L|408:200,1,140,4|0,0:1|0:1,0:1:0:0:
400,328,19412,2,0,L|256:328,1,140,4|4,0:0|0:0,0:0:0:0:
256,200,20543,1,4,0:0:0:0:
320,88,21109,1,4,0:0:0:0:
192,88,21674,1,4,0:0:0:0:
256,200,22240,1,4,0:0:0:0:
172,296,22806,6,0,P|116:248|116:184,1,140,4|0,0:1|0:1,0:1:0:0:
184,96,23937,2,0,L|328:96,1,140,4|4,0:0|0:0,0:0:0:0:
396,184,25068,2,0,P|393:252|340:295,1,140,4|4,0:0|0:0,0:0:0:0:
302,189,26200,2,0,P|254:145|206:189,1,140,4|4,0:0|0:0,0:0:0:0:
256,288,27331,6,0,P|320:332|388:332,1,140,4|4,0:0|0:0,0:0:0:0:
348,236,28462,2,0,P|420:240|480:212,1,140,4|4,0:0|0:0,0:0:0:0:
392,140,29593,1,4,0:0:0:0:
280,144,30159,1,4,0:0:0:0:
200,64,30725,2,0,L|128:64,2,70,4|0|4,0:0|0:0|0:0,0:0:0:0:
256,188,31856,6,0,P|176:188|136:144,1,140,4|4,0:1|0:0,0:0:0:0:
232,84,32987,2,0,P|312:83|352:128,1,140,4|4,0:0|0:0,0:0:0:0:
384,232,34118,2,0,P|304:232|264:188,1,140,4|0,0:0|0:0,0:0:0:0:
352,124,35250,2,0,P|431:118|474:159,1,140,4|4,0:0|0:0,0:0:0:0:
384,232,36381,5,4,0:0:0:0:
328,328,36947,1,4,0:0:0:0:
252,232,37512,2,0,P|216:292|140:292,1,140,4|4,0:0|0:0,0:0:0:0:
156,196,38644,1,4,0:0:0:0:
256,152,39209,1,4,0:0:0:0:
356,196,39775,2,0,L|404:132,1,70,4|4,0:0|0:0,0:0:0:0:
448,188,40340,2,0,L|488:124,1,70,4|4,0:0|0:0,0:0:0:0:
468,76,40906,6,0,B|372:24|248:64,2,210,4|0|4,0:1|0:0|0:0,0:0:0:0:
368,128,43169,2,0,B|312:188|400:244|340:328,2,210,4|0|4,0:1|0:0|0:0,0:0:0:0:
272,72,45431,6,0,P|200:64|112:100,1,140,4|4,0:1|0:0,0:0:0:0:
100,124,46280,2,0,B|92:208|17:137|4:228,1,140
28,264,47128,1,4,0:0:0:0:
172,304,47694,2,8,B|262:294|238:174|238:174|346:58|346:58|176:60,1,490,12|8,0:0|0:0,0:0:0:0:
128,60,49956,5,4,0:1:0:0:
128,172,50520,2,0,P|56:156|22:99,2,140,8|4|8,0:0|0:0|0:0,0:0:0:0:
240,168,52215,1,4,0:0:0:0:
256,116,52498,1,0,0:0:0:0:
256,60,52780,1,8,0:0:0:0:
352,112,53345,1,4,0:0:0:0:
408,112,53628,1,0,0:0:0:0:
444,156,53910,1,8,0:0:0:0:
320,196,54475,6,0,P|256:221|193:197,1,140,4|8,0:0|0:0,0:0:0:0:
72,216,55605,1,4,0:0:0:0:
60,160,55888,1,0,0:0:0:0:
76,104,56170,1,8,0:0:0:0:
187,97,56735,2,0,P|256:107|326:97,1,140,4|8,0:0|0:0,0:0:0:0:
436,104,57865,1,4,0:0:0:0:
452,160,58148,1,0,0:0:0:0:
440,216,58430,1,8,0:0:0:0:
326,216,58995,6,0,L|186:216,1,140,4|8,0:0|0:0,0:0:0:0:
128,120,60125,2,0,P|68:164|80:228,1,140,4|8,0:0|0:0,0:0:0:0:
4,308,61255,2,0,P|72:336|140:308,1,140,4|8,0:0|0:0,0:0:0:0:
236,272,62385,1,4,0:0:0:0:
288,296,62667,1,0,0:0:0:0:
340,272,62950,1,8,0:0:0:0:
256,192,63515,12,4,65775,0:1:0:0:
