osu file format v14

[General]
AudioFilename: I want you 2.mp3
AudioLeadIn: 0
PreviewTime: 50226
Countdown: 0
SampleSet: Soft
StackLeniency: 0.7
Mode: 0
LetterboxInBreaks: 0
WidescreenStoryboard: 0

[Editor]
Bookmarks: 21773,28816
DistanceSpacing: 1
BeatDivisor: 2
GridSize: 4
TimelineZoom: 1

[Metadata]
Title:I Want You
TitleUnicode:I Want You
Artist:Savage Garden
ArtistUnicode:Savage Garden
Creator:Cloudchaser
Version:Normal
Source:ジョジョの奇妙な冒険 ダイヤモンドは砕けない
Tags:jojo no kimyou na bouken diamond wa kudakenai DIU is unbreakable bizarre adventure Daniel Jones ED Ending 1 shini -sh1n1-
BeatmapID:947209
BeatmapSetID:440152

[Difficulty]
HPDrainRate:4
CircleSize:3
OverallDifficulty:4
ApproachRate:5
SliderMultiplier:1.6
SliderTickRate:2

[Events]
//Background and Video events
0,0,"Josuke.png",0,0
Video,0,"video.avi"
//Break Periods
//Storyboard Layer 0 (Background)
//Storyboard Layer 1 (Fail)
//Storyboard Layer 2 (Pass)
//Storyboard Layer 3 (Foreground)
//Storyboard Sound Samples

[TimingPoints]
647,563.380281690141,4,2,1,100,1,0
50224,-100,4,2,1,100,0,1
65999,-100,4,2,1,100,0,0

[Colours]
Combo1 : 105,202,239
Combo2 : 239,80,123
SliderTrackOverride : 53,192,255
SliderBorder : 255,255,255

[HitObjects]
180,224,14168,6,0,P|108:216|12:180,2,160,4|8|8,0:0|0:0|0:0,0:0:0:0:
308,128,15858,1,8,0:0:0:0:
380,96,16139,1,0,0:0:0:0:
448,136,16421,2,0,P|452:224|436:300,2,160,8|8|8,0:0|0:0|0:0,0:0:0:0:
312,52,18111,2,0,P|264:68|184:68,1,80,8|0,0:0|0:0,0:0:0:0:
188,136,18675,6,0,P|208:224|188:336,2,160,8|8|8,0:0|0:0|0:0,0:0:0:0:
32,108,20365,1,8,0:0:0:0:
16,188,20647,1,0,0:0:0:0:
44,264,20928,2,0,P|148:272|212:296,1,160,8|8,0:0|0:0,0:0:0:0:
360,312,22055,2,0,L|412:384,2,80,8|0|8,0:0|0:0|0:0,0:0:0:0:
308,160,23182,6,0,P|280:68|236:52,1,80,2|0,0:0|0:0,0:0:0:0:
232,36,23745,2,0,P|140:64|112:104,1,80,8|0,0:0|0:0,0:0:0:0:
100,108,24308,2,0,L|96:224,2,80,8|0|8,0:0|0:0|0:0,0:0:0:0:
155,52,25154,1,0,0:0:0:0:
216,104,25435,2,0,P|288:148|392:108,1,160,0|8,0:0|0:0,0:0:0:0:
500,60,26562,2,0,L|480:176,1,80,8|0,0:0|0:0,0:0:0:0:
432,200,27125,2,0,L|418:278,1,80,8|0,0:0|0:0,0:0:0:0:
340,296,27689,6,0,P|252:328|156:332,1,160,10|8,0:0|0:0,0:0:0:0:
128,276,28534,1,0,0:0:0:0:
148,200,28816,2,0,P|222:171|301:162,1,160,8|8,0:0|0:0,0:0:0:0:
372,124,29661,1,0,0:0:0:0:
420,188,29942,2,0,B|392:268|432:268|412:356,1,160,8|8,0:0|0:0,0:0:0:0:
256,336,31069,2,0,L|110:331,2,80,8|8|8,0:0|0:0|0:0,0:0:0:0:
414,345,32196,6,0,P|392:282|423:169,1,160,10|8,0:0|0:0,0:0:0:0:
376,120,33041,1,0,0:0:0:0:
312,72,33323,2,0,B|236:88|236:40|136:72,1,160,8|8,0:0|0:0,0:0:0:0:
112,136,34168,1,0,0:0:0:0:
156,204,34449,2,0,B|237:230|237:182|313:198,1,160,8|8,0:0|0:0,0:0:0:0:
444,288,35576,2,0,L|454:398,2,80,8|0|8,0:0|0:0|0:0,0:0:0:0:
432,208,36421,1,0,0:0:0:0:
408,132,36703,6,0,P|291:167|205:173,1,160,2|8,0:0|0:0,0:0:0:0:
184,132,37548,1,0,0:0:0:0:
136,196,37830,2,0,P|167:296|155:399,2,160,8|8|8,0:0|0:0|0:0,0:0:0:0:
80,140,39238,2,0,P|80:80|88:56,1,80,0|8,0:0|0:0,0:0:0:0:
164,36,39801,1,0,0:0:0:0:
164,36,40083,2,0,P|209:43|299:35,1,80,8|0,0:0|0:0,0:0:0:0:
300,100,40647,2,0,P|339:99|379:92,1,80,8|0,0:0|0:0,0:0:0:0:
460,100,41210,6,0,B|428:180|480:180|431:306,1,160,4|8,0:0|0:0,0:0:0:0:
368,276,42055,1,0,0:0:0:0:
368,276,42337,2,0,P|316:200|316:160,1,80,0|8,0:0|0:0,0:0:0:0:
240,196,42900,2,0,P|220:156|212:112,1,80,8|8,0:0|0:0,0:0:0:0:
152,64,43463,2,0,B|106:21|45:45|45:45|-2:96|38:159,2,240,4|8|8,0:0|0:0|0:0,0:0:0:0:
312,96,45717,6,0,B|265:126|277:204|277:204|256:188|230:194,1,160,4|8,0:0|0:0,0:0:0:0:
160,184,46562,1,0,0:0:0:0:
112,248,46844,2,0,P|68:260|-12:260,2,80,8|0|8,0:0|0:0|0:0,0:0:0:0:
46,102,47970,2,0,B|121:33|188:100|188:100|256:30|324:100|324:100|391:33|466:102,1,480,4|8,0:0|0:0,0:0:0:0:
416,256,50224,5,4,0:0:0:0:
256,220,50787,2,0,P|138:224|88:232,1,160,8|8,3:0|0:0,0:0:0:0:
92,312,51632,1,0,0:0:0:0:
168,344,51914,2,0,P|208:324|232:292,1,80,8|0,3:0|0:0,0:0:0:0:
256,220,52477,2,0,L|246:60,1,160,0|8,0:0|3:0,0:0:0:0:
316,20,53323,1,0,0:0:0:0:
396,36,53604,2,0,L|388:152,1,80,0|0,0:0|0:0,0:0:0:0:
352,188,54168,2,0,L|344:304,1,80,8|0,3:0|0:0,0:0:0:0:
268,276,54731,6,0,P|172:312|156:376,2,160,2|8|8,0:0|3:0|0:0,0:0:0:0:
348,268,56139,1,0,0:0:0:0:
412,220,56421,2,0,P|440:168|436:120,1,80,8|0,3:0|0:0,0:0:0:0:
388,88,56985,2,0,B|306:117|306:59|197:110,1,160,4|8,3:0|0:0,0:0:0:0:
80,40,58111,2,0,P|50:124|76:208,1,160,8|8,3:0|0:0,0:0:0:0:
224,176,59238,6,0,P|257:196|283:227,1,80,4|0,0:0|0:0,0:0:0:0:
324,296,59801,2,0,P|242:343|109:343,1,160,8|8,3:0|0:0,0:0:0:0:
104,320,60647,1,0,0:0:0:0:
60,252,60928,2,0,L|108:54,1,160,8|8,3:0|0:0,0:0:0:0:
240,24,62055,2,0,L|269:181,1,160,8|0,3:0|0:0,0:0:0:0:
324,240,62900,2,0,P|408:240|416:236,1,80,0|8,0:0|3:0,0:0:0:0:
256,192,63745,12,4,65999,0:0:0:0:
