osu file format v14

[General]
AudioFilename: I want you 2.mp3
AudioLeadIn: 0
PreviewTime: 50226
Countdown: 0
SampleSet: Soft
StackLeniency: 0.7
Mode: 0
LetterboxInBreaks: 0
WidescreenStoryboard: 0

[Editor]
DistanceSpacing: 1.5
BeatDivisor: 4
GridSize: 4
TimelineZoom: 1.6

[Metadata]
Title:I Want You
TitleUnicode:I Want You
Artist:Savage Garden
ArtistUnicode:Savage Garden
Creator:Cloudchaser
Version:Crazy Diamond
Source:ジョジョの奇妙な冒険 ダイヤモンドは砕けない
Tags:jojo no kimyou na bouken diamond wa kudakenai DIU is unbreakable bizarre adventure Daniel Jones ED Ending 1 shini -sh1n1-
BeatmapID:947134
BeatmapSetID:440152

[Difficulty]
HPDrainRate:6
CircleSize:4
OverallDifficulty:6
ApproachRate:8
SliderMultiplier:2.1
SliderTickRate:2

[Events]
//Background and Video events
0,0,"Josuke.png",0,0
Video,0,"video.avi"
//Break Periods
//Storyboard Layer 0 (Background)
//Storyboard Layer 1 (Fail)
//Storyboard Layer 2 (Pass)
//Storyboard Layer 3 (Foreground)
//Storyboard Sound Samples

[TimingPoints]
647,563.380281690141,4,2,1,100,1,0
50224,-100,4,2,1,100,0,1
65999,-100,4,2,1,100,0,0

[Colours]
Combo1 : 105,202,239
Combo2 : 239,80,123
SliderTrackOverride : 53,192,255
SliderBorder : 255,255,255

[HitObjects]
128,120,14168,6,0,P|128:256|140:296,1,157.5,4|0,0:0|0:0,0:0:0:0:
196,324,14731,2,0,P|268:304|300:304,1,105,8|0,0:0|0:0,0:0:0:0:
444,248,15294,2,0,L|460:180,2,52.5,8|0|0,0:0|0:0|0:0,0:0:0:0:
348,124,15858,2,0,L|340:56,2,52.5,8|0|0,0:0|0:0|0:0,0:0:0:0:
192,176,16421,6,0,P|92:208|64:140,1,157.5,8|0,0:0|0:0,0:0:0:0:
80,100,16985,2,0,P|122:80|196:136,1,105,8|0,0:0|0:0,0:0:0:0:
292,204,17548,2,0,L|364:220,2,52.5,8|0|0,0:0|0:0|0:0,0:0:0:0:
152,312,18111,2,0,L|76:324,2,52.5,8|0|0,0:0|0:0|0:0,0:0:0:0:
308,344,18675,6,0,P|380:308|460:308,1,157.5,8|0,0:0|0:0,0:0:0:0:
476,232,19238,2,0,P|461:153|469:97,1,105,8|0,0:0|0:0,0:0:0:0:
364,88,19801,6,0,P|376:72|396:28,2,52.5,8|0|0,0:0|0:0|0:0,0:0:0:0:
208,92,20365,2,0,P|196:32|196:12,2,52.5,8|0|0,0:0|0:0|0:0,0:0:0:0:
132,256,20928,6,0,B|200:260|244:216|244:216|224:268|256:292,1,157.5,8|0,0:0|0:0,0:0:0:0:
280,316,21492,2,0,P|340:348|384:356,1,105,8|0,0:0|0:0,0:0:0:0:
472,232,22055,2,0,L|476:172,2,52.5,8|0|0,0:0|0:0|0:0,0:0:0:0:
340,144,22618,2,0,L|344:84,2,52.5,8|0|0,0:0|0:0|0:0,0:0:0:0:
184,164,23182,6,0,P|136:152|88:168,1,52.5,2|0,0:0|0:0,0:0:0:0:
60,184,23463,2,0,L|52:256,1,52.5
64,316,23745,2,0,P|81:335|188:344,1,105,8|0,0:0|0:0,0:0:0:0:
204,292,24168,1,0,0:0:0:0:
276,328,24308,2,0,L|284:392,2,52.5,8|0|0,0:0|0:0|0:0,0:0:0:0:
348,292,24731,2,0,P|356:241|333:194,1,105,0|8,0:0|0:0,0:0:0:0:
272,144,25154,1,0,0:0:0:0:
272,144,25294,6,0,L|152:176,1,105,8|0,0:0|0:0,0:0:0:0:
92,152,25717,1,0,0:0:0:0:
116,228,25858,1,0,0:0:0:0:
84,300,25999,2,0,P|72:332|48:364,2,52.5,8|0|0,0:0|0:0|0:0,0:0:0:0:
116,228,26421,1,0,0:0:0:0:
164,288,26562,2,0,P|220:304|252:292,1,52.5,8|0,0:0|0:0,0:0:0:0:
248,240,26844,1,0,0:0:0:0:
248,240,26985,2,0,P|216:184|152:164,2,105,0|8|0,0:0|0:0|0:0,0:0:0:0:
328,236,27689,6,0,L|344:100,1,105,10|0,0:0|0:0,0:0:0:0:
368,60,28111,2,0,P|344:40|308:20,1,52.5,0|8,0:0|0:0,0:0:0:0:
256,64,28393,2,0,L|144:68,1,105
84,28,28816,2,0,P|40:28|-12:52,2,52.5,8|0|0,0:0|0:0|0:0,0:0:0:0:
151,67,29238,1,0,0:0:0:0:
192,136,29379,2,0,P|200:200|192:256,1,105,8|0,0:0|0:0,0:0:0:0:
172,316,29801,1,0,0:0:0:0:
172,316,29942,6,0,P|104:276|85:273,1,52.5,8|0,0:0|0:0,0:0:0:0:
56,312,30224,2,0,P|-8:352|-31:355,1,52.5
16,236,30506,2,0,L|26:93,1,105,8|0,0:0|0:0,0:0:0:0:
68,64,30928,1,0,0:0:0:0:
148,76,31069,2,0,P|160:46|160:-4,2,52.5,8|0|8,0:0|0:0|0:0,0:0:0:0:
180,148,31492,1,0,0:0:0:0:
252,176,31632,2,0,P|352:164|392:140,1,105,8|0,0:0|0:0,0:0:0:0:
456,40,32196,5,10,0:0:0:0:
456,40,32337,1,0,0:0:0:0:
456,40,32477,2,0,L|384:68,1,52.5
332,40,32759,2,0,P|232:52|192:76,1,105,8|0,0:0|0:0,0:0:0:0:
188,120,33182,1,0,0:0:0:0:
188,120,33323,2,0,L|200:240,1,105,8|0,0:0|0:0,0:0:0:0:
204,304,33745,2,0,P|272:311|320:296,2,105,0|8|0,0:0|0:0|0:0,0:0:0:0:
198,224,34449,6,0,P|148:224|104:252,1,52.5,8|0,0:0|0:0,0:0:0:0:
44,287,34731,2,0,P|70:291|96:288,1,52.5
72,212,35013,2,0,L|68:124,1,52.5,8|0,0:0|0:0,0:0:0:0:
148,144,35294,2,0,L|145:91,1,52.5
196,28,35576,2,0,P|220:19|292:60,1,105,8|0,0:0|0:0,0:0:0:0:
364,68,35999,2,0,P|418:43|476:0,2,105,0|8|0,0:0|0:0|0:0,0:0:0:0:
344,144,36703,6,0,L|324:284,1,105,2|0,0:0|0:0,0:0:0:0:
360,320,37125,1,0,0:0:0:0:
360,320,37266,2,0,P|260:284|252:260,1,105,8|0,0:0|0:0,0:0:0:0:
244,216,37689,1,0,0:0:0:0:
168,204,37830,2,0,P|126:235|68:328,2,157.5,8|8|0,0:0|0:0|0:0,0:0:0:0:
244,216,38816,1,0,0:0:0:0:
296,276,38956,2,0,P|248:292|212:292,1,52.5,8|0,0:0|0:0,0:0:0:0:
168,284,39238,2,0,P|120:268|84:268,1,52.5
68,208,39520,2,0,L|56:100,1,105,8|0,0:0|0:0,0:0:0:0:
224,272,40083,6,0,L|220:356,2,52.5,8|0|0,0:0|0:0|0:0,0:0:0:0:
332,188,40647,2,0,L|329:135,2,52.5,8|0|0,0:0|0:0|0:0,0:0:0:0:
176,200,41210,6,0,P|124:212|64:192,1,105,4|0,0:0|0:0,0:0:0:0:
28,136,41632,1,0,0:0:0:0:
28,136,41773,2,0,P|24:80|56:40,1,105,8|0,0:0|0:0,0:0:0:0:
132,48,42196,2,0,P|204:56|236:52,1,105,8|0,0:0|0:0,0:0:0:0:
304,16,42618,1,8,0:0:0:0:
372,156,42900,1,8,0:0:0:0:
256,264,43182,1,8,0:0:0:0:
116,192,43463,6,0,P|113:139|121:87,1,105,4|0,0:0|0:0,0:0:0:0:
192,56,43886,1,0,0:0:0:0:
192,56,44027,2,0,L|352:64,2,157.5,8|8|0,0:0|0:0|0:0,0:0:0:0:
116,188,45154,2,0,P|164:224|180:264,1,105,8|0,0:0|0:0,0:0:0:0:
332,308,45717,6,0,L|348:160,1,105,4|0,0:0|0:0,0:0:0:0:
372,128,46139,1,0,0:0:0:0:
300,92,46280,2,0,P|216:100|156:76,1,105,8|0,0:0|0:0,0:0:0:0:
144,28,46703,1,0,0:0:0:0:
144,28,46844,2,0,P|112:96|144:152,1,105,8|0,0:0|0:0,0:0:0:0:
264,188,47407,1,8,0:0:0:0:
264,188,47689,1,0,0:0:0:0:
144,292,47970,6,0,P|140:212|144:176,1,105,4|2,0:0|0:0,0:0:0:0:
266,83,48534,2,0,P|268:135|264:187,1,105,10|2,0:0|0:0,0:0:0:0:
142,187,49003,1,0,0:0:0:0:
120,168,49097,2,0,P|104:128|100:92,1,70,8|0,0:0|0:0,0:0:0:0:
100,76,49379,2,0,P|144:40|168:36,1,70,8|0,0:0|0:0,0:0:0:0:
180,40,49661,2,0,P|212:53|235:78,1,70,8|0,0:0|0:0,0:0:0:0:
232,100,49942,2,0,P|226:134|212:166,1,70,8|0,0:0|0:0,0:0:0:0:
176,264,50224,6,0,P|248:276|300:252,1,105,4|0,0:0|0:0,0:0:0:0:
408,164,50787,2,0,P|372:228|396:320,1,157.5,8|0,3:0|0:0,0:0:0:0:
336,368,51351,2,8,P|272:336|248:336,1,52.5,8|0,0:0|0:0,0:0:0:0:
277,266,51632,2,0,P|237:278|201:298,1,52.5
164,328,51914,2,0,P|92:344|48:324,1,105,8|0,3:0|0:0,0:0:0:0:
28,188,52477,6,0,L|40:80,1,105
108,44,52900,1,0,0:0:0:0:
108,44,53041,2,0,P|168:16|274:22,2,157.5,8|8|0,3:0|0:0|0:0,0:0:0:0:
224,148,54168,2,0,P|204:200|144:248,1,105,8|0,3:0|0:0,0:0:0:0:
68,328,54731,6,0,B|84:288|60:264|60:264|76:248|76:248|56:216|76:168,1,157.5,2|0,0:0|0:0,0:0:0:0:
124,124,55294,2,0,P|80:175|25:99,1,157.5,8|0,3:0|0:0,0:0:0:0:
24,52,55858,1,8,0:0:0:0:
192,28,56139,1,0,0:0:0:0:
204,196,56421,2,0,P|288:184|376:200,1,157.5,8|0,3:0|0:0,0:0:0:0:
336,272,56985,6,0,P|252:280|228:272,1,105,8|0,0:0|0:0,0:0:0:0:
100,192,57548,1,8,0:0:0:0:
213,37,57829,1,0,0:0:0:0:
213,37,57970,1,0,0:0:0:0:
213,37,58111,1,8,3:0:0:0:
213,229,58393,1,0,0:0:0:0:
100,74,58675,1,8,0:0:0:0:
282,133,58956,1,0,0:0:0:0:
132,168,59238,6,0,P|144:240|124:336,1,157.5,4|0,0:0|0:0,0:0:0:0:
130,321,59801,2,0,P|218:305|266:321,1,105,8|0,3:0|0:0,0:0:0:0:
384,352,60365,2,0,L|392:284,1,52.5,8|0,0:0|0:0,0:0:0:0:
456,256,60647,2,0,L|444:176,1,52.5
396,148,60928,2,0,P|324:140|256:124,1,105,8|0,3:0|0:0,0:0:0:0:
180,24,61492,6,0,P|104:28|64:36,1,105,8|0,0:0|0:0,0:0:0:0:
44,104,61914,1,0,0:0:0:0:
64,180,62055,2,0,B|28:256|80:256|48:336,2,157.5,8|8|0,3:0|0:0|0:0,0:0:0:0:
208,136,63182,2,0,P|260:168|312:184,1,105,8|0,3:0|0:0,0:0:0:0:
452,136,63745,5,2,0:0:0:0:
256,192,63886,12,4,65999,0:0:0:0:
