osu file format v14

[General]
AudioFilename: audio.mp3
AudioLeadIn: 0
PreviewTime: 91721
Countdown: 0
SampleSet: Soft
StackLeniency: 0.1
Mode: 0
LetterboxInBreaks: 0
WidescreenStoryboard: 1

[Editor]
Bookmarks: 15555,39356,56710,61917,113198,121721,170840,201583
DistanceSpacing: 0.9
BeatDivisor: 4
GridSize: 8
TimelineZoom: 2.7

[Metadata]
Title:Levitator
TitleUnicode:Levitator
Artist:Satyr
ArtistUnicode:Satyr
Creator:IllusionB
Version:Zoli's Extreme
Source:
Tags:alternative english progressive math rock alt metal locus stream fast zoli itswinter silence player lmt flake zetera
BeatmapID:3111558
BeatmapSetID:1520317

[Difficulty]
HPDrainRate:4
CircleSize:4.3
OverallDifficulty:9.5
ApproachRate:9.8
SliderMultiplier:2
SliderTickRate:1

[Events]
//Background and Video events
0,0,"elena-bespalova-ask-keep.jpg",0,0
//Break Periods
2,86125,89537
//Storyboard Layer 0 (Background)
//Storyboard Layer 1 (Fail)
//Storyboard Layer 2 (Pass)
//Storyboard Layer 3 (Foreground)
//Storyboard Layer 4 (Overlay)
//Storyboard Sound Samples

[TimingPoints]
185,247.933884297521,8,2,1,60,1,0
185,-66.6666666666667,8,2,1,60,0,0
432,-133.333333333333,8,2,1,60,0,0
804,-66.6666666666667,8,2,1,60,0,0
1300,-133.333333333333,8,2,1,60,0,0
1672,-66.6666666666667,8,2,1,60,0,0
1920,-133.333333333333,8,2,1,60,0,0
2168,-66.6666666666667,8,2,1,60,0,0
2415,-133.333333333333,8,2,1,60,0,0
2788,-66.6666666666667,8,2,1,60,0,0
3284,-133.333333333333,8,2,1,60,0,0
3656,-66.6666666666667,8,2,1,60,0,0
3904,-133.333333333333,8,2,1,60,0,0
4151,-66.6666666666667,8,2,1,60,0,0
4399,-133.333333333333,8,2,1,60,0,0
4771,-66.6666666666667,8,2,1,60,0,0
5267,-133.333333333333,8,2,1,60,0,0
5639,-66.6666666666667,8,2,1,60,0,0
5887,-133.333333333333,8,2,1,60,0,0
6134,-66.6666666666667,8,2,1,75,0,0
6135,247.933884297521,7,2,1,75,1,0
6382,-100,7,2,3,80,0,0
7870,247.933884297521,8,2,1,60,1,0
7870,-66.6666666666667,8,2,1,60,0,0
8117,-133.333333333333,8,2,1,60,0,0
8489,-66.6666666666667,8,2,1,60,0,0
8985,-133.333333333333,8,2,1,60,0,0
9357,-66.6666666666667,8,2,1,60,0,0
9605,-133.333333333333,8,2,1,60,0,0
9853,-66.6666666666667,8,2,1,60,0,0
10100,-133.333333333333,8,2,1,60,0,0
10473,-66.6666666666667,8,2,1,60,0,0
10969,-133.333333333333,8,2,1,60,0,0
11341,-66.6666666666667,8,2,1,60,0,0
11506,-66.6666666666667,8,2,1,30,0,0
11671,-66.6666666666667,8,2,1,40,0,0
11836,-66.6666666666667,8,2,1,60,0,0
12084,-133.333333333333,8,2,1,60,0,0
12456,-66.6666666666667,8,2,1,60,0,0
12952,-133.333333333333,8,2,1,60,0,0
13324,-66.6666666666667,8,2,1,60,0,0
13572,-133.333333333333,8,2,1,60,0,0
13819,-66.6666666666667,8,2,1,75,0,0
13820,247.933884297521,7,2,1,75,1,0
14067,-100,7,2,3,80,0,0
15555,247.933884297521,4,2,1,60,1,0
15555,-66.6666666666667,4,2,1,60,0,0
15802,-83.3333333333333,4,2,1,60,0,0
31422,-125,4,2,1,50,0,0
33406,-66.6666666666667,4,2,1,80,0,0
35079,-66.6666666666667,4,2,1,5,0,0
35141,-66.6666666666667,4,2,1,80,0,0
35885,-66.6666666666667,4,2,1,60,0,0
36381,-66.6666666666667,4,2,1,80,0,0
38055,-66.6666666666667,4,2,1,5,0,0
38116,-66.6666666666667,4,2,1,60,0,0
38860,-66.6666666666667,4,2,1,80,0,0
39356,-66.6666666666667,4,2,1,60,0,0
41340,247.933884297521,8,2,1,60,1,0
41340,-66.6666666666667,8,2,1,60,0,0
41587,-133.333333333333,8,2,1,60,0,0
41959,-66.6666666666667,8,2,1,60,0,0
42455,-133.333333333333,8,2,1,60,0,0
42827,-66.6666666666667,8,2,1,60,0,0
43075,-133.333333333333,8,2,1,60,0,0
43323,-66.6666666666667,8,2,1,60,0,0
43570,-133.333333333333,8,2,1,60,0,0
43943,-66.6666666666667,8,2,1,60,0,0
44439,-133.333333333333,8,2,1,60,0,0
44811,-66.6666666666667,8,2,1,60,0,0
45059,-133.333333333333,8,2,1,60,0,0
45306,-66.6666666666667,8,2,1,60,0,0
45554,-133.333333333333,8,2,1,60,0,0
45926,-66.6666666666667,8,2,1,60,0,0
46422,-133.333333333333,8,2,1,60,0,0
46794,-66.6666666666667,8,2,1,60,0,0
47042,-133.333333333333,8,2,1,60,0,0
47289,-66.6666666666667,8,2,1,75,0,0
47290,247.933884297521,7,2,1,75,1,0
47537,-100,7,2,3,75,0,0
49025,247.933884297521,8,2,1,60,1,0
49025,-66.6666666666667,8,2,1,60,0,0
49272,-133.333333333333,8,2,1,60,0,0
49644,-66.6666666666667,8,2,1,60,0,0
50140,-133.333333333333,8,2,1,60,0,0
50512,-66.6666666666667,8,2,1,60,0,0
50760,-133.333333333333,8,2,1,60,0,0
51008,-66.6666666666667,8,2,1,60,0,0
51255,-133.333333333333,8,2,1,60,0,0
51628,-66.6666666666667,8,2,1,60,0,0
52124,-133.333333333333,8,2,1,60,0,0
52496,-66.6666666666667,8,2,1,60,0,0
52991,-66.6666666666667,8,2,1,60,0,0
53239,-133.333333333333,8,2,1,60,0,0
53611,-66.6666666666667,8,2,1,60,0,0
54107,-133.333333333333,8,2,1,60,0,0
54479,-66.6666666666667,8,2,1,60,0,0
54727,-133.333333333333,8,2,1,60,0,0
54974,-66.6666666666667,8,2,1,75,0,0
54975,247.933884297521,7,2,1,75,1,0
55222,-100,7,2,3,75,0,0
56710,-66.6666666666667,7,2,1,65,0,1
61917,247.933884297521,8,2,1,75,1,0
61917,-83.3333333333333,8,2,1,75,0,0
63900,-100,8,2,1,75,0,0
65883,-83.3333333333333,8,2,1,75,0,0
68611,-100,8,2,1,75,0,0
69850,-83.3333333333333,8,2,1,75,0,0
73445,-133.333333333333,8,2,1,75,0,0
73817,-83.3333333333333,8,2,1,75,0,0
74561,-100,8,2,1,75,0,0
75801,342.857142857143,5,2,1,60,1,0
76485,352.941176470588,5,2,1,50,1,0
77192,375,5,2,1,50,1,0
77944,461.538461538462,4,2,1,50,1,0
79790,340.909090909091,4,2,1,50,1,0
80471,340.909090909091,8,2,1,40,1,0
85499,-100,8,2,1,5,0,0
85584,-100,8,2,1,40,0,0
90016,-100,8,2,2,30,0,0
91039,-100,8,2,2,40,0,0
91380,-133.333333333333,8,2,2,40,0,0
92061,-66.6666666666667,8,2,2,50,0,0
92573,-83.3333333333333,8,2,2,50,0,0
93084,-100,8,2,2,50,0,0
93596,-133.333333333333,8,2,2,50,0,0
94107,-200,8,2,2,50,0,0
95130,-100,8,2,1,50,0,0
95471,-100,8,2,2,50,0,0
95811,-100,8,2,1,50,0,0
95982,-100,8,2,2,50,0,0
96834,-100,8,2,1,50,0,0
97516,-66.6666666666667,8,2,2,50,0,0
98027,-83.3333333333333,8,2,2,50,0,0
98539,-100,8,2,2,50,0,0
99050,-133.333333333333,8,2,2,50,0,0
99561,-200,8,2,2,50,0,0
99902,-200,8,2,1,50,0,0
100243,-200,8,2,2,50,0,0
100585,-100,8,2,2,50,0,0
102118,-100,8,2,1,50,0,0
102971,-66.6666666666667,8,2,2,50,0,0
103482,-83.3333333333333,8,2,2,50,0,0
104505,-100,8,2,2,50,0,0
105017,-200,8,2,2,50,0,0
106039,-100,8,2,2,50,0,0
107743,-100,8,2,1,50,0,0
108425,-66.6666666666667,8,2,2,50,0,0
108936,-83.3333333333333,8,2,2,50,0,0
109448,-100,8,2,2,50,0,0
109959,-133.333333333333,8,2,2,50,0,0
110471,-200,8,2,2,50,0,0
111493,-100,8,2,2,50,0,0
113198,-100,8,2,1,50,0,0
113368,-100,8,2,3,70,0,0
113709,-100,8,2,1,50,0,0
113879,-100,8,2,3,70,0,0
114221,-100,8,2,1,50,0,0
114391,-100,8,2,3,70,0,0
114732,-100,8,2,1,50,0,0
114902,-100,8,2,3,70,0,0
115243,-100,8,2,1,50,0,0
116607,-83.3333333333333,8,2,1,50,0,0
119846,-83.3333333333333,8,2,2,50,0,0
120016,-100,8,2,1,50,0,0
121721,-55.5555555555556,8,2,2,60,0,0
122061,-55.5555555555556,8,2,1,60,0,0
122232,-55.5555555555556,8,2,2,60,0,0
122743,-66.6666666666667,8,2,2,60,0,0
123255,-83.3333333333333,8,2,2,60,0,0
123425,-83.3333333333333,8,2,1,60,0,0
123766,-166.666666666667,8,2,2,60,0,0
124789,-166.666666666667,8,2,1,60,0,0
125471,-166.666666666667,8,2,2,60,0,0
125556,-166.666666666667,8,2,1,60,0,0
125811,-100,8,2,1,60,0,0
126834,-133.333333333333,8,2,1,60,0,0
127516,-55.5555555555556,8,2,2,60,0,0
128538,-66.6666666666667,8,2,2,60,0,0
128880,-66.6666666666667,8,2,1,60,0,0
129050,-83.3333333333333,8,2,2,60,0,0
129561,-166.666666666667,8,2,2,60,0,0
129647,-166.666666666667,8,2,1,60,0,0
129817,-166.666666666667,8,2,2,60,0,0
130073,-166.666666666667,8,2,1,60,0,0
130243,-100,8,2,1,60,0,0
131010,-100,8,2,2,60,0,0
131096,-100,8,2,1,60,0,0
131266,-100,8,2,2,60,0,0
131522,-100,8,2,1,60,0,0
132971,-55.5555555555556,8,2,1,60,0,0
133482,-55.5555555555556,8,2,2,60,0,0
133993,-66.6666666666667,8,2,2,60,0,0
134334,-66.6666666666667,8,2,1,60,0,0
134505,-83.3333333333333,8,2,2,60,0,0
135016,-100,8,2,1,60,0,0
135698,-100,8,2,2,60,0,0
135783,-100,8,2,1,60,0,0
136039,-100,8,2,2,60,0,0
136124,-100,8,2,1,60,0,0
136380,-100,8,2,2,60,0,0
136550,-100,8,2,1,60,0,0
137743,-100,8,2,2,60,0,0
137828,-100,8,2,2,5,0,0
138084,-100,8,2,1,60,0,0
138425,-66.6666666666667,8,2,1,60,0,0
138936,-100,8,2,1,60,0,0
139448,-66.6666666666667,8,2,1,60,0,0
139959,-100,8,2,2,60,0,0
140470,-100,8,2,1,60,0,0
141323,-100,8,2,1,40,0,0
141493,-100,8,2,1,45,0,0
141664,-100,8,2,1,50,0,0
142005,-100,8,2,1,60,0,0
143198,-83.3333333333333,8,2,1,50,0,0
145925,340.909090909091,4,2,1,35,1,0
146436,-83.3333333333333,4,2,1,35,0,0
148652,-83.3333333333333,4,2,2,35,0,0
148993,-83.3333333333333,4,2,1,35,0,0
149824,247.933884297521,8,2,1,35,1,0
150015,340.909090909091,4,2,1,35,1,0
150015,-83.3333333333333,8,2,1,35,0,0
150526,-100,8,2,1,35,0,0
152743,247.933884297521,4,2,2,50,1,0
153238,-100,4,2,1,50,0,0
153734,247.933884297521,8,2,1,80,1,1
153734,-66.6666666666667,8,2,1,80,0,1
155717,247.933884297521,15,2,1,80,1,1
155717,-55.5555555555556,15,2,1,80,0,1
155964,-66.6666666666667,15,2,1,80,0,1
159436,-55.5555555555556,15,2,1,80,0,1
159683,-66.6666666666667,15,2,1,80,0,1
163155,-40,15,2,1,80,0,1
163402,-66.6666666666667,15,2,1,80,0,1
165138,-50,15,2,1,80,0,1
165386,-66.6666666666667,15,2,1,80,0,1
166874,247.933884297521,8,2,1,80,1,1
166874,-55.5555555555556,15,2,1,80,0,1
167121,-66.6666666666667,15,2,1,80,0,1
170840,-83.3333333333333,15,2,1,60,0,0
185716,-83.3333333333333,15,2,1,80,0,0
186708,247.933884297521,12,2,1,80,1,1
186708,-55.5555555555556,12,2,1,80,0,1
192658,247.933884297521,4,2,1,80,1,0
192658,-66.6666666666667,4,2,1,80,0,0
194641,-100,4,2,1,80,0,1
201459,-100,4,2,2,80,0,1
201583,-100,4,2,2,80,0,0

[Colours]
Combo1 : 0,128,255
Combo2 : 147,163,183
Combo3 : 94,72,72
Combo4 : 117,186,255

[HitObjects]
164,173,185,6,0,B|143:234|30:196|60:61,1,225.000008583069,6|0,0:2|0:0,0:0:0:0:
139,32,432,2,0,P|167:56|180:91,1,75.0000028610231,2|0,0:0|0:0,0:0:0:0:
100,103,680,1,8,0:0:0:0:
261,98,804,6,0,P|250:171|217:238,1,150.000005722046,2|0,0:0|0:0,0:0:0:0:
471,113,1052,2,0,P|426:145|294:174,1,150.000005722046
203,329,1300,2,0,P|173:305|138:291,1,75.0000028610231
100,220,1548,1,0,0:0:0:0:
95,201,1610,1,0,0:0:0:0:
88,179,1672,6,0,B|60:126|60:126|50:226|30:318,1,225.000008583069,10|0,0:0|0:0,0:0:0:0:
62,384,1920,2,0,P|105:371|145:372,1,75.0000028610231
230,228,2168,2,0,B|185:187|185:187|212:283|223:378,1,225.000008583069,6|0,0:0|0:0,0:0:0:0:
314,373,2416,2,0,P|360:375|397:385,1,75.0000028610231,2|0,0:0|0:0,0:0:0:0:
498,305,2664,1,8,0:0:0:0:
428,245,2788,6,0,P|408:174|396:77,1,150.000005722046,2|0,0:0|0:0,0:0:0:0:
255,322,3036,2,0,P|298:262|342:175,1,150.000005722046
191,28,3284,2,0,P|198:64|215:97,1,75.0000028610231
317,116,3532,1,0,0:0:0:0:
310,98,3594,1,0,0:0:0:0:
297,79,3656,2,0,P|180:136|66:144,1,225.000008583069,10|0,0:0|0:0,0:0:0:0:
25,195,3904,5,0,0:0:0:0:
44,206,3965,1,0,0:0:0:0:
58,237,4027,1,0,0:0:0:0:
45,273,4089,1,0,0:0:0:0:
10,292,4151,2,0,B|35:320|35:320|105:281|248:288,1,225.000008583069,6|0,0:0|0:0,0:0:0:0:
336,312,4399,2,0,P|323:287|280:255,1,75.0000028610231,2|0,0:0|0:0,0:0:0:0:
195,360,4647,1,8,0:0:0:0:
134,213,4771,6,0,P|223:200|299:156,1,150.000005722046,2|0,0:0|0:0,0:0:0:0:
484,190,5019,2,0,P|398:161|331:105,1,150.000005722046
110,51,5267,2,0,P|144:83|169:130,1,75.0000028610231
80,125,5515,1,0,0:0:0:0:
75,142,5577,1,0,0:0:0:0:
67,162,5639,2,0,B|81:261|81:261|77:273|77:273|95:414,1,225.000008583069,10|0,0:0|0:0,0:0:0:0:
0,375,5887,2,0,P|55:330|120:335,1,112.500004291535
236,299,6135,6,0,P|190:316|170:360,1,100,6|0,0:0|0:0,0:0:0:0:
321,357,6382,1,10,0:0:0:0:
337,268,6506,1,8,0:0:0:0:
439,245,6630,1,8,0:0:0:0:
423,156,6754,1,8,0:0:0:0:
323,126,6878,1,10,0:0:0:0:
339,37,7002,1,8,0:0:0:0:
356,191,7126,1,10,0:0:0:0:
267,68,7250,1,8,0:0:0:0:
212,145,7374,1,8,0:0:0:0:
343,45,7498,1,8,0:0:0:0:
202,0,7622,1,8,0:0:0:0:
325,118,7746,1,0,0:0:0:0:
179,232,7870,6,0,B|102:245|102:245|97:250|97:250|22:262|22:262|114:305,1,225.000008583069,6|0,0:0|0:0,0:0:0:0:
135,384,8117,2,0,L|157:285,1,75.0000028610231,2|0,0:0|0:0,0:0:0:0:
58,183,8365,1,8,0:0:0:0:
106,114,8489,6,0,P|175:154|180:247,1,150.000005722046,2|0,0:0|0:0,0:0:0:0:
301,20,8737,2,0,P|328:94|272:169,1,150.000005722046
348,381,8985,2,0,P|332:345|320:278,1,75.0000028610231
424,280,9233,1,0,0:0:0:0:
420,298,9295,1,0,0:0:0:0:
412,319,9357,6,0,B|423:341|423:341|330:310|195:293,1,225.000008583069,10|0,0:0|0:0,0:0:0:0:
128,236,9605,2,0,P|142:276|149:334,1,75.0000028610231
16,147,9853,2,0,B|5:169|5:169|103:132|233:121,1,225.000008583069,6|0,0:0|0:0,0:0:0:0:
300,64,10101,2,0,P|286:104|279:162,1,75.0000028610231,2|0,0:0|0:0,0:0:0:0:
339,283,10349,1,8,0:0:0:0:
378,208,10473,6,0,P|264:246|257:319,1,150.000005722046,2|0,0:0|0:0,0:0:0:0:
143,62,10721,2,0,P|237:136|218:207,1,150.000005722046
74,302,10969,2,0,P|96:267|124:240,1,75.0000028610231
206,324,11217,1,0,0:0:0:0:
298,339,11341,6,0,P|327:310|323:209,1,100.000003814697,10|0,0:0|0:0,0:0:0:0:
253,187,11506,6,0,P|263:226|353:273,1,100.000003814697,6|0,0:0|0:0,0:0:0:0:
413,219,11671,6,0,P|373:208|287:262,1,100.000003814697,6|0,0:0|0:0,0:0:0:0:
387,373,11836,6,0,L|368:147,1,225.000008583069,6|0,0:0|0:0,0:0:0:0:
472,76,12084,2,0,P|457:127|428:174,1,75.0000028610231,2|0,0:0|0:0,0:0:0:0:
248,177,12332,1,8,0:0:0:0:
160,134,12456,6,0,L|173:283,1,150.000005722046,2|0,0:0|0:0,0:0:0:0:
387,373,12704,2,0,L|400:223,1,150.000005722046
68,109,12952,2,0,L|91:213,1,75.0000028610231
160,134,13200,1,0,0:0:0:0:
177,128,13262,1,0,0:0:0:0:
198,120,13324,2,0,B|234:98|234:98|199:321,1,225.000008583069,10|0,0:0|0:0,0:0:0:0:
274,345,13572,2,0,P|243:313|149:306,1,112.500004291535
288,252,13820,6,0,P|334:235|372:195,1,100,6|0,0:0|0:0,0:0:0:0:
317,62,14067,1,10,0:0:0:0:
306,151,14191,1,8,0:0:0:0:
198,120,14315,1,8,0:0:0:0:
218,207,14439,1,8,0:0:0:0:
119,229,14563,1,10,0:0:0:0:
167,303,14687,1,8,0:0:0:0:
86,337,14811,1,10,0:0:0:0:
115,239,14935,1,8,0:0:0:0:
179,383,15059,1,8,0:0:0:0:
214,213,15183,1,8,0:0:0:0:
89,331,15307,1,8,0:0:0:0:
39,189,15431,1,0,0:0:0:0:
249,288,15555,6,0,B|305:316|354:268|354:268|399:219|482:245,1,225.000008583069,4|0,0:0|0:0,0:0:0:0:
497,334,15802,2,0,P|432:320|374:259,1,119.999996337891,10|0,0:0|0:0,0:0:0:0:
368,161,16050,1,2,0:0:0:0:
321,310,16174,1,2,0:0:0:0:
230,203,16298,2,0,P|263:212|286:223,1,59.9999981689454,8|0,0:0|0:0,0:0:0:0:
472,187,16422,6,0,P|424:222|381:281,1,119.999996337891,2|0,0:0|0:0,0:0:0:0:
185,91,16670,2,0,P|217:140|237:210,1,119.999996337891,0|8,0:0|0:0,0:0:0:0:
34,366,16918,2,0,P|30:306|48:236,1,119.999996337891,2|0,0:0|0:0,0:0:0:0:
184,83,17166,1,2,0:0:0:0:
41,155,17290,1,8,0:0:0:0:
267,268,17414,6,0,B|360:276|360:276|365:279|365:279|469:289,1,179.999994506836,6|0,0:0|0:0,0:0:0:0:
510,330,17662,1,0,0:0:0:0:
512,187,17786,2,0,L|380:210,1,119.999996337891,10|0,0:0|0:0,0:0:0:0:
330,347,18034,1,0,0:0:0:0:
280,189,18158,1,0,0:0:0:0:
217,302,18282,6,0,P|255:287|277:268,1,59.9999981689454,8|0,0:0|0:0,0:0:0:0:
215,105,18406,2,0,L|184:230,2,119.999996337891
340,246,18778,2,0,P|365:214|374:186,1,59.9999981689454,8|0,0:0|0:0,0:0:0:0:
417,28,18902,2,0,L|435:146,2,119.999996337891
273,116,19274,2,0,L|211:104,1,59.9999981689454,8|0,0:0|0:0,0:0:0:0:
136,220,19397,1,0,0:3:0:0:
94,227,19459,1,0,0:3:0:0:
52,234,19521,1,4,0:3:0:0:
10,243,19769,6,0,L|149:219,1,119.999996337891,14|0,0:0|0:0,0:0:0:0:
302,318,20017,1,2,0:0:0:0:
215,190,20141,1,2,0:0:0:0:
172,322,20265,2,0,P|185:288|206:262,1,59.9999981689454,8|0,0:0|0:0,0:0:0:0:
327,234,20389,6,0,P|261:219|205:152,1,119.999996337891,2|0,0:0|0:0,0:0:0:0:
6,161,20637,2,0,P|67:135|111:59,1,119.999996337891,0|8,0:0|0:0,0:0:0:0:
334,36,20885,2,0,L|357:166,1,119.999996337891,2|0,0:0|0:0,0:0:0:0:
474,245,21133,1,2,0:0:0:0:
330,133,21257,1,8,0:0:0:0:
295,348,21381,6,0,P|354:338|376:227,1,179.999994506836,2|0,0:0|0:0,0:0:0:0:
313,206,21629,1,0,0:0:0:0:
221,306,21753,2,0,P|161:310|100:344,1,119.999996337891,10|0,0:0|0:0,0:0:0:0:
26,210,22001,1,0,0:0:0:0:
143,298,22125,1,0,0:0:0:0:
167,125,22249,6,0,P|142:129|110:147,1,59.9999981689454,8|0,0:0|0:0,0:0:0:0:
58,279,22373,2,0,L|34:125,2,119.999996337891
242,195,22745,2,0,P|266:199|298:217,1,59.9999981689454,8|0,0:0|0:0,0:0:0:0:
351,349,22869,2,0,L|375:195,2,119.999996337891
437,191,23240,1,8,0:0:0:0:
279,373,23364,1,8,0:0:0:0:
131,176,23488,6,0,B|143:133|143:133|182:263,1,179.999994506836,4|0,0:0|0:0,0:0:0:0:
136,336,23736,2,0,P|67:330|30:272,1,119.999996337891,10|0,0:0|0:0,0:0:0:0:
146,125,23984,1,2,0:0:0:0:
105,267,24108,1,0,0:0:0:0:
39,194,24232,1,8,0:0:0:0:
242,192,24356,6,0,P|307:207|354:239,1,119.999996337891,2|0,0:0|0:0,0:0:0:0:
512,323,24604,2,0,P|446:338|399:370,1,119.999996337891,0|8,0:0|0:0,0:0:0:0:
169,355,24852,2,0,B|178:368|178:368|213:243,1,119.999996337891,2|0,0:0|0:0,0:0:0:0:
63,113,25100,1,2,0:0:0:0:
108,259,25224,1,8,0:0:0:0:
243,114,25348,6,0,B|316:107|316:107|322:102|322:102|422:90,1,179.999994506836,6|0,0:0|0:0,0:0:0:0:
473,39,25596,1,0,0:0:0:0:
505,231,25720,2,0,P|446:225|401:186,1,119.999996337891,10|0,0:0|0:0,0:0:0:0:
375,23,25968,1,0,0:0:0:0:
480,152,26092,1,0,0:0:0:0:
348,250,26216,6,0,L|249:265,1,59.9999981689454,8|0,0:0|0:0,0:0:0:0:
399,364,26340,2,0,L|429:247,1,119.999996337891
348,99,26588,1,0,0:0:0:0:
199,179,26712,2,0,L|100:164,1,59.9999981689454,8|0,0:0|0:0,0:0:0:0:
250,65,26836,2,0,L|280:181,1,119.999996337891
174,312,27083,5,0,0:0:0:0:
156,349,27145,1,0,0:0:0:0:
117,365,27207,1,0,0:0:0:0:
66,344,27269,1,0,0:0:0:0:
48,291,27331,1,0,0:0:0:0:
53,238,27393,1,0,0:0:0:0:
84,194,27455,1,0,0:0:0:0:
134,180,27703,6,0,P|74:230|62:274,1,119.999996337891,14|0,0:0|0:0,0:0:0:0:
172,321,27951,1,2,0:0:0:0:
131,168,28075,1,0,0:0:0:0:
255,338,28199,2,0,L|272:280,1,59.9999981689454,10|0,0:0|0:0,0:0:0:0:
306,177,28323,6,0,B|319:189|319:189|219:201,1,119.999996337891,2|0,0:0|0:0,0:0:0:0:
81,32,28571,2,0,B|67:44|67:44|167:56,1,119.999996337891,0|8,0:0|0:0,0:0:0:0:
423,24,28819,2,0,P|439:64|450:155,1,119.999996337891,2|0,0:0|0:0,0:0:0:0:
498,280,29067,1,2,0:0:0:0:
364,121,29191,1,8,0:0:0:0:
280,363,29315,6,0,B|264:273|264:273|259:269|259:269|240:167,1,179.999994506836,6|0,0:0|0:0,0:0:0:0:
191,133,29563,1,0,0:0:0:0:
31,327,29687,2,0,P|80:359|143:357,1,119.999996337891,8|0,0:0|0:0,0:0:0:0:
280,267,29935,1,0,0:0:0:0:
115,107,30059,1,0,0:0:0:0:
106,287,30183,6,0,P|129:278|158:254,1,59.9999981689454,8|0,0:0|0:0,0:0:0:0:
260,77,30307,2,0,P|297:160|368:218,1,179.999994506836
440,220,30555,1,0,0:0:0:0:
512,62,30679,2,0,P|482:55|452:60,1,59.9999981689454,8|0,0:0|0:0,0:0:0:0:
383,1,30802,2,0,P|364:84|376:136,1,119.999996337891
434,298,31050,5,0,0:0:0:0:
467,300,31112,1,0,0:0:0:0:
502,271,31174,1,8,0:0:0:0:
449,136,31298,1,8,0:0:0:0:
199,268,31422,6,0,L|27:251,1,160,2|0,0:0|0:0,0:0:0:0:
162,106,31794,2,0,B|187:70|187:70|226:216,1,160,2|0,0:0|0:0,0:0:0:0:
265,384,32166,2,0,L|298:194,1,160,2|0,0:0|0:0,0:0:0:0:
464,102,32538,2,0,L|364:117,1,80,2|0,0:0|0:0,0:0:0:0:
293,82,32786,1,0,0:0:0:0:
370,203,32910,5,2,0:0:0:0:
358,282,33034,1,0,0:0:0:0:
429,296,33158,1,4,0:3:0:0:
435,349,33282,1,4,0:3:0:0:
214,270,33406,6,0,B|245:298|245:298|143:310|143:310|133:333|133:333|42:348|42:348|67:281,1,300.000011444092,6|0,0:0|0:0,0:0:0:0:
88,62,33778,2,0,B|100:112|100:112|112:126|112:126|140:229|140:229|96:196|96:196|86:195|86:195|31:156,1,300.000011444092,10|0,0:0|0:0,0:0:0:0:
170,34,34150,2,0,B|233:39|233:39|242:45|242:45|336:50|336:50|347:44|347:44|424:51|424:51|434:59|434:59|483:61,1,300.000011444092,2|0,0:0|0:0,0:0:0:0:
432,228,34521,2,0,B|414:247|414:247|381:71,1,150.000005722046,2|0,0:0|0:0,0:0:0:0:
338,64,34707,5,0,0:0:0:0:
301,71,34769,1,0,0:0:0:0:
264,77,34831,1,0,0:0:0:0:
227,83,34893,2,0,B|207:152|207:152|215:173|215:173|200:245,1,150.000005722046,10|0,0:0|0:0,0:0:0:0:
322,346,35141,2,0,B|356:339|356:339|344:285|344:285|248:296|248:296|233:306|233:306|126:319,1,300.000011444092,10|0,0:0|0:0,0:0:0:0:
138,317,35637,5,2,0:0:0:0:
119,299,35699,1,2,0:0:0:0:
112,263,35761,1,2,0:0:0:0:
140,212,35823,1,2,0:0:0:0:
205,205,35885,2,0,B|206:266|206:266|221:379,1,150.000005722046,2|0,0:0|0:0,0:0:0:0:
438,384,36133,2,0,B|454:286|454:286|451:234,1,150.000005722046,2|0,0:0|0:0,0:0:0:0:
336,27,36381,6,0,B|373:67|373:67|277:58|277:58|240:110|240:110|102:147,1,300.000011444092,6|0,0:0|0:0,0:0:0:0:
20,13,36753,2,0,B|25:58|25:58|14:69|14:69|29:218|29:218|39:224|39:224|52:335,1,300.000011444092,10|0,0:0|0:0,0:0:0:0:
321,363,37125,2,0,B|341:228|341:228|351:213|351:213|376:32,1,300.000011444092,2|0,0:0|0:0,0:0:0:0:
484,186,37497,2,0,B|488:244|488:244|495:249|495:249|361:266,1,150.000005722046,2|0,0:0|0:0,0:0:0:0:
335,271,37683,1,0,0:0:0:0:
298,259,37745,1,0,0:0:0:0:
167,318,37869,5,10,0:0:0:0:
82,49,38116,1,8,0:0:0:0:
82,49,38612,5,2,0:0:0:0:
75,84,38674,1,0,0:0:0:0:
68,121,38736,1,0,0:0:0:0:
62,158,38798,1,0,0:0:0:0:
56,194,38860,5,10,0:0:0:0:
157,111,38984,1,8,0:0:0:0:
309,209,39108,1,8,0:0:0:0:
430,56,39232,1,8,0:0:0:0:
496,320,39356,6,0,B|442:315|442:315|417:305|417:305|349:299,1,150.000005722046,6|0,0:0|0:0,0:0:0:0:
147,384,39604,2,0,L|122:233,1,150.000005722046,10|0,0:0|0:0,0:0:0:0:
5,54,39852,1,2,0:0:0:0:
51,276,39976,1,0,0:0:0:0:
152,99,40100,1,8,0:0:0:0:
218,295,40224,6,0,P|285:339|380:326,1,150.000005722046,2|0,0:0|0:0,0:0:0:0:
480,242,40472,1,0,0:0:0:0:
410,384,40596,1,10,0:0:0:0:
303,264,40720,2,0,P|289:238|283:191,1,75.0000028610231
363,66,40844,1,10,0:0:0:0:
209,123,40968,1,10,0:0:0:0:
376,209,41092,1,10,0:0:0:0:
278,0,41216,1,10,0:0:0:0:
220,263,41340,6,0,B|255:219|328:237|328:237|402:252|427:209,1,225.000008583069,6|0,0:0|0:0,0:0:0:0:
502,201,41587,2,0,P|489:166|460:141,1,75.0000028610231
358,163,41835,1,8,0:0:0:0:
289,310,41959,6,0,P|225:353|136:359,1,150.000005722046,2|0,0:0|0:0,0:0:0:0:
161,128,42207,2,0,P|204:192|210:281,1,150.000005722046
35,224,42455,2,0,P|65:200|100:186,1,75.0000028610231
161,128,42703,1,0,0:0:0:0:
166,109,42765,1,0,0:0:0:0:
173,87,42827,6,0,B|201:34|201:34|209:129|231:226,1,225.000008583069,10|0,0:0|0:0,0:0:0:0:
375,212,43075,2,0,P|335:204|306:178,1,75.0000028610231,2|0,0:0|0:0,0:0:0:0:
106,214,43323,2,0,B|142:166|142:166|129:285|138:360,1,225.000008583069,6|0,0:0|0:0,0:0:0:0:
283,371,43571,2,0,P|244:356|220:325,1,75.0000028610231
78,379,43819,1,8,0:0:0:0:
298,299,43943,6,0,P|384:283|475:279,1,150.000005722046,2|0,0:0|0:0,0:0:0:0:
146,159,44191,2,0,P|64:128|-25:108,1,150.000005722046
296,27,44439,2,0,P|306:62|325:93,1,75.0000028610231
401,126,44687,1,0,0:0:0:0:
419,133,44749,1,0,0:0:0:0:
438,146,44811,2,0,P|381:263|373:377,1,225.000008583069,14|0,0:0|0:0,0:0:0:0:
302,384,45059,5,0,0:0:0:0:
294,362,45121,1,0,0:0:0:0:
266,349,45183,1,0,0:0:0:0:
215,350,45244,1,0,0:0:0:0:
178,384,45306,6,0,B|161:292|161:292|151:276|151:276|119:117,1,225.000008583069,4|0,0:0|0:0,0:0:0:0:
267,131,45554,2,0,P|254:156|211:188,1,75.0000028610231
61,116,45802,1,8,0:0:0:0:
0,248,45926,6,0,P|78:278|173:266,1,150.000005722046,2|0,0:0|0:0,0:0:0:0:
390,349,46174,2,0,P|349:275|268:223,1,150.000005722046
48,120,46422,2,0,P|60:155|83:185,1,75.0000028610231
135,119,46670,1,0,0:0:0:0:
152,112,46732,1,0,0:0:0:0:
172,106,46794,2,0,B|280:101|280:101|287:98|287:98|399:91,1,225.000008583069,10|0,0:0|0:0,0:0:0:0:
445,29,47042,2,0,B|430:28|430:28|399:151,1,112.500004291535
508,220,47290,6,0,L|487:113,1,100,6|0,0:0|0:0,0:0:0:0:
331,25,47537,1,2,0:0:0:0:
388,129,47661,1,0,0:0:0:0:
265,134,47785,1,0,0:0:0:0:
354,212,47909,1,0,0:0:0:0:
246,257,48033,1,2,0:0:0:0:
356,299,48157,1,0,0:0:0:0:
432,199,48281,1,2,0:0:0:0:
484,340,48405,1,0,0:0:0:0:
356,219,48529,1,0,0:0:0:0:
275,336,48653,1,0,0:0:0:0:
434,210,48777,1,0,0:0:0:0:
492,344,48901,1,0,0:0:0:0:
223,265,49025,6,0,B|145:271|145:271|139:275|139:275|52:285|52:285|46:283|46:283|-26:290,1,225.000008583069,6|0,0:0|0:0,0:0:0:0:
67,210,49272,2,0,L|44:138,1,75.0000028610231,2|0,0:0|0:0,0:0:0:0:
95,69,49520,1,8,0:0:0:0:
227,270,49644,6,0,B|240:194|240:194|244:189|244:189|256:118,1,150.000005722046,2|0,0:0|0:0,0:0:0:0:
406,32,49892,2,0,B|419:107|419:107|423:112|423:112|435:183,1,150.000005722046
286,354,50140,2,0,P|322:338|389:326,1,75.0000028610231
433,359,50388,1,0,0:0:0:0:
450,361,50450,1,0,0:0:0:0:
472,360,50512,6,0,B|488:377|488:377|495:312|431:251|339:233,1,225.000008583069,10|0,0:0|0:0,0:0:0:0:
281,267,50760,2,0,P|270:227|265:193,1,75.0000028610231
0,288,51008,2,0,B|-16:305|-16:305|-23:240|40:179|132:161,1,225.000008583069,6|0,0:0|0:0,0:0:0:0:
185,205,51256,2,0,P|196:165|200:131,1,75.0000028610231,2|0,0:0|0:0,0:0:0:0:
99,13,51504,1,8,0:0:0:0:
18,28,51628,6,0,P|66:82|139:82,1,150.000005722046,2|0,0:0|0:0,0:0:0:0:
418,120,51876,2,0,P|360:165|288:152,1,150.000005722046
99,334,52124,2,0,P|121:299|149:272,1,75.0000028610231
245,276,52372,1,0,0:0:0:0:
261,285,52434,1,0,0:0:0:0:
295,298,52496,6,0,P|343:256|400:254,1,100.000003814697,10|0,0:0|0:0,0:0:0:0:
451,373,52661,6,0,P|403:362|368:326,1,100.000003814697,10|0,0:0|0:0,0:0:0:0:
440,201,52826,6,0,P|454:249|441:296,1,100.000003814697,10|0,0:0|0:0,0:0:0:0:
231,376,52991,6,0,B|214:259|214:259|223:246|223:246|205:115,1,225.000008583069,6|0,0:0|0:0,0:0:0:0:
118,124,53239,2,0,P|146:155|197:171,1,75.0000028610231,2|0,0:0|0:0,0:0:0:0:
281,108,53487,1,8,0:0:0:0:
111,39,53611,6,0,L|93:188,1,150.000005722046,2|0,0:0|0:0,0:0:0:0:
360,101,53859,2,0,L|377:250,1,150.000005722046
47,344,54107,2,0,L|31:271,1,75.0000028610231
113,268,54355,1,0,0:0:0:0:
126,277,54417,1,0,0:0:0:0:
143,289,54479,2,0,B|170:321|170:321|206:98,1,225.000008583069,10|0,0:0|0:0,0:0:0:0:
88,89,54727,2,0,P|82:150|113:192,1,112.500004291535
216,161,54975,6,0,L|318:149,1,100,6|0,0:0|0:0,0:0:0:0:
463,233,55222,1,10,0:0:0:0:
412,147,55346,1,8,0:0:0:0:
386,276,55470,1,8,0:0:0:0:
335,362,55594,1,8,0:0:0:0:
336,198,55718,1,10,0:0:0:0:
285,112,55842,1,8,0:0:0:0:
125,159,55966,1,10,0:0:0:0:
331,202,56090,1,8,0:0:0:0:
211,259,56214,1,8,0:0:0:0:
148,84,56338,1,8,0:0:0:0:
205,264,56462,1,8,0:0:0:0:
281,117,56586,1,0,0:0:0:0:
474,254,56710,6,0,B|486:274|486:274|410:282|410:282|401:280|401:280|262:292,1,225.000008583069,6|0,0:0|0:0,0:0:0:0:
247,379,56958,2,0,P|199:330|201:247,1,150.000005722046,10|0,0:0|0:0,0:0:0:0:
336,198,57206,1,2,0:0:0:0:
394,357,57330,1,0,0:0:0:0:
496,172,57454,2,0,L|405:162,1,75.0000028610231,10|0,0:0|0:0,0:0:0:0:
300,97,57578,2,0,B|281:72|281:72|250:188,1,150.000005722046,2|0,0:0|0:0,0:0:0:0:
388,267,57826,5,0,0:0:0:0:
384,82,57950,1,8,0:0:0:0:
250,188,58074,1,0,0:0:0:0:
212,192,58136,1,0,0:0:0:0:
173,196,58198,1,8,0:0:0:0:
73,130,58322,1,8,0:0:0:0:
287,61,58446,6,0,P|385:104|414:214,1,225.000008583069,6|0,0:0|0:0,0:0:0:0:
269,255,58694,2,0,P|223:160|253:78,1,150.000005722046,10|0,0:0|0:0,0:0:0:0:
405,20,58941,1,2,0:0:0:0:
491,165,59065,1,0,0:0:0:0:
321,168,59189,2,0,P|280:173|245:191,1,75.0000028610231,10|0,0:0|0:0,0:0:0:0:
187,301,59313,2,0,B|175:240|175:240|166:230|166:230|142:122,1,150.000005722046,2|0,0:0|0:0,0:0:0:0:
37,59,59561,5,0,0:0:0:0:
0,273,59685,1,2,0:0:0:0:
58,280,59747,1,0,0:0:0:0:
118,286,59809,1,0,0:0:0:0:
178,294,59871,1,0,0:0:0:0:
210,324,59933,1,4,0:3:0:0:
246,320,59995,1,4,0:3:0:0:
282,317,60057,1,4,0:3:0:0:
319,314,60119,1,4,0:3:0:0:
360,298,60181,6,0,B|400:314|400:314|383:193|383:193|375:191|375:191|364:107,1,225.000008583069,6|0,0:0|0:0,0:0:0:0:
473,58,60429,2,0,L|459:226,1,150.000005722046,10|0,0:0|0:0,0:0:0:0:
304,357,60677,1,2,0:0:0:0:
478,286,60801,1,0,0:0:0:0:
368,139,60925,2,0,B|338:118|338:118|288:118,1,75.0000028610231,10|0,0:0|0:0,0:0:0:0:
159,66,61049,2,0,B|181:215,1,150.000005722046,2|0,0:0|0:0,0:0:0:0:
294,367,61297,5,0,0:0:0:0:
92,249,61421,1,8,0:0:0:0:
261,188,61545,1,0,0:0:0:0:
267,151,61607,1,0,0:0:0:0:
272,113,61669,1,8,0:0:0:0:
201,0,61793,1,8,0:0:0:0:
276,280,61917,6,0,P|337:279|381:224,2,119.999996337891,6|0|0,0:0|0:0|0:0,0:0:0:0:
108,270,62288,2,0,P|139:323|209:334,2,119.999996337891,2|0|0,0:0|0:0|0:0,0:0:0:0:
34,123,62660,2,0,P|3:176|28:242,2,119.999996337891,2|0|0,0:0|0:0|0:0,0:0:0:0:
116,29,63032,2,0,L|148:176,1,119.999996337891,2|0,0:0|0:0,0:0:0:0:
191,260,63280,1,0,0:0:0:0:
391,202,63404,5,14,0:0:0:0:
306,194,63528,1,0,0:0:0:0:
108,232,63652,1,8,0:0:0:0:
307,185,63776,1,8,0:0:0:0:
299,35,63900,6,0,B|276:38|276:38|249:129,1,100,2|0,0:0|0:0,0:0:0:0:
365,332,64148,1,2,0:0:0:0:
452,345,64272,2,0,B|472:334|472:334|465:238,1,100,2|10,0:0|0:0,0:0:0:0:
135,341,64520,2,0,L|271:356,1,100,0|10,0:0|0:0,0:0:0:0:
361,336,64768,5,0,0:0:0:0:
240,335,64892,1,10,0:0:0:0:
154,241,65016,1,0,0:0:0:0:
231,337,65140,5,6,0:0:0:0:
171,224,65264,1,10,0:0:0:0:
216,100,65388,1,2,0:0:0:0:
188,206,65512,5,6,0:0:0:0:
262,83,65636,1,8,0:0:0:0:
404,38,65760,1,0,0:0:0:0:
170,115,65883,6,0,B|110:97|110:97|102:99|102:99|53:84,2,119.999996337891,6|0|0,0:0|0:0|0:0,0:0:0:0:
397,200,66255,2,0,B|457:182|457:182|465:184|465:184|514:169,2,119.999996337891,2|0|0,0:0|0:0|0:0,0:0:0:0:
151,293,66627,2,0,B|91:275|91:275|83:277|83:277|34:262,2,119.999996337891,2|0|0,0:0|0:0|0:0,0:0:0:0:
348,377,66999,5,2,0:0:0:0:
365,282,67123,1,0,0:0:0:0:
382,187,67247,1,0,0:0:0:0:
225,121,67371,1,10,0:0:0:0:
299,223,67495,1,0,0:0:0:0:
261,344,67619,1,4,0:3:0:0:
253,308,67743,1,4,0:3:0:0:
98,370,67867,5,2,0:0:0:0:
140,306,67991,1,2,0:0:0:0:
64,334,68115,1,2,0:0:0:0:
92,298,68239,1,2,0:0:0:0:
51,303,68363,1,2,0:0:0:0:
34,213,68487,1,0,0:0:0:0:
141,70,68611,6,0,P|127:136|100:173,1,100,8|0,0:0|0:0,0:0:0:0:
25,127,68859,1,0,0:0:0:0:
20,103,68983,1,0,0:0:0:0:
207,23,69107,2,0,P|238:82|242:129,1,100,8|0,0:0|0:0,0:0:0:0:
65,39,69355,1,0,0:0:0:0:
300,7,69478,2,0,P|361:32|394:65,1,100,8|0,0:0|0:0,0:0:0:0:
317,165,69726,2,0,P|324:140|341:121,1,50,8|0,0:0|0:0,0:0:0:0:
512,167,69850,6,0,B|473:168|473:168|468:172|468:172|360:180,2,119.999996337891,6|0|0,0:0|0:0|0:0,0:0:0:0:
149,220,70222,2,0,B|187:221|187:221|193:225|193:225|267:230,2,119.999996337891,2|0|0,0:0|0:0|0:0,0:0:0:0:
356,371,70594,2,0,B|355:332|355:332|351:327|351:327|343:219,2,119.999996337891,2|0|0,0:0|0:0|0:0,0:0:0:0:
346,0,70966,5,2,0:0:0:0:
332,83,71090,1,0,0:0:0:0:
317,166,71214,1,0,0:0:0:0:
429,258,71338,1,12,0:0:0:0:
307,166,71462,1,0,0:0:0:0:
213,264,71586,5,4,0:3:0:0:
223,225,71710,1,4,0:3:0:0:
116,104,71834,5,2,0:0:0:0:
144,183,71958,1,2,0:0:0:0:
99,254,72082,1,2,0:0:0:0:
143,324,72206,1,2,0:0:0:0:
297,384,72330,5,2,0:0:0:0:
341,314,72454,1,2,0:0:0:0:
296,243,72578,1,2,0:0:0:0:
324,164,72702,1,2,0:0:0:0:
461,39,72826,5,8,0:0:0:0:
479,82,72950,1,0,0:0:0:0:
416,139,73074,1,2,0:0:0:0:
299,85,73197,1,0,0:0:0:0:
175,154,73321,1,2,0:0:0:0:
23,60,73445,2,0,P|85:40|205:43,1,150.000005722046,2|0,0:0|0:0,0:0:0:0:
489,241,73817,6,0,P|437:239|375:201,1,119.999996337891,6|0,0:0|0:0,0:0:0:0:
487,146,74065,1,0,0:0:0:0:
335,303,74189,2,0,P|300:256|291:197,1,119.999996337891,2|0,0:0|0:0,0:0:0:0:
495,143,74437,1,0,0:0:0:0:
208,163,74561,6,0,P|177:214|174:268,1,100,2|0,0:0|0:0,0:0:0:0:
326,308,74809,1,0,0:0:0:0:
189,84,74933,2,0,P|132:103|95:142,1,100,2|0,0:0|0:0,0:0:0:0:
318,312,75181,1,0,0:0:0:0:
89,338,75305,1,14,0:0:0:0:
244,286,75429,1,0,0:0:0:0:
50,243,75553,1,0,0:0:0:0:
259,358,75677,1,8,0:0:0:0:
313,154,75801,6,0,B|299:85|299:85|276:67,3,100,4|4|4|4,0:3|0:3|0:3|0:3,0:0:0:0:
127,159,76485,5,4,0:3:0:0:
298,281,76661,2,0,P|314:257|315:234,1,50,14|0,0:0|0:0,0:0:0:0:
216,143,76837,1,0,0:0:0:0:
237,231,77014,1,0,0:0:0:0:
379,310,77192,6,0,P|406:301|422:286,1,50,14|0,0:0|0:0,0:0:0:0:
407,185,77379,1,0,0:0:0:0:
243,359,77567,2,0,P|217:346|204:328,1,50,14|0,0:0|0:0,0:0:0:0:
237,231,77754,1,0,0:0:0:0:
38,128,77944,6,0,B|56:197|56:197|48:206|48:206|69:299,1,150,6|0,0:0|0:0,0:0:0:0:
211,378,78405,2,0,B|214:307|214:307|221:300|221:300|225:228,1,150,6|0,0:0|0:0,0:0:0:0:
318,96,78867,2,0,B|326:167|326:167|331:173|331:173|342:246,1,150,6|0,0:0|0:0,0:0:0:0:
423,347,79328,2,0,B|431:303|431:303|425:290|425:290|433:228,1,100,2|0,0:0|0:0,0:0:0:0:
357,201,79674,1,0,0:0:0:0:
504,128,79790,5,10,0:0:0:0:
428,97,79960,1,0,0:0:0:0:
370,106,80130,1,4,0:3:0:0:
328,82,80301,1,2,0:0:0:0:
256,192,80471,5,2,0:0:0:0:
256,192,80556,12,0,85499,0:0:0:0:
140,124,85584,6,0,L|160:247,2,66.6666666666667
96,248,85925,1,0,0:0:0:0:
36,82,90016,5,0,0:0:0:0:
39,87,90186,1,0,0:0:0:0:
117,68,90357,1,0,0:0:0:0:
120,74,90527,1,0,0:0:0:0:
197,49,90698,1,0,0:0:0:0:
200,54,90868,1,0,0:0:0:0:
36,82,91039,5,4,0:0:0:0:
86,236,91380,2,0,B|81:179|100:129|100:129|85:151|60:158,1,150.000005722046,8|0,0:0|0:0,0:0:0:0:
69,155,92061,6,0,B|38:331|38:331|114:358|183:281,1,300.000011444092,10|0,0:0|0:0,0:0:0:0:
277,50,92573,2,0,B|189:62|189:62|183:67|183:67|97:77|97:77|133:84|168:130,1,239.999992675781,6|0,0:0|0:0,0:0:0:0:
244,336,93084,2,0,L|273:126,1,200,6|8,0:0|0:0,0:0:0:0:
381,370,93596,2,0,L|354:193,1,150.000005722046,6|0,0:0|0:0,0:0:0:0:
376,77,94107,6,0,P|435:36|421:128,1,200,2|8,0:0|0:0,0:0:0:0:
438,125,95130,5,0,0:0:0:0:
328,236,95300,2,0,P|382:248|442:250,1,100,0|2,0:0|0:0,0:0:0:0:
436,132,95641,1,2,0:0:0:0:
491,318,95811,2,0,P|437:330|377:332,1,100
326,230,96152,1,8,0:0:0:0:
328,236,96493,5,4,0:0:0:0:
305,362,96664,1,0,0:0:0:0:
346,156,96834,1,0,0:0:0:0:
305,356,97175,1,0,0:0:0:0:
387,64,97516,6,0,B|305:58|256:128|256:128|208:203|124:198,1,300.000011444092,10|0,0:0|0:0,0:0:0:0:
14,40,98027,2,0,B|47:12|90:25|90:25|104:123|28:205,1,239.999992675781,6|0,0:0|0:0,0:0:0:0:
0,349,98539,2,0,P|98:339|185:384,1,200,6|8,0:0|0:0,0:0:0:0:
0,337,99050,2,0,P|40:308|75:302,2,75.0000028610231,6|0|0,0:0|0:0|0:0,0:0:0:0:
143,264,99561,6,0,P|192:292|228:295,1,75,6|0,0:0|0:0,0:0:0:0:
271,336,99902,1,0,0:0:0:0:
440,176,100158,1,0,0:0:0:0:
434,185,100243,2,0,P|412:196|387:201,1,50,8|0,0:0|0:0,0:0:0:0:
324,258,100584,5,4,0:0:0:0:
243,244,100755,1,0,0:0:0:0:
128,178,100925,2,0,L|142:298,1,100,2|0,0:0|0:0,0:0:0:0:
135,282,101181,1,0,0:0:0:0:
130,288,101266,1,2,0:0:0:0:
58,149,101522,1,0,0:0:0:0:
50,151,101607,1,10,0:0:0:0:
153,27,101948,1,4,0:0:0:0:
68,63,102118,1,0,0:0:0:0:
205,140,102289,6,0,P|307:138|416:98,1,200
401,103,102971,2,0,B|415:81|297:31|255:141|294:241|359:273,1,300.000011444092,10|0,0:0|0:0,0:0:0:0:
494,34,103482,2,0,B|473:148|473:148|449:166|449:166|426:307,1,239.999992675781,6|0,0:0|0:0,0:0:0:0:
201,358,103993,2,0,B|188:347|165:334|165:334|240:311|324:305|324:305|302:294|288:278,1,239.999992675781,6|8,0:0|0:0,0:0:0:0:
38,80,104505,2,0,B|80:41|138:55|138:55|128:110|161:144,1,200,6|0,0:0|0:0,0:0:0:0:
445,197,105016,5,2,0:0:0:0:
214,83,105357,1,0,0:0:0:0:
77,301,105698,1,10,0:0:0:0:
275,136,106039,6,0,P|296:99|295:72,1,66.6666666666667
249,16,106266,1,0,0:0:0:0:
289,145,106380,6,0,P|325:123|338:99,1,66.6666666666667
326,28,106607,1,0,0:0:0:0:
194,71,106721,6,0,P|162:109|154:191,1,133.333333333333
82,335,107061,1,8,0:0:0:0:
113,310,107175,1,0,0:0:0:0:
151,320,107289,1,0,0:0:0:0:
210,273,107402,2,0,B|265:271|265:271|278:277|278:277|388:273,1,150,4|0,0:0|0:0,0:0:0:0:
429,310,107743,6,0,P|388:270|393:190,1,100
445,121,108084,2,0,P|481:88|493:40,1,100
226,0,108425,2,0,B|201:79|288:138|288:138|269:67|128:62,1,300.000011444092,10|0,0:0|0:0,0:0:0:0:
68,301,108936,2,0,P|139:245|312:226,1,239.999992675781,6|0,0:0|0:0,0:0:0:0:
470,294,109448,2,0,B|467:329|453:350|453:350|407:276|358:244,1,200,6|8,0:0|0:0,0:0:0:0:
205,307,109959,2,0,L|226:131,1,150.000005722046,6|0,0:0|0:0,0:0:0:0:
460,34,110471,2,0,B|506:66|483:126|483:126|435:156|377:128,1,200,6|8,0:0|0:0,0:0:0:0:
390,133,111493,5,2,0:0:0:0:
355,304,111664,1,0,0:0:0:0:
352,298,111834,1,0,0:0:0:0:
185,330,112005,1,2,0:0:0:0:
438,305,112175,6,0,P|415:251|384:220,1,100
256,259,112516,1,8,0:0:0:0:
256,259,112857,1,4,0:0:0:0:
234,174,113027,1,0,0:0:0:0:
53,256,113198,6,0,L|153:247,1,100,2|8,0:0|0:0,0:0:0:0:
185,330,113539,1,8,0:0:0:0:
309,189,113709,2,0,L|210:170,1,100,2|8,0:0|0:0,0:0:0:0:
184,322,114050,1,8,0:0:0:0:
61,117,114221,2,0,L|157:90,1,100,2|8,0:0|0:0,0:0:0:0:
185,314,114561,1,8,0:0:0:0:
303,45,114732,2,0,L|209:9,1,100,2|8,0:0|0:0,0:0:0:0:
56,122,115073,1,0,0:0:0:0:
259,263,115243,5,8,0:0:0:0:
222,113,115414,1,0,0:0:0:0:
337,223,115584,1,4,0:3:0:0:
347,138,115755,1,0,0:0:0:0:
453,303,115925,6,0,B|490:328|490:328|413:342|413:342|403:340|403:340|313:357,1,200,4|0,0:0|0:0,0:0:0:0:
337,352,116607,2,0,B|286:299|219:342|219:342|149:386|74:311,1,239.999992675781,10|0,0:0|0:0,0:0:0:0:
67,148,117118,2,0,P|120:154|175:225,1,119.999996337891,0|2,0:0|0:0,0:0:0:0:
345,267,117459,1,0,0:0:0:0:
317,228,117544,1,0,0:0:0:0:
317,179,117630,6,0,B|408:184|408:184|418:188|418:188|502:193,1,179.999994506836
512,120,117971,1,8,0:0:0:0:
432,270,118141,1,0,0:0:0:0:
400,183,118311,1,0,0:0:0:0:
241,211,118482,1,0,0:0:0:0:
124,59,118652,6,0,P|162:121|33:188,1,239.999992675781,2|0,0:0|0:0,0:0:0:0:
7,86,119164,1,0,0:0:0:0:
0,304,119334,2,0,P|74:305|120:275,1,119.999996337891,8|0,0:0|0:0,0:0:0:0:
81,126,119675,1,2,0:0:0:0:
45,227,119846,1,0,2:0:0:0:
197,319,120016,6,0,P|324:330|404:363,1,200,4|0,0:0|0:0,0:0:0:0:
492,268,120698,2,0,P|365:279|285:312,1,200,4|0,0:0|0:0,0:0:0:0:
137,263,121380,2,0,L|116:110,1,150,0|0,2:2|0:0,0:0:0:0:
82,39,121721,6,0,L|121:331,1,269.999991760254,6|0,0:0|0:0,0:0:0:0:
60,368,122061,1,8,0:0:0:0:
209,189,122232,2,0,B|265:252|249:363|249:363|312:262|448:273,1,359.999989013672,6|0,0:0|0:0,0:0:0:0:
500,105,122743,2,0,B|446:86|439:20|439:20|401:85|319:94|319:94|341:68|341:31,1,300.000011444092,6|0,0:0|0:0,0:0:0:0:
32,77,123255,2,0,P|81:85|108:104,1,59.9999981689454,4|0,0:0|0:0,0:0:0:0:
141,224,123425,2,0,B|131:146|131:146|123:136|123:136|108:30,1,179.999994506836,8|0,0:0|0:0,0:0:0:0:
2,0,123766,6,0,L|49:348,1,329.9999899292,4|0,0:0|0:0,0:0:0:0:
46,334,124789,1,8,0:0:0:0:
46,334,125130,5,0,0:0:0:0:
131,343,125300,1,0,0:0:0:0:
214,351,125471,2,0,L|223:319,3,29.9999990844727,4|0|0|0,0:0|0:0|0:0|0:0,0:0:0:0:
131,343,125811,6,0,L|152:277,1,50,8|0,0:0|0:0,0:0:0:0:
46,334,125982,2,0,L|85:222,1,100,8|0,0:0|0:0,0:0:0:0:
80,231,126238,1,0,0:0:0:0:
80,222,126323,2,0,L|101:156,1,50,4|0,0:3|0:0,0:0:0:0:
83,92,126493,1,0,0:0:0:0:
104,64,126578,1,0,0:0:0:0:
157,39,126664,1,4,0:3:0:0:
229,47,126749,1,0,0:0:0:0:
297,92,126834,6,0,B|340:111|322:171|322:171|306:218|346:251,1,150.000005722046,4|0,0:3|0:0,0:0:0:0:
439,295,127516,2,0,B|502:248|433:136|230:199|199:352,1,359.999989013672,4|0,0:0|0:0,0:0:0:0:
45,164,128027,2,0,P|184:282|400:269,1,359.999989013672,6|0,0:0|0:0,0:0:0:0:
446,50,128539,2,0,P|307:168|155:177,1,300.000011444092,6|8,0:0|0:0,0:0:0:0:
54,49,129050,2,0,P|236:47|317:96,1,239.999992675781,4|0,0:0|0:0,0:0:0:0:
468,159,129561,6,0,P|464:182|447:203,3,29.9999990844727,4|0|0|4,0:0|0:0|0:0|0:0,0:0:0:0:
466,286,129902,2,0,P|448:301|421:306,1,29.9999990844727
341,293,130073,1,0,0:0:0:0:
288,287,130158,1,0,0:0:0:0:
234,280,130244,2,0,L|223:206,1,50,8|0,0:0|0:0,0:0:0:0:
129,154,130414,1,0,0:0:0:0:
138,152,130499,2,0,L|127:226,5,50,8|0|0|0|0|0,0:0|0:0|0:0|0:0|0:0|0:0,0:0:0:0:
184,73,131010,5,4,0:0:0:0:
204,70,131096,1,0,0:0:0:0:
223,67,131181,1,0,0:0:0:0:
241,75,131266,1,4,0:0:0:0:
261,72,131352,1,0,0:0:0:0:
280,69,131437,1,0,0:0:0:0:
310,39,131522,5,0,0:0:0:0:
340,99,131607,1,8,0:0:0:0:
341,158,131692,1,8,0:0:0:0:
328,200,131777,1,0,0:0:0:0:
342,236,131863,1,0,0:0:0:0:
375,254,131948,1,8,0:3:0:0:
411,257,132033,1,8,0:3:0:0:
435,237,132118,1,4,0:3:0:0:
441,214,132203,1,4,0:3:0:0:
425,172,132289,5,8,0:3:0:0:
199,238,132630,1,0,0:0:0:0:
59,31,132971,6,0,B|45:105|45:105|20:135|20:135|4:248|4:248|87:277|133:203,1,359.999989013672,10|0,0:0|0:0,0:0:0:0:
417,246,133482,2,0,B|435:262|466:268|466:268|415:302|354:278|354:278|323:311|323:311|224:281|179:362,1,359.999989013672,6|0,0:0|0:0,0:0:0:0:
147,60,133993,2,0,P|291:68|359:182,1,225.000008583069,6|0,0:0|0:0,0:0:0:0:
352,201,134334,1,8,0:0:0:0:
78,249,134505,2,0,P|111:107|234:62,1,239.999992675781,4|0,0:0|0:0,0:0:0:0:
352,201,135016,5,2,0:0:0:0:
368,212,135101,1,0,0:0:0:0:
380,227,135186,1,0,0:0:0:0:
387,245,135272,2,0,P|358:256|338:258,4,50,8|0|0|0|0,0:0|0:0|0:0|0:0|0:0,0:0:0:0:
305,321,135698,5,4,0:0:0:0:
246,333,135783,1,8,0:0:0:0:
211,312,135868,1,0,0:0:0:0:
197,286,135953,1,0,0:0:0:0:
199,260,136039,1,0,0:0:0:0:
210,243,136124,1,0,0:0:0:0:
215,223,136209,1,0,0:0:0:0:
211,203,136294,5,4,0:3:0:0:
176,223,136380,1,4,0:0:0:0:
136,224,136465,1,0,0:0:0:0:
83,169,136550,5,8,0:0:0:0:
63,214,136635,1,0,0:0:0:0:
71,254,136721,1,0,0:0:0:0:
87,278,136806,1,0,0:0:0:0:
94,296,136891,5,4,0:3:0:0:
59,290,136976,1,8,0:3:0:0:
26,240,137061,1,8,0:0:0:0:
32,179,137147,1,0,0:0:0:0:
72,142,137232,1,0,0:0:0:0:
118,136,137317,1,0,0:3:0:0:
154,148,137402,1,0,0:3:0:0:
192,164,137488,1,8,0:3:0:0:
231,154,137573,1,0,0:0:0:0:
250,132,137658,1,0,0:0:0:0:
255,106,137743,6,0,L|241:38,1,50,4|0,0:0|0:0,0:0:0:0:
16,13,138084,1,0,0:0:0:0:
435,40,138425,6,0,P|471:87|448:214,1,150.000005722046,10|0,0:0|0:0,0:0:0:0:
415,243,138681,2,0,P|343:259|275:229,1,150.000005722046,8|0,0:0|0:0,0:0:0:0:
425,56,138936,6,0,P|455:96|454:163,1,100,2|0,0:0|0:0,0:0:0:0:
408,228,139192,2,0,P|346:241|309:229,1,100
356,160,139448,6,0,L|380:353,1,150.000005722046,10|0,0:0|0:0,0:0:0:0:
176,352,139703,2,0,L|194:203,1,150.000005722046,8|0,0:0|0:0,0:0:0:0:
342,174,139959,6,0,L|358:295,1,100,4|0,0:0|0:0,0:0:0:0:
189,337,140215,2,0,L|205:219,1,100
370,145,140471,6,0,B|388:216|388:216|383:236|383:236|406:328,1,150,4|0,0:0|0:0,0:0:0:0:
446,348,140811,1,0,0:0:0:0:
277,271,140982,1,0,0:0:0:0:
93,356,141152,1,8,0:0:0:0:
396,290,141323,1,4,0:0:0:0:
178,110,141493,1,4,0:0:0:0:
17,282,141664,6,0,P|79:277|144:237,1,100,4|0,0:0|0:0,0:0:0:0:
124,43,142005,1,8,0:0:0:0:
100,87,142090,1,8,0:0:0:0:
98,136,142175,1,8,0:0:0:0:
234,120,142346,1,8,0:0:0:0:
372,102,142516,1,8,0:0:0:0:
502,214,142686,5,0,0:0:0:0:
425,192,142857,1,4,0:3:0:0:
484,138,143027,1,0,0:0:0:0:
376,378,143198,6,0,L|355:237,1,119.999996337891,6|0,0:0|0:0,0:0:0:0:
404,122,143539,1,0,0:0:0:0:
278,245,143709,2,0,L|257:386,1,119.999996337891,2|0,0:0|0:0,0:0:0:0:
397,127,144050,1,0,0:0:0:0:
178,326,144221,2,0,L|160:207,1,119.999996337891,2|0,0:0|0:0,0:0:0:0:
391,134,144561,1,0,0:0:0:0:
75,177,144732,2,0,L|57:295,1,119.999996337891,2|0,0:0|0:0,0:0:0:0:
255,364,145073,1,0,0:0:0:0:
138,130,145243,5,10,0:0:0:0:
51,297,145414,1,0,0:0:0:0:
139,346,145584,1,4,0:3:0:0:
264,277,145755,1,0,0:0:0:0:
470,318,145925,6,0,B|494:322|494:322|478:242|478:242|468:228|468:228|449:114,1,200,6|0,0:0|0:0,0:0:0:0:
170,72,146436,2,0,B|86:64|119:213|291:196,1,239.999992675781,10|0,0:0|0:0,0:0:0:0:
477,42,146947,2,0,P|417:39|241:119,1,239.999992675781,2|0,0:0|0:0,0:0:0:0:
263,209,147459,1,0,0:0:0:0:
9,384,147629,5,0,0:0:0:0:
19,315,147714,1,0,0:0:0:0:
32,247,147800,1,0,0:0:0:0:
41,179,147885,1,0,0:0:0:0:
63,112,147970,2,0,B|86:79|125:93|125:93|89:104|74:139,1,119.999996337891,10|0,0:0|0:0,0:0:0:0:
168,164,148311,2,0,P|202:116|200:57,1,119.999996337891,10|0,0:0|0:0,0:0:0:0:
29,31,148652,1,4,0:0:0:0:
431,232,148993,5,0,0:0:0:0:
437,221,149078,1,0,0:0:0:0:
418,209,149164,1,0,0:0:0:0:
437,178,149249,1,0,0:0:0:0:
415,147,149334,2,0,P|350:131|311:178,1,119.999996337891,8|0,0:0|0:0,0:0:0:0:
284,248,149589,2,0,P|219:264|180:217,1,119.999996337891,8|0,0:0|0:0,0:0:0:0:
102,180,149824,1,8,0:0:0:0:
134,34,150015,6,0,B|170:114|114:180|114:180|161:141|249:148,1,239.999992675781,6|0,0:0|0:0,0:0:0:0:
298,382,150526,2,0,P|235:340|179:202,1,200,8|0,0:0|0:0,0:0:0:0:
310,53,151037,2,0,P|323:139|276:260,1,200,2|0,0:0|0:0,0:0:0:0:
183,300,151549,1,0,0:0:0:0:
223,367,151719,5,0,0:0:0:0:
290,358,151804,1,0,0:0:0:0:
360,351,151890,1,0,0:0:0:0:
430,342,151975,1,0,0:0:0:0:
509,374,152060,5,10,0:0:0:0:
39,328,152401,1,10,0:0:0:0:
340,254,152743,6,0,P|363:245|388:246,1,50,4|0,0:0|0:0,0:0:0:0:
429,271,152990,2,0,P|411:254|388:246,1,50
374,322,153238,5,8,0:0:0:0:
388,246,153362,1,8,0:0:0:0:
403,173,153486,1,8,0:0:0:0:
418,100,153610,1,8,0:0:0:0:
185,154,153734,6,0,B|160:212|160:212|247:200|247:200|255:203|255:203|324:194,1,225.000008583069,6|0,0:0|0:0,0:0:0:0:
418,100,153981,2,0,L|237:122,1,150.000005722046,10|0,0:0|0:0,0:0:0:0:
46,59,154229,1,2,0:0:0:0:
239,240,154353,1,2,0:0:0:0:
0,265,154477,2,0,P|24:235|61:222,1,75.0000028610231,8|0,0:0|0:0,0:0:0:0:
216,316,154601,6,0,L|58:293,1,150.000005722046,2|0,0:0|0:0,0:0:0:0:
25,140,154849,1,0,0:0:0:0:
98,373,154973,1,8,0:0:0:0:
319,194,155097,1,0,0:0:0:0:
363,201,155159,1,0,0:0:0:0:
407,207,155221,1,2,0:0:0:0:
475,174,155345,1,0,0:0:0:0:
243,220,155469,1,10,0:0:0:0:
512,252,155593,1,0,0:0:0:0:
222,94,155717,6,0,B|193:51|105:81|111:236|186:291,1,269.999991760254,6|0,0:0|0:0,0:0:0:0:
285,312,155964,2,0,P|346:272|362:200,1,150.000005722046,10|0,0:0|0:0,0:0:0:0:
313,69,156212,1,0,0:0:0:0:
371,362,156336,1,0,0:0:0:0:
170,276,156460,2,0,P|100:302|90:326,1,75.0000028610231,8|0,0:0|0:0,0:0:0:0:
32,384,156584,2,0,L|18:114,1,225.000008583069,2|0,0:0|0:0,0:0:0:0:
43,74,156832,1,0,0:0:0:0:
179,174,156956,6,0,P|209:195|246:196,1,75.0000028610231,8|0,0:0|0:0,0:0:0:0:
355,113,157080,2,0,B|340:104|340:104|296:162|334:250,1,150.000005722046,2|0,0:0|0:0,0:0:0:0:
472,298,157328,1,2,0:0:0:0:
232,48,157452,1,8,0:0:0:0:
512,77,157576,6,0,P|412:128|301:145,1,225.000008583069,6|0,0:0|0:0,0:0:0:0:
241,61,157824,1,0,0:0:0:0:
472,298,157948,2,0,P|368:254|320:213,1,150.000005722046,8|0,0:0|0:0,0:0:0:0:
331,29,158196,1,2,0:0:0:0:
203,253,158320,1,0,0:0:0:0:
16,69,158444,2,0,P|45:45|83:39,1,75.0000028610231,10|0,0:0|0:0,0:0:0:0:
160,82,158568,2,0,B|190:133|142:186|142:186|98:242|126:299,1,225.000008583069,2|0,0:0|0:0,0:0:0:0:
186,340,158816,1,0,0:0:0:0:
375,320,158940,5,4,0:3:0:0:
383,275,159002,1,0,0:0:0:0:
392,231,159064,1,0,0:0:0:0:
402,187,159126,1,0,0:0:0:0:
460,135,159188,2,0,L|365:144,1,75.0000028610231,8|0,0:0|0:0,0:0:0:0:
218,327,159312,2,0,L|312:336,1,75.0000028610231,8|0,0:0|0:0,0:0:0:0:
512,54,159436,6,0,B|385:72|385:72|346:71|346:71|243:88,1,269.999991760254,6|0,0:0|0:0,0:0:0:0:
152,41,159683,2,0,B|132:42|112:32|112:32|150:82|141:194,1,150.000005722046,8|0,0:0|0:0,0:0:0:0:
35,313,159931,1,2,0:0:0:0:
261,68,160055,1,2,0:0:0:0:
419,296,160179,1,8,0:0:0:0:
511,219,160303,6,0,B|460:186|460:186|284:174,1,225.000008583069,2|0,0:0|0:0,0:0:0:0:
226,140,160551,1,0,0:0:0:0:
110,178,160675,2,0,P|110:215|120:251,1,75.0000028610231,8|0,0:0|0:0,0:0:0:0:
200,376,160799,2,0,P|233:300|235:228,1,150.000005722046,2|0,0:0|0:0,0:0:0:0:
35,147,161047,2,0,P|29:229|52:298,1,150.000005722046,2|8,0:0|0:0,0:0:0:0:
317,259,161295,1,2,0:0:0:0:
107,97,161419,6,0,B|170:87|170:87|252:117|252:117|336:104,1,225.000008583069
410,111,161667,1,10,0:0:0:0:
423,93,161729,1,0,0:0:0:0:
414,61,161791,1,0,0:0:0:0:
369,39,161853,1,0,0:0:0:0:
314,50,161915,1,4,0:3:0:0:
272,103,161977,1,4,0:3:0:0:
274,170,162039,1,4,0:3:0:0:
306,229,162101,1,4,0:3:0:0:
338,250,162163,1,12,0:3:0:0:
365,253,162225,1,8,0:3:0:0:
381,246,162287,5,10,0:0:0:0:
363,216,162349,1,4,0:3:0:0:
314,206,162411,1,4,0:3:0:0:
264,221,162473,1,4,0:3:0:0:
235,261,162535,5,10,0:0:0:0:
210,309,162597,1,4,0:3:0:0:
154,331,162659,1,4,0:3:0:0:
90,319,162721,1,4,0:3:0:0:
44,266,162783,5,4,0:3:0:0:
41,235,162845,1,4,0:3:0:0:
55,217,162907,1,4,0:3:0:0:
73,210,162969,1,0,0:0:0:0:
85,203,163031,1,8,0:3:0:0:
90,193,163093,1,8,0:3:0:0:
91,185,163155,6,0,B|84:150|47:144|6:209|45:234|78:250|137:247|163:221|163:221|165:211|165:211|232:156|319:187,1,375,6|0,0:0|0:0,0:0:0:0:
339,247,163402,2,0,B|375:276|417:267|417:267|377:254|353:206,1,150.000005722046,8|0,0:0|0:0,0:0:0:0:
512,210,163650,1,2,0:0:0:0:
149,246,163774,1,2,0:0:0:0:
408,123,163898,2,0,B|424:140|424:140|434:196,1,75.0000028610231,8|0,0:0|0:0,0:0:0:0:
442,348,164022,6,0,P|341:305|197:302,1,225.000008583069,2|0,0:0|0:0,0:0:0:0:
168,348,164270,1,0,0:0:0:0:
8,242,164394,2,0,P|35:217|70:203,1,75.0000028610231,8|0,0:0|0:0,0:0:0:0:
160,243,164518,2,0,P|112:202|100:105,1,150.000005722046,2|0,0:0|0:0,0:0:0:0:
247,34,164766,2,0,P|199:74|187:171,1,150.000005722046,2|10,0:0|0:0,0:0:0:0:
297,224,165014,6,0,P|327:202|363:203,1,75.0000028610231,6|0,0:0|0:0,0:0:0:0:
483,333,165138,2,0,B|502:345|492:373|453:377|390:350|410:271|410:271|471:205|392:85,1,300
376,96,165386,2,0,P|310:66|212:71,1,150.000005722046,8|0,0:0|0:0,0:0:0:0:
28,158,165634,1,0,0:0:0:0:
174,0,165758,1,0,0:0:0:0:
229,256,165882,2,0,P|197:276|161:286,1,75.0000028610231,10|0,0:0|0:0,0:0:0:0:
0,282,166006,6,0,P|96:272|194:379,1,225.000008583069,2|0,0:0|0:0,0:0:0:0:
73,373,166254,1,0,0:0:0:0:
28,158,166378,1,0,0:0:0:0:
37,129,166440,1,0,0:0:0:0:
47,100,166502,1,0,0:0:0:0:
57,71,166564,1,0,0:0:0:0:
65,42,166626,2,0,B|129:33|129:33|150:39|150:39|230:30,1,150.000005722046,8|0,0:0|0:0,0:0:0:0:
450,233,166874,6,0,P|295:215|254:99,1,269.999991760254,6|0,0:0|0:0,0:0:0:0:
349,41,167121,2,0,P|437:83|456:139,1,150.000005722046,8|0,0:0|0:0,0:0:0:0:
302,361,167369,1,2,0:0:0:0:
365,131,167493,1,2,0:0:0:0:
452,384,167617,1,8,0:0:0:0:
171,329,167741,6,0,P|94:312|10:312,1,150.000005722046,2|0,0:0|0:0,0:0:0:0:
234,282,167989,1,0,0:0:0:0:
94,138,168113,2,0,P|99:180|120:208,1,75.0000028610231,8|0,0:0|0:0,0:0:0:0:
326,238,168237,2,0,B|302:203|302:203|158:204,1,150.000005722046,2|0,0:0|0:0,0:0:0:0:
23,235,168485,2,0,L|11:81,1,150.000005722046,2|8,0:0|0:0,0:0:0:0:
211,375,168733,6,0,B|281:391|329:352|329:352|373:317|430:323,1,225.000008583069,2|0,0:0|0:0,0:0:0:0:
492,364,168981,1,0,0:0:0:0:
294,242,169105,1,8,0:0:0:0:
264,247,169167,1,8,0:0:0:0:
234,249,169229,2,0,L|256:164,1,75.0000028610231
330,87,169353,1,10,0:0:0:0:
358,78,169415,1,8,0:0:0:0:
387,81,169477,1,8,0:0:0:0:
415,90,169539,1,8,0:0:0:0:
435,111,169601,6,0,L|453:183,1,75.0000028610231,8|0,0:0|0:0,0:0:0:0:
366,304,169725,1,10,0:0:0:0:
339,318,169787,1,8,0:0:0:0:
312,331,169849,2,0,L|303:243,1,75.0000028610231,8|0,0:0|0:0,0:0:0:0:
245,90,169973,1,10,0:0:0:0:
218,76,170035,1,8,0:0:0:0:
189,74,170097,1,8,0:0:0:0:
160,78,170159,1,8,0:0:0:0:
137,95,170221,6,0,L|105:163,1,75.0000028610231,8|0,0:0|0:0,0:0:0:0:
28,212,170345,1,8,0:0:0:0:
370,155,170469,1,8,0:0:0:0:
30,220,170593,1,8,0:0:0:0:
374,160,170716,1,8,0:0:0:0:
304,0,170840,6,0,B|289:73|289:73|292:89|292:89|270:194,1,179.999994506836,6|0,0:0|0:0,0:0:0:0:
331,230,171088,1,0,0:0:0:0:
193,164,171212,1,0,0:0:0:0:
74,289,171336,2,0,P|116:332|183:339,1,119.999996337891,4|0,0:0|0:0,0:0:0:0:
415,273,171584,2,0,P|473:258|512:203,1,119.999996337891
376,48,171832,5,12,0:0:0:0:
384,131,171956,1,0,0:0:0:0:
273,168,172080,1,0,0:0:0:0:
281,85,172204,1,0,0:0:0:0:
470,225,172328,2,0,L|306:208,1,119.999996337891,6|0,0:0|0:0,0:0:0:0:
191,257,172576,1,0,0:0:0:0:
174,174,172700,1,0,0:0:0:0:
27,51,172824,6,0,P|68:101|152:100,1,119.999996337891,4|0,0:0|0:0,0:0:0:0:
274,280,173072,2,0,P|233:330|149:329,1,119.999996337891
10,219,173320,1,4,0:0:0:0:
93,230,173444,1,0,0:0:0:0:
186,171,173568,1,0,0:0:0:0:
269,160,173692,1,0,0:0:0:0:
471,256,173816,2,0,L|303:245,1,119.999996337891,14|0,0:0|0:0,0:0:0:0:
209,310,174064,5,0,0:0:0:0:
179,315,174126,1,0,0:0:0:0:
149,320,174188,1,0,0:0:0:0:
119,324,174250,1,0,0:0:0:0:
89,328,174312,2,0,B|76:334|76:334|97:202,1,119.999996337891,6|0,0:0|0:0,0:0:0:0:
27,61,174559,1,0,0:0:0:0:
32,144,174683,1,0,0:0:0:0:
175,231,174807,6,0,L|294:215,1,119.999996337891,6|0,0:0|0:0,0:0:0:0:
398,197,175055,1,2,0:0:0:0:
404,203,175179,1,2,0:0:0:0:
482,348,175303,2,0,L|363:332,1,119.999996337891,6|0,0:0|0:0,0:0:0:0:
259,314,175551,1,0,0:0:0:0:
253,320,175675,1,0,0:0:0:0:
299,202,175799,6,0,P|368:182|419:106,1,119.999996337891,12|0,0:0|0:0,0:0:0:0:
368,33,176047,1,0,0:0:0:0:
358,24,176171,1,0,0:0:0:0:
487,258,176295,2,0,P|421:226|385:142,1,119.999996337891,6|0,0:0|0:0,0:0:0:0:
444,76,176543,1,2,0:0:0:0:
454,67,176667,1,2,0:0:0:0:
329,342,176791,6,0,P|388:299|409:210,1,119.999996337891,6|0,0:0|0:0,0:0:0:0:
320,122,177039,1,0,0:0:0:0:
310,113,177163,1,0,0:0:0:0:
293,216,177287,1,4,0:0:0:0:
194,186,177411,2,0,B|126:193|126:193|116:199|116:199|9:207,1,179.999994506836,2|0,0:0|0:0,0:0:0:0:
7,201,177659,1,0,0:0:0:0:
166,270,177783,5,12,0:0:0:0:
48,309,177907,1,0,0:0:0:0:
45,321,177969,1,0,0:0:0:0:
42,334,178031,1,8,0:0:0:0:
244,313,178154,1,8,0:0:0:0:
140,123,178278,5,4,0:0:0:0:
133,101,178402,1,8,0:0:0:0:
127,80,178526,1,0,0:0:0:0:
207,34,178650,1,4,0:3:0:0:
310,164,178774,6,0,B|343:195|397:183|397:183|457:171|483:186,1,179.999994506836,6|0,0:0|0:0,0:0:0:0:
488,194,179022,1,0,0:0:0:0:
445,266,179146,1,0,0:0:0:0:
366,111,179270,2,0,P|336:53|345:-7,1,119.999996337891,4|0,0:0|0:0,0:0:0:0:
438,270,179518,2,0,P|383:305|360:362,1,119.999996337891
254,232,179766,5,12,0:0:0:0:
170,241,179890,1,0,0:0:0:0:
86,246,180014,1,0,0:0:0:0:
2,250,180138,1,0,0:0:0:0:
23,87,180262,6,0,B|106:95|106:95|111:100|111:100|237:113,1,179.999994506836,6|0,0:0|0:0,0:0:0:0:
209,106,180510,1,0,0:0:0:0:
179,27,180634,1,0,0:0:0:0:
455,49,180758,2,0,L|293:65,1,119.999996337891,4|0,0:0|0:0,0:0:0:0:
88,174,181006,2,0,L|250:190,1,119.999996337891
334,325,181254,5,4,0:0:0:0:
254,363,181378,2,0,B|215:355|215:355|238:301|238:301|249:294|249:294|277:224,1,179.999994506836
280,223,181626,1,0,0:0:0:0:
137,316,181750,2,0,P|87:343|18:335,1,119.999996337891,12|0,0:0|0:0,0:0:0:0:
35,128,181997,5,0,0:0:0:0:
44,120,182059,1,0,0:0:0:0:
54,115,182121,1,0,0:0:0:0:
65,113,182183,1,0,0:0:0:0:
76,115,182245,2,0,L|94:205,1,59.9999981689454,6|0,0:0|0:0,0:0:0:0:
164,70,182369,2,0,L|224:345,1,239.999992675781
483,292,182741,6,0,P|440:246|357:249,1,119.999996337891,6|0,0:0|0:0,0:0:0:0:
316,334,182989,1,2,0:0:0:0:
410,354,183113,1,2,0:0:0:0:
300,201,183237,2,0,P|342:155|425:158,1,119.999996337891,6|0,0:0|0:0,0:0:0:0:
467,243,183485,1,2,0:0:0:0:
373,263,183609,1,0,0:0:0:0:
256,70,183733,2,0,B|243:134|243:134|224:152|224:152|190:305,1,239.999992675781,12|0,0:0|0:0,0:0:0:0:
306,344,184105,1,0,0:0:0:0:
77,317,184229,5,6,0:0:0:0:
63,232,184353,1,0,0:0:0:0:
53,149,184477,1,0,0:0:0:0:
40,65,184601,1,0,0:0:0:0:
205,183,184725,6,0,B|285:190|285:190|298:196|298:196|390:202,1,179.999994506836,6|0,0:0|0:0,0:0:0:0:
392,198,184973,1,0,0:0:0:0:
375,280,185097,1,0,0:0:0:0:
358,362,185221,2,0,L|283:358,1,59.9999981689454,4|0,0:0|0:0,0:0:0:0:
383,201,185345,2,0,L|526:212,1,119.999996337891,2|0,0:0|0:0,0:0:0:0:
460,112,185593,1,0,0:0:0:0:
305,168,185716,5,8,0:0:0:0:
108,128,185840,1,8,0:0:0:0:
97,113,185902,1,8,0:0:0:0:
96,95,185964,1,8,0:0:0:0:
202,57,186088,1,8,0:0:0:0:
42,259,186212,5,8,0:0:0:0:
13,25,186336,1,8,0:0:0:0:
133,319,186460,1,8,0:0:0:0:
193,49,186584,1,8,0:0:0:0:
415,153,186708,6,0,B|424:209|424:209|433:220|433:220|437:285|437:285|451:345|451:345|405:345|405:345|359:358|359:358|355:316|355:316|343:258,1,359.999989013672,6|0,0:0|0:0,0:0:0:0:
506,132,187079,2,0,B|443:140|388:120|388:120|346:142|346:142|288:111|216:122|216:122|247:108|263:85,1,359.999989013672,10|0,0:0|0:0,0:0:0:0:
50,31,187451,2,0,B|40:127|63:266|165:284|170:168|29:122,1,359.999989013672,2|0,0:0|0:0,0:0:0:0:
0,218,187823,1,2,0:0:0:0:
241,84,187947,5,0,0:0:0:0:
285,78,188009,1,0,0:0:0:0:
329,71,188071,1,0,0:0:0:0:
373,66,188133,1,0,0:0:0:0:
417,61,188195,2,0,B|428:38|462:36|462:36|461:163|413:274|413:274|446:244|533:228,2,359.999989013672,10|10|0,0:0|0:0|0:0,0:0:0:0:
208,358,188939,5,0,0:0:0:0:
180,364,189001,1,0,0:0:0:0:
141,349,189063,1,0,0:0:0:0:
112,304,189125,1,0,0:0:0:0:
123,241,189187,2,0,P|228:246|312:314,1,179.999994506836,2|0,0:0|0:0,0:0:0:0:
474,125,189435,2,0,P|371:148|300:229,1,179.999994506836,2|0,0:0|0:0,0:0:0:0:
37,126,189683,6,0,P|171:151|353:29,1,359.999989013672,6|0,0:0|0:0,0:0:0:0:
91,0,190055,2,0,B|124:143|124:143|97:200|97:200|125:369,1,359.999989013672,10|0,0:0|0:0,0:0:0:0:
433,222,190427,2,0,B|387:229|337:214|337:214|328:225|328:225|256:232|186:211|186:211|244:232|276:275,1,359.999989013672,2|0,0:0|0:0,0:0:0:0:
378,352,190798,1,2,0:0:0:0:
507,114,190922,5,0,0:0:0:0:
478,79,190984,1,0,0:0:0:0:
436,61,191046,1,0,0:0:0:0:
392,51,191108,1,0,0:0:0:0:
347,49,191170,2,0,B|277:85|272:188|272:188|286:182|286:182|291:177|291:177|308:176|308:176|350:257|266:351,2,359.999989013672,10|10|0,0:0|0:0|0:0,0:0:0:0:
76,345,191914,5,0,0:0:0:0:
69,310,191976,1,0,0:0:0:0:
62,273,192038,1,0,0:0:0:0:
56,236,192100,1,0,0:0:0:0:
50,202,192162,5,8,0:0:0:0:
146,365,192286,1,8,0:0:0:0:
92,110,192410,1,8,0:0:0:0:
3,371,192534,1,8,0:0:0:0:
201,43,192658,6,0,B|196:97|196:97|186:122|186:122|180:190,1,150.000005722046,2|0,0:0|0:0,0:0:0:0:
504,312,192906,2,0,P|479:256|377:218,1,150.000005722046,8|0,0:0|0:0,0:0:0:0:
145,285,193153,1,2,0:0:0:0:
406,315,193278,1,2,0:0:0:0:
138,369,193402,1,8,0:0:0:0:
356,149,193526,6,0,L|338:-18,1,150.000005722046,2|0,0:0|0:0,0:0:0:0:
219,234,193774,1,0,0:0:0:0:
447,143,193898,1,10,0:0:0:0:
199,29,194022,2,0,P|180:52|166:97,1,75.0000028610231
227,244,194146,1,8,0:0:0:0:
58,103,194270,1,8,0:0:0:0:
167,309,194394,1,8,0:0:0:0:
285,29,194518,1,8,0:0:0:0:
488,211,194641,5,10,0:0:0:0:
461,265,194703,1,0,0:0:0:0:
403,280,194765,1,0,0:0:0:0:
388,253,194827,1,0,0:0:0:0:
388,222,194889,1,4,0:3:0:0:
402,195,194951,1,4,0:3:0:0:
406,174,195013,1,8,0:3:0:0:
399,153,195075,1,8,0:3:0:0:
385,145,195137,6,0,P|354:153|337:165,1,50,10|0,0:0|0:0,0:0:0:0:
256,133,195261,2,0,P|225:125|208:113,1,50,10|0,0:0|0:0,0:0:0:0:
102,203,195385,1,4,0:3:0:0:
110,214,195447,1,4,0:3:0:0:
119,226,195509,2,0,P|144:207|164:201,1,50,10|0,0:0|0:0,0:0:0:0:
235,34,195633,5,0,0:0:0:0:
214,12,195695,1,0,0:0:0:0:
185,4,195757,1,4,0:3:0:0:
154,4,195819,1,4,0:3:0:0:
129,21,195881,1,0,0:0:0:0:
116,48,195943,1,0,0:0:0:0:
116,78,196005,6,0,L|126:126,1,50,8|0,0:0|0:0,0:0:0:0:
165,210,196129,2,0,L|154:258,1,50,10|0,0:0|0:0,0:0:0:0:
29,352,196253,1,0,0:0:0:0:
68,322,196315,1,0,0:0:0:0:
117,324,196377,1,4,0:3:0:0:
153,350,196438,1,4,0:3:0:0:
181,371,196500,1,0,0:0:0:0:
208,379,196562,1,0,0:0:0:0:
245,384,196624,5,10,0:0:0:0:
253,334,196686,1,0,0:0:0:0:
258,284,196748,1,0,0:0:0:0:
263,234,196810,1,0,0:0:0:0:
287,199,196872,5,4,0:3:0:0:
282,166,196934,1,4,0:3:0:0:
279,134,196996,1,0,0:0:0:0:
276,102,197058,1,0,0:0:0:0:
250,70,197120,6,0,L|264:12,1,50,10|0,0:0|0:0,0:0:0:0:
366,106,197244,2,0,L|377:154,1,50,10|0,0:0|0:0,0:0:0:0:
394,269,197368,1,4,0:3:0:0:
386,280,197430,1,4,0:3:0:0:
377,292,197492,2,0,P|351:273|331:267,1,50,10|0,0:0|0:0,0:0:0:0:
204,175,197616,5,0,0:0:0:0:
166,199,197678,1,0,0:0:0:0:
122,209,197740,1,4,0:3:0:0:
85,212,197802,1,4,0:3:0:0:
58,208,197864,1,0,0:0:0:0:
43,201,197926,1,0,0:0:0:0:
37,191,197988,6,0,P|24:161|28:129,1,50,10|0,0:0|0:0,0:0:0:0:
91,79,198112,2,0,P|123:82|149:102,1,50,10|0,0:0|0:0,0:0:0:0:
227,251,198236,1,4,0:3:0:0:
218,280,198298,1,4,0:3:0:0:
210,308,198360,5,10,0:0:0:0:
261,278,198422,1,8,0:0:0:0:
320,275,198484,1,8,0:0:0:0:
377,292,198546,1,8,0:0:0:0:
419,335,198608,5,10,0:0:0:0:
416,320,198670,1,0,0:0:0:0:
412,305,198732,1,0,0:0:0:0:
410,291,198794,1,0,0:0:0:0:
445,268,198856,1,4,0:3:0:0:
449,247,198918,1,4,0:3:0:0:
454,227,198980,1,0,0:0:0:0:
457,208,199042,1,0,0:0:0:0:
446,168,199104,6,0,P|414:171|381:187,1,50,10|0,0:0|0:0,0:0:0:0:
288,232,199228,2,0,P|312:240|337:242,1,50,10|0,0:0|0:0,0:0:0:0:
339,96,199352,1,4,0:3:0:0:
324,90,199414,1,4,0:3:0:0:
309,84,199476,2,0,L|294:133,1,50,10|0,0:0|0:0,0:0:0:0:
201,177,199600,5,0,0:0:0:0:
163,187,199662,1,0,0:0:0:0:
125,176,199724,1,4,0:3:0:0:
97,149,199786,1,4,0:3:0:0:
90,115,199848,1,0,0:0:0:0:
99,95,199910,1,0,0:0:0:0:
111,88,199972,6,0,P|123:104|131:133,1,50,10|0,0:0|0:0,0:0:0:0:
204,186,200096,2,0,P|193:208|191:233,1,50,10|4,0:0|0:3,0:0:0:0:
117,302,200219,1,4,0:3:0:0:
113,316,200281,1,0,0:0:0:0:
108,330,200343,2,0,L|186:315,1,50,10|4,0:0|0:3,0:0:0:0:
300,337,200467,1,4,0:3:0:0:
316,349,200529,1,0,0:0:0:0:
341,379,200591,5,10,0:0:0:0:
351,330,200653,1,8,0:0:0:0:
361,281,200715,1,4,0:3:0:0:
181,131,200839,1,10,0:0:0:0:
191,180,200901,1,8,0:0:0:0:
201,229,200963,1,4,0:3:0:0:
462,139,201087,5,10,0:0:0:0:
456,89,201149,1,8,0:0:0:0:
422,51,201211,1,8,0:0:0:0:
374,37,201273,1,8,0:0:0:0:
326,52,201335,2,0,P|302:68|264:74,1,50,8|0,0:0|0:0,0:0:0:0:
96,0,201459,1,4,0:0:0:0:
