osu file format v14

[General]
AudioFilename: audio.mp3
AudioLeadIn: 0
PreviewTime: 91721
Countdown: 0
SampleSet: Soft
StackLeniency: 0.4
Mode: 0
LetterboxInBreaks: 0
WidescreenStoryboard: 1

[Editor]
Bookmarks: 60677,69850,69974,70098,70222,70346,70470,70594
DistanceSpacing: 1.2
BeatDivisor: 8
GridSize: 4
TimelineZoom: 1.6

[Metadata]
Title:Levitator
TitleUnicode:Levitator
Artist:Satyr
ArtistUnicode:Satyr
Creator:IllusionB
Version:Zetera's Expert
Source:
Tags:alternative english progressive math rock alt metal locus stream fast zoli itswinter silence player lmt flake zetera
BeatmapID:3634084
BeatmapSetID:1520317

[Difficulty]
HPDrainRate:5
CircleSize:4.2
OverallDifficulty:9.2
ApproachRate:9.5
SliderMultiplier:2
SliderTickRate:1

[Events]
//Background and Video events
0,0,"elena-bespalova-ask-keep.jpg",0,0
//Break Periods
2,83398,89462
//Storyboard Layer 0 (Background)
//Storyboard Layer 1 (Fail)
//Storyboard Layer 2 (Pass)
//Storyboard Layer 3 (Foreground)
//Storyboard Layer 4 (Overlay)
//Storyboard Sound Samples

[TimingPoints]
185,247.933884297521,8,2,1,60,1,0
432,-133.333333333333,8,2,1,60,0,0
804,-80,8,2,1,60,0,0
1300,-133.333333333333,8,2,1,60,0,0
2168,-100,8,2,1,60,0,0
2416,-133.333333333333,8,2,1,60,0,0
2788,-80,8,2,1,60,0,0
3284,-133.333333333333,8,2,1,60,0,0
4151,-100,8,2,1,60,0,0
4399,-133.333333333333,8,2,1,60,0,0
4771,-80,8,2,1,60,0,0
5267,-133.333333333333,8,2,1,60,0,0
6135,247.933884297521,7,2,1,75,1,0
6135,-100,7,2,1,75,0,0
6382,-100,7,2,3,80,0,0
7870,247.933884297521,8,2,1,60,1,0
8117,-133.333333333333,8,2,1,60,0,0
8489,-80,8,2,1,60,0,0
8985,-133.333333333333,8,2,1,60,0,0
9853,-100,8,2,1,60,0,0
10101,-133.333333333333,8,2,1,60,0,0
10473,-80,8,2,1,60,0,0
10969,-133.333333333333,8,2,1,60,0,0
11506,-100,8,2,1,30,0,0
11671,-100,8,2,1,40,0,0
11836,-100,8,2,1,60,0,0
12084,-133.333333333333,8,2,1,60,0,0
12456,-80,8,2,1,60,0,0
12952,-133.333333333333,8,2,1,60,0,0
13820,247.933884297521,7,2,1,75,1,0
13820,-100,7,2,1,75,0,0
14067,-100,7,2,3,80,0,0
15555,247.933884297521,4,2,1,60,1,0
15555,-71.4285714285714,4,2,1,60,0,0
15802,-83.3333333333333,4,2,1,60,0,0
16422,-66.6666666666667,4,2,1,60,0,0
16794,-83.3333333333333,4,2,1,60,0,0
19521,-333.333333333333,4,2,1,60,0,0
19769,-71.4285714285714,4,2,1,60,0,0
20017,-83.3333333333333,4,2,1,60,0,0
20389,-66.6666666666667,4,2,1,60,0,0
20637,-83.3333333333333,4,2,1,60,0,0
23736,-90.9090909090909,4,2,1,60,0,0
24356,-66.6666666666667,4,2,1,60,0,0
24852,-83.3333333333333,4,2,1,60,0,0
31422,-100,4,2,1,50,0,0
32910,-250,4,2,1,50,0,0
33406,-100,4,2,1,80,0,0
35079,-100,4,2,1,5,0,0
35141,-500,4,2,1,80,0,0
35575,-500,4,2,1,5,0,0
35637,-100,4,2,1,80,0,0
35885,-100,4,2,1,60,0,0
36381,-100,4,2,1,80,0,0
38055,-100,4,2,1,5,0,0
38116,-500,4,2,1,60,0,0
38612,-100,4,2,1,60,0,0
38860,-100,4,2,1,80,0,0
39356,-100,4,2,1,60,0,0
41340,247.933884297521,8,2,1,60,1,0
41587,-133.333333333333,8,2,1,60,0,0
41959,-80,8,2,1,60,0,0
42455,-133.333333333333,8,2,1,60,0,0
42827,-80,8,2,1,60,0,0
43075,-133.333333333333,8,2,1,60,0,0
43323,-80,8,2,1,60,0,0
43571,-133.333333333333,8,2,1,60,0,0
43943,-80,8,2,1,60,0,0
44439,-133.333333333333,8,2,1,60,0,0
44811,-80,8,2,1,60,0,0
45182,-133.333333333333,8,2,1,60,0,0
45306,-80,8,2,1,60,0,0
45554,-133.333333333333,8,2,1,60,0,0
45926,-80,8,2,1,60,0,0
46422,-133.333333333333,8,2,1,60,0,0
46546,-100,8,2,1,5,0,0
46670,-100,8,2,1,60,0,0
47290,247.933884297521,7,2,1,75,1,0
47290,-100,7,2,1,75,0,0
47537,-100,7,2,3,75,0,0
49025,247.933884297521,8,2,1,60,1,0
49272,-133.333333333333,8,2,1,60,0,0
49644,-80,8,2,1,60,0,0
50140,-133.333333333333,8,2,1,60,0,0
51008,-80,8,2,1,60,0,0
51256,-133.333333333333,8,2,1,60,0,0
51628,-80,8,2,1,60,0,0
52124,-133.333333333333,8,2,1,60,0,0
52991,-80,8,2,1,60,0,0
53239,-133.333333333333,8,2,1,60,0,0
53611,-80,8,2,1,60,0,0
54107,-133.333333333333,8,2,1,60,0,0
54975,247.933884297521,7,2,1,75,1,0
54975,-100,7,2,1,75,0,0
55222,-100,7,2,3,75,0,0
56710,-100,7,2,1,65,0,0
59933,-133.333333333333,7,2,1,65,0,0
60181,-100,7,2,1,65,0,0
61917,247.933884297521,8,2,1,75,1,0
61917,-100,8,2,1,75,0,0
62288,-100,8,2,1,75,0,0
62660,-100,8,2,1,75,0,0
63032,-100,8,2,1,75,0,0
63404,-100,8,2,1,75,0,0
65883,-100,8,2,1,75,0,0
66255,-100,8,2,1,75,0,0
66627,-100,8,2,1,75,0,0
66999,-100,8,2,1,75,0,0
67371,-100,8,2,1,75,0,0
68239,-125,8,2,1,75,0,0
68611,-166.666666666667,8,2,1,75,0,0
69107,-100,8,2,1,75,0,0
69850,-100,8,2,1,75,0,0
70222,-100,8,2,1,75,0,0
70594,-100,8,2,1,75,0,0
70966,-100,8,2,1,75,0,0
71338,-100,8,2,1,75,0,0
73569,-200,8,2,1,75,0,0
73817,-100,8,2,1,75,0,0
74189,-100,8,2,1,75,0,0
74561,-100,8,2,1,75,0,0
74933,-100,8,2,1,75,0,0
75801,342.857142857143,5,2,1,60,1,0
76485,352.941176470588,5,2,1,50,1,0
77192,375,5,2,1,50,1,0
77944,461.538461538462,4,2,1,50,1,0
79790,340.909090909091,4,2,1,50,1,0
80471,340.909090909091,8,2,1,40,1,0
80471,-500,8,2,1,40,0,0
90016,-166.666666666667,8,2,2,30,0,0
91039,-100,8,2,2,40,0,0
91323,-100,8,2,2,5,0,0
91380,-1000,8,2,2,40,0,0
91465,-1000,8,2,2,40,0,0
91891,-1000,8,2,2,5,0,0
92061,-100,8,2,2,50,0,0
92573,-83.3333333333333,8,2,2,50,0,0
94107,-100,8,2,2,50,0,0
95130,-100,8,2,1,50,0,0
95471,-100,8,2,2,50,0,0
95811,-100,8,2,1,50,0,0
95982,-100,8,2,2,50,0,0
96834,-100,8,2,1,50,0,0
97516,-100,8,2,2,50,0,0
98539,-142.857142857143,8,2,2,50,0,0
99561,-100,8,2,2,50,0,0
99902,-100,8,2,1,50,0,0
100243,-100,8,2,2,50,0,0
102118,-100,8,2,1,50,0,0
102971,-100,8,2,2,50,0,0
105016,-100,8,2,2,50,0,0
107743,-100,8,2,1,50,0,0
108255,-100,8,2,1,5,0,0
108425,-100,8,2,2,50,0,0
108851,-100,8,2,2,5,0,0
108936,-133.333333333333,8,2,2,50,0,0
109448,-100,8,2,2,50,0,0
110471,-100,8,2,2,50,0,0
113113,-100,8,2,2,50,0,0
113141,-100,8,2,2,5,0,0
113198,-100,8,2,1,50,0,0
113368,-100,8,2,3,70,0,0
113709,-100,8,2,1,50,0,0
113879,-100,8,2,3,70,0,0
114221,-100,8,2,1,50,0,0
114391,-100,8,2,3,70,0,0
114732,-100,8,2,1,50,0,0
114902,-100,8,2,3,70,0,0
115243,-100,8,2,1,50,0,0
115925,-1000,8,2,1,50,0,0
116607,-100,8,2,1,50,0,0
118652,-1000,8,2,1,50,0,0
119334,-100,8,2,1,50,0,0
119846,-100,8,2,2,50,0,0
120016,-100,8,2,1,50,0,0
120584,-100,8,2,1,5,0,0
120698,-66.6666666666667,8,2,1,50,0,0
121380,-500,8,2,1,50,0,0
121721,-71.4285714285714,8,2,2,60,0,0
122061,-71.4285714285714,8,2,1,60,0,0
122232,-58.8235294117647,8,2,2,60,0,0
122743,-100,8,2,2,60,0,0
123425,-125,8,2,1,60,0,0
123766,-166.666666666667,8,2,2,60,0,0
124789,-500,8,2,1,60,0,0
125471,-55.5555555555556,8,2,2,60,0,0
125556,-55.5555555555556,8,2,1,60,0,0
126323,-111.111111111111,8,2,1,60,0,0
127516,-71.4285714285714,8,2,2,60,0,0
128027,-58.8235294117647,8,2,2,60,0,0
128539,-100,8,2,2,60,0,0
128880,-100,8,2,1,60,0,0
129050,-125,8,2,2,60,0,0
129561,-166.666666666667,8,2,2,60,0,0
129647,-100,8,2,1,60,0,0
129817,-100,8,2,2,60,0,0
130073,-100,8,2,1,60,0,0
131010,-100,8,2,2,60,0,0
131096,-100,8,2,1,60,0,0
131266,-100,8,2,2,60,0,0
131522,-100,8,2,1,60,0,0
132971,-71.4285714285714,8,2,1,60,0,0
133482,-58.8235294117647,8,2,2,60,0,0
133993,-100,8,2,2,60,0,0
134334,-100,8,2,1,60,0,0
134505,-125,8,2,2,60,0,0
135016,-100,8,2,1,60,0,0
135698,-100,8,2,2,60,0,0
135783,-100,8,2,1,60,0,0
136039,-100,8,2,2,60,0,0
136124,-100,8,2,1,60,0,0
136380,-100,8,2,2,60,0,0
136550,-100,8,2,1,60,0,0
137743,-100,8,2,2,60,0,0
138084,-71.4285714285714,8,2,1,60,0,0
138880,-58.8235294117647,8,2,1,60,0,0
139448,-100,8,2,1,60,0,0
139959,-100,8,2,2,60,0,0
140471,-100,8,2,1,60,0,0
141323,-100,8,2,1,40,0,0
141493,-100,8,2,1,45,0,0
141664,-100,8,2,1,50,0,0
142005,-100,8,2,1,60,0,0
143198,-200,8,2,1,50,0,0
143539,-133.333333333333,8,2,1,50,0,0
143709,-400,8,2,1,50,0,0
144050,-133.333333333333,8,2,1,50,0,0
144221,-200,8,2,1,50,0,0
144561,-133.333333333333,8,2,1,50,0,0
145925,340.909090909091,4,2,1,35,1,0
145925,-200,4,2,1,35,0,0
146436,-250,4,2,1,35,0,0
146947,-200,4,2,1,35,0,0
147459,-250,4,2,1,35,0,0
147970,-100,4,2,1,35,0,0
148652,-100,4,2,2,35,0,0
148993,-100,4,2,1,35,0,0
149824,247.933884297521,8,2,1,35,1,0
150015,340.909090909091,4,2,1,35,1,0
150015,-200,8,2,1,35,0,0
150526,-250,8,2,1,35,0,0
151037,-200,4,2,1,35,0,0
152060,-100,4,2,1,35,0,0
152743,247.933884297521,4,2,2,50,1,0
153238,-100,4,2,1,50,0,0
153734,247.933884297521,8,2,1,80,1,1
153734,-83.3333333333333,8,2,1,80,0,1
155717,247.933884297521,15,2,1,80,1,1
155717,-71.4285714285714,15,2,1,80,0,1
162907,-142.857142857143,15,2,1,80,0,1
163155,-71.4285714285714,15,2,1,80,0,1
166874,247.933884297521,8,2,1,80,1,1
166874,-71.4285714285714,8,2,1,80,0,1
170840,-100,8,2,1,60,0,1
180262,-100,8,2,1,60,0,1
182741,-100,8,2,1,60,0,1
184229,-100,8,2,1,60,0,1
185716,-100,8,2,1,80,0,1
186708,247.933884297521,12,2,1,80,1,1
186708,-66.6666666666667,12,2,1,80,0,1
187079,-133.333333333333,12,2,1,80,0,1
187451,-66.6666666666667,12,2,1,80,0,1
187823,-133.333333333333,12,2,1,80,0,1
188443,-500,12,2,1,80,0,1
188877,-500,12,2,1,5,0,1
188939,-100,12,2,1,80,0,1
189187,-80,12,2,1,80,0,1
189435,-133.333333333333,12,2,1,80,0,1
189683,-66.6666666666667,12,2,1,80,0,1
190055,-133.333333333333,12,2,1,80,0,1
190427,-66.6666666666667,12,2,1,80,0,1
190798,-133.333333333333,12,2,1,80,0,1
191418,-500,12,2,1,80,0,1
191914,-100,12,2,1,80,0,1
192658,247.933884297521,4,2,1,80,1,0
192658,-100,4,2,1,80,0,0
193525,-80,4,2,1,80,0,0
194641,-100,4,2,1,80,0,1
201459,-100,4,2,2,80,0,0

[Colours]
Combo1 : 0,128,255
Combo2 : 147,163,183
Combo3 : 94,72,72
Combo4 : 117,186,255

[HitObjects]
249,110,185,6,0,P|323:92|420:72,1,150,6|0,0:2|0:0,0:0:0:0:
369,6,432,2,0,P|327:25|324:56,1,75.0000028610231,2|0,0:0|0:0,0:0:0:0:
428,299,680,1,8,0:0:0:0:
508,193,804,6,0,P|466:91|390:82,1,187.5,2|0,0:0|0:0,0:0:0:0:
389,174,1052,2,0,P|321:261|351:331,1,187.5
432,303,1300,2,0,P|483:292|539:281,1,75.0000028610231
253,73,1548,1,0,0:0:0:0:
253,73,1610,1,0,0:0:0:0:
253,73,1672,2,0,P|243:13|233:-33,1,75.0000028610231,10|0,0:0|0:0,0:0:0:0:
55,351,1920,2,0,L|5:339,2,50.0000019073487
142,381,2168,6,0,P|155:301|177:200,1,150,6|0,0:0|0:0,0:0:0:0:
193,138,2416,2,0,P|241:162|233:197,1,75.0000028610231,2|0,0:0|0:0,0:0:0:0:
15,238,2664,1,8,0:0:0:0:
0,144,2788,6,0,P|37:43|106:50,1,187.5,2|0,0:0|0:0,0:0:0:0:
169,0,3036,2,0,P|237:82|196:139,1,187.5
173,238,3284,2,0,P|114:212|79:209,1,75.0000028610231
114,127,3532,1,0,0:0:0:0:
114,127,3594,1,0,0:0:0:0:
114,127,3656,1,10,0:0:0:0:
482,325,3904,5,0,0:0:0:0:
463,330,3965,1,0,0:0:0:0:
452,346,4027,1,0,0:0:0:0:
454,366,4089,1,0,0:0:0:0:
466,379,4151,2,0,P|451:310|422:231,1,150,6|0,0:0|0:0,0:0:0:0:
387,168,4399,2,0,P|359:182|355:236,1,75.0000028610231,2|0,0:0|0:0,0:0:0:0:
506,108,4647,1,8,0:0:0:0:
452,0,4771,6,0,P|379:3|335:115,1,187.5,2|0,0:0|0:0,0:0:0:0:
288,159,5019,2,0,P|315:226|434:231,1,187.5
486,187,5267,2,0,P|507:101|514:86,1,75.0000028610231
100,113,5515,1,0,0:0:0:0:
100,113,5577,1,0,0:0:0:0:
100,113,5639,2,0,P|89:66|76:32,1,75.0000028610231,10|0,0:0|0:0,0:0:0:0:
205,145,5887,1,0,0:0:0:0:
0,363,6135,6,0,P|7:291|88:279,1,150,6|0,0:0|0:0,0:0:0:0:
178,319,6382,1,10,0:0:0:0:
180,332,6444,1,0,0:0:0:0:
175,343,6506,1,8,0:0:0:0:
167,352,6568,1,0,0:0:0:0:
156,356,6630,2,0,P|149:327|141:303,1,50,8|0,0:0|0:0,0:0:0:0:
73,272,6754,2,0,P|77:245|79:213,1,50,8|0,0:0|0:0,0:0:0:0:
68,36,6878,5,10,0:0:0:0:
52,48,6940,1,0,0:0:0:0:
41,70,7002,1,8,0:0:0:0:
42,92,7064,1,0,0:0:0:0:
55,111,7126,1,10,0:0:0:0:
71,122,7188,1,0,0:0:0:0:
93,125,7250,1,8,0:0:0:0:
117,120,7312,1,0,0:0:0:0:
135,100,7374,6,0,L|145:41,1,50,8|0,0:0|0:0,0:0:0:0:
291,45,7498,2,0,L|237:34,1,50,8|0,0:0|0:0,0:0:0:0:
213,186,7622,6,0,L|223:245,1,50,8|0,0:0|0:0,0:0:0:0:
288,139,7746,2,0,L|336:129,1,50
300,313,7870,6,0,B|370:329|370:329|378:341|378:341|439:357,1,150,6|0,0:0|0:0,0:0:0:0:
512,324,8117,2,0,P|495:289|448:281,1,75.0000028610231,2|0,0:0|0:0,0:0:0:0:
158,345,8365,1,8,0:0:0:0:
82,299,8489,6,0,P|57:197|140:147,1,187.5,2|0,0:0|0:0,0:0:0:0:
148,81,8737,2,0,P|248:110|250:207,1,187.5
241,271,8985,2,0,P|187:246|150:235,1,75.0000028610231
10,84,9233,1,0,0:0:0:0:
10,84,9295,1,0,0:0:0:0:
10,84,9357,2,0,P|24:26|29:-11,1,75.0000028610231,10|0,0:0|0:0,0:0:0:0:
275,19,9605,2,0,P|282:43|294:68,2,50.0000019073487
297,74,9853,6,0,P|363:109|453:119,1,150,6|0,0:0|0:0,0:0:0:0:
512,112,10101,2,0,P|503:72|462:53,1,75.0000028610231,2|0,0:0|0:0,0:0:0:0:
449,232,10349,1,8,0:0:0:0:
465,313,10473,6,0,P|413:383|329:357,1,187.5,2|0,0:0|0:0,0:0:0:0:
254,364,10721,2,0,P|219:284|284:225,1,187.5
368,204,10969,2,0,P|357:239|352:277,1,75.0000028610231
356,282,11217,1,0,0:0:0:0:
494,160,11341,5,10,0:0:0:0:
194,181,11506,1,6,0:0:0:0:
465,313,11671,1,6,0:0:0:0:
132,294,11836,6,0,P|118:222|84:126,1,150,6|0,0:0|0:0,0:0:0:0:
19,144,12084,2,0,P|34:94|59:84,1,75.0000028610231,2|0,0:0|0:0,0:0:0:0:
239,249,12332,1,8,0:0:0:0:
4,270,12456,6,0,P|31:166|123:150,1,187.5,2|0,0:0|0:0,0:0:0:0:
136,209,12704,2,0,P|211:284|170:366,1,187.5
114,371,12952,2,0,P|57:379|17:388,1,75.0000028610231
48,81,13200,1,0,0:0:0:0:
48,81,13262,1,0,0:0:0:0:
48,81,13324,2,0,P|29:19|9:-18,1,75.0000028610231,10|0,0:0|0:0,0:0:0:0:
94,149,13572,1,0,0:0:0:0:
418,122,13820,6,0,P|384:62|307:71,1,150,6|0,0:0|0:0,0:0:0:0:
232,78,14067,1,10,0:0:0:0:
225,94,14129,1,0,0:0:0:0:
228,114,14191,1,8,0:0:0:0:
239,125,14253,1,0,0:0:0:0:
255,133,14315,2,0,P|247:171|246:184,1,50,8|0,0:0|0:0,0:0:0:0:
180,233,14439,2,0,P|190:264|195:287,1,50,8|0,0:0|0:0,0:0:0:0:
333,334,14563,5,10,0:0:0:0:
348,346,14625,1,0,0:0:0:0:
367,352,14687,1,8,0:0:0:0:
386,349,14749,1,0,0:0:0:0:
404,341,14811,1,10,0:0:0:0:
418,327,14873,1,0,0:0:0:0:
426,308,14935,1,8,0:0:0:0:
427,288,14997,1,0,0:0:0:0:
417,270,15059,6,0,P|422:231|427:208,1,50,8|0,0:0|0:0,0:0:0:0:
365,146,15183,2,0,P|326:141|303:136,1,50,8|0,0:0|0:0,0:0:0:0:
192,67,15307,6,0,P|225:86|245:100,1,50,8|0,0:0|0:0,0:0:0:0:
242,202,15431,2,0,P|222:235|208:255,1,50
0,67,15555,6,0,P|56:166|103:261,1,209.999993591309,4|0,0:0|0:0,0:0:0:0:
134,117,15802,2,0,P|148:60|163:-22,1,119.999996337891,10|0,0:0|0:0,0:0:0:0:
0,290,16050,1,2,0:0:0:0:
253,379,16174,2,0,P|194:318|139:330,1,119.999996337891,2|8,0:0|0:0,0:0:0:0:
0,176,16422,6,0,P|140:147|256:121,1,225.000008583069,2|0,0:0|0:0,0:0:0:0:
227,134,16670,1,0,0:0:0:0:
417,2,16794,1,8,0:0:0:0:
307,41,16918,2,0,P|329:95|356:164,1,119.999996337891,2|0,0:0|0:0,0:0:0:0:
497,71,17166,1,2,0:0:0:0:
281,241,17290,1,8,0:0:0:0:
512,359,17414,6,0,P|467:278|352:288,1,179.999994506836,6|0,0:0|0:0,0:0:0:0:
380,274,17662,1,0,0:0:0:0:
454,174,17786,2,0,P|472:106|493:36,1,119.999996337891,10|0,0:0|0:0,0:0:0:0:
281,351,18034,5,0,0:0:0:0:
281,351,18158,1,0,0:0:0:0:
351,152,18282,1,8,0:0:0:0:
142,0,18406,6,0,P|176:105|198:181,1,179.999994506836
194,180,18654,1,0,0:0:0:0:
0,302,18778,2,0,P|12:241|82:229,1,119.999996337891,8|0,0:0|0:0,0:0:0:0:
281,351,19026,1,0,0:0:0:0:
281,351,19150,1,0,0:0:0:0:
134,366,19274,5,8,0:0:0:0:
36,131,19397,1,0,0:3:0:0:
36,131,19459,1,0,0:3:0:0:
36,131,19521,2,0,L|43:86,1,44.999998626709,4|0,0:3|0:0,0:0:0:0:
42,86,19769,6,0,L|67:244,1,139.999995727539,14|0,0:0|0:0,0:0:0:0:
213,157,20017,1,2,0:0:0:0:
216,50,20141,2,0,P|138:2|84:31,1,119.999996337891,2|8,0:0|0:0,0:0:0:0:
205,268,20389,6,0,P|327:314|424:355,1,225.000008583069,2|0,0:0|0:0,0:0:0:0:
422,357,20637,1,0,0:0:0:0:
377,200,20761,1,8,0:0:0:0:
512,143,20885,2,0,P|493:207|478:263,1,119.999996337891,2|0,0:0|0:0,0:0:0:0:
177,360,21133,1,2,0:0:0:0:
213,157,21257,1,8,0:0:0:0:
0,246,21381,6,0,P|41:321|124:274,1,179.999994506836,2|0,0:0|0:0,0:0:0:0:
121,285,21629,1,0,0:0:0:0:
107,98,21753,2,0,P|77:51|26:-14,1,119.999996337891,10|0,0:0|0:0,0:0:0:0:
190,179,22001,1,0,0:0:0:0:
186,175,22125,1,0,0:0:0:0:
0,136,22249,5,8,0:0:0:0:
260,38,22373,2,0,P|224:136|181:275,1,239.999992675781
153,0,22745,1,8,0:0:0:0:
305,247,22869,2,0,P|370:232|454:217,1,119.999996337891
487,39,23116,5,0,0:0:0:0:
487,39,23178,1,0,0:0:0:0:
487,39,23240,2,0,P|462:6|412:1,1,59.9999981689454,8|0,0:0|0:0,0:0:0:0:
362,73,23364,2,0,P|329:98|324:148,1,59.9999981689454,8|0,0:0|0:0,0:0:0:0:
499,247,23488,6,0,P|471:155|379:156,1,179.999994506836,4|0,0:0|0:0,0:0:0:0:
337,198,23736,2,0,P|356:277|362:314,1,110.000003356934,10|0,0:0|0:0,0:0:0:0:
449,348,23984,5,2,0:0:0:0:
264,276,24108,2,0,P|217:314|206:373,1,110.000003356934,0|8,0:0|0:0,0:0:0:0:
422,222,24356,6,0,P|366:77|305:-11,1,225.000008583069,2|0,0:0|0:0,0:0:0:0:
323,16,24604,1,0,0:0:0:0:
493,139,24728,1,8,0:0:0:0:
239,105,24852,1,2,0:0:0:0:
239,105,24914,1,0,0:0:0:0:
239,105,24976,2,0,P|175:117|112:132,1,119.999996337891,0|2,0:0|0:0,0:0:0:0:
55,78,25162,2,0,P|46:47|31:2,1,59.9999981689454,0|8,0:0|0:0,0:0:0:0:
0,301,25348,6,0,P|57:366|145:340,1,179.999994506836,6|0,0:0|0:0,0:0:0:0:
145,339,25596,1,0,0:0:0:0:
0,203,25720,2,0,P|26:161|121:176,1,119.999996337891,10|0,0:0|0:0,0:0:0:0:
273,367,25968,1,0,0:0:0:0:
273,367,26092,1,0,0:0:0:0:
185,116,26216,5,8,0:0:0:0:
245,186,26340,2,0,P|337:211|444:237,1,179.999994506836
426,228,26588,1,0,0:0:0:0:
313,114,26712,1,8,0:0:0:0:
384,324,26835,2,0,P|425:187|482:84,1,239.999992675781
464,78,27145,1,0,0:0:0:0:
449,58,27207,1,0,0:0:0:0:
430,42,27269,1,0,0:0:0:0:
407,32,27331,1,0,0:0:0:0:
383,28,27393,1,0,0:0:0:0:
359,32,27455,1,0,0:0:0:0:
248,0,27703,6,0,P|281:78|291:129,1,119.999996337891,14|0,0:0|0:0,0:0:0:0:
256,200,27951,1,2,0:0:0:0:
469,217,28075,2,0,P|436:170|339:200,1,119.999996337891,0|10,0:0|0:0,0:0:0:0:
160,313,28323,2,0,P|234:301|338:282,1,179.999994506836,2|0,0:0|0:0,0:0:0:0:
344,280,28571,1,0,0:0:0:0:
175,150,28695,1,8,0:0:0:0:
83,175,28819,6,0,P|46:221|53:280,1,119.999996337891,2|0,0:0|0:0,0:0:0:0:
206,383,29067,2,0,P|243:333|231:269,1,119.999996337891,2|8,0:0|0:0,0:0:0:0:
59,45,29315,6,0,P|88:123|202:140,1,179.999994506836,6|0,0:0|0:0,0:0:0:0:
180,145,29563,1,0,0:0:0:0:
355,43,29687,2,0,P|321:114|294:194,1,119.999996337891,8|0,0:0|0:0,0:0:0:0:
237,23,29935,1,0,0:0:0:0:
237,23,30059,1,0,0:0:0:0:
512,278,30183,1,8,0:0:0:0:
489,184,30307,6,0,P|388:190|362:271,1,179.999994506836
362,261,30555,1,0,0:0:0:0:
168,363,30678,2,0,P|154:270|132:213,1,119.999996337891,8|0,0:0|0:0,0:0:0:0:
377,378,30926,5,0,0:0:0:0:
292,335,31050,1,0,0:0:0:0:
292,335,31112,1,0,0:0:0:0:
292,335,31174,2,0,P|260:308|211:302,1,59.9999981689454,8|0,0:0|0:0,0:0:0:0:
3,210,31298,2,0,P|44:196|72:170,1,59.9999981689454,8|0,0:0|0:0,0:0:0:0:
348,44,31422,5,2,0:0:0:0:
198,32,31546,1,0,0:0:0:0:
59,24,31670,1,0,0:0:0:0:
125,91,31794,5,2,0:0:0:0:
200,75,31918,1,0,0:0:0:0:
273,62,32042,1,0,0:0:0:0:
231,120,32166,5,2,0:0:0:0:
202,114,32290,1,0,0:0:0:0:
172,108,32414,1,0,0:0:0:0:
180,154,32538,5,2,0:0:0:0:
204,148,32662,1,0,0:0:0:0:
221,143,32786,1,0,0:0:0:0:
203,228,32910,5,2,0:0:0:0:
203,228,33034,2,0,P|198:268|192:307,1,80,0|4,0:0|0:3,0:0:0:0:
277,359,33406,5,6,0:0:0:0:
358,339,33530,1,0,0:0:0:0:
337,259,33654,1,0,0:0:0:0:
134,189,33778,5,10,0:0:0:0:
69,225,33902,1,0,0:0:0:0:
107,289,34026,1,0,0:0:0:0:
228,282,34150,5,2,0:0:0:0:
248,238,34274,1,0,0:0:0:0:
211,211,34397,1,0,0:0:0:0:
3,298,34521,5,2,0:0:0:0:
43,333,34645,1,0,0:0:0:0:
93,322,34769,1,0,0:0:0:0:
93,322,34831,1,0,0:0:0:0:
93,322,34893,2,0,L|67:209,1,100,10|0,0:0|0:0,0:0:0:0:
284,11,35141,2,0,L|271:87,1,70,10|0,0:0|0:0,0:0:0:0:
272,79,35637,6,0,L|260:20,1,50,2|2,0:0|0:0,0:0:0:0:
350,106,35761,2,0,L|338:165,1,50,2|2,0:0|0:0,0:0:0:0:
107,130,35885,2,0,P|158:137|253:156,1,100,2|0,0:0|0:0,0:0:0:0:
506,241,36133,2,0,P|432:255|349:274,1,150,2|0,0:0|0:0,0:0:0:0:
271,232,36381,5,6,0:0:0:0:
252,323,36505,1,0,0:0:0:0:
334,370,36629,1,0,0:0:0:0:
429,214,36753,5,10,0:0:0:0:
443,140,36877,1,0,0:0:0:0:
381,97,37001,1,0,0:0:0:0:
191,101,37125,5,2,0:0:0:0:
225,172,37249,1,0,0:0:0:0:
297,159,37373,1,0,0:0:0:0:
300,3,37497,5,2,0:0:0:0:
279,29,37621,1,0,0:0:0:0:
289,58,37745,1,0,0:0:0:0:
289,58,37807,1,0,0:0:0:0:
289,58,37869,2,0,P|377:37|412:28,1,100,10|0,0:0|0:0,0:0:0:0:
481,320,38116,2,0,P|442:311|408:301,1,70,8|0,0:0|0:0,0:0:0:0:
413,302,38612,6,0,L|427:235,1,50,2|0,0:0|0:0,0:0:0:0:
313,323,38736,2,0,L|326:392,1,50
495,202,38860,5,10,0:0:0:0:
326,164,38984,1,8,0:0:0:0:
217,297,39108,1,8,0:0:0:0:
321,153,39232,1,8,0:0:0:0:
208,19,39356,6,0,P|153:57|134:91,1,100,6|0,0:0|0:0,0:0:0:0:
44,192,39604,2,0,P|21:105|-12:25,1,150,10|0,0:0|0:0,0:0:0:0:
3,42,39852,1,2,0:0:0:0:
162,188,39976,1,0,0:0:0:0:
185,202,40038,1,0,0:0:0:0:
207,201,40100,1,8,0:0:0:0:
145,356,40224,6,0,P|88:308|-4:306,1,150,2|0,0:0|0:0,0:0:0:0:
10,307,40472,1,0,0:0:0:0:
95,143,40596,1,10,0:0:0:0:
102,283,40720,5,0,0:0:0:0:
102,283,40782,1,0,0:0:0:0:
102,283,40844,1,10,0:0:0:0:
0,55,40968,1,10,0:0:0:0:
0,217,41092,5,10,0:0:0:0:
117,23,41216,1,10,0:0:0:0:
281,216,41340,6,0,P|356:202|376:113,1,150,6|0,0:0|0:0,0:0:0:0:
336,81,41587,2,0,P|323:27|308:-12,1,75.0000028610231
231,157,41835,1,8,0:0:0:0:
512,220,41959,6,0,P|425:125|366:152,1,187.5,2|0,0:0|0:0,0:0:0:0:
361,223,42207,2,0,P|322:345|375:383,1,187.5
422,357,42455,2,0,P|464:349|504:344,1,75.0000028610231
77,211,42703,5,0,0:0:0:0:
34,276,42827,2,0,P|73:356|162:352,1,187.5,10|0,0:0|0:0,0:0:0:0:
203,289,43075,2,0,P|196:247|185:195,1,75.0000028610231,2|0,0:0|0:0,0:0:0:0:
375,53,43323,6,0,P|286:96|297:179,1,187.5,6|0,0:0|0:0,0:0:0:0:
370,217,43571,2,0,P|405:203|454:190,1,75.0000028610231
454,103,43819,1,8,0:0:0:0:
150,248,43943,6,0,P|231:303|298:252,1,187.5,2|0,0:0|0:0,0:0:0:0:
299,178,44191,2,0,P|306:79|228:47,1,187.5
168,9,44439,2,0,P|126:22|69:40,1,75.0000028610231
55,144,44687,5,0,0:0:0:0:
3,207,44811,2,0,P|-6:290|85:358,1,187.5,14|0,0:0|0:0,0:0:0:0:
212,299,45059,2,0,L|227:207,1,62.5
131,301,45182,2,0,L|139:341,1,37.5000014305115
338,348,45306,6,0,P|425:349|462:246,1,187.5,4|0,0:0|0:0,0:0:0:0:
429,203,45554,2,0,P|402:153|373:108,1,75.0000028610231
366,258,45802,1,8,0:0:0:0:
473,98,45926,6,0,P|427:2|344:4,1,187.5,2|0,0:0|0:0,0:0:0:0:
317,68,46174,2,0,P|257:155|300:226,1,187.5
370,262,46422,2,0,P|405:252|466:237,1,75.0000028610231
183,43,46670,1,0,0:0:0:0:
183,43,46732,1,0,0:0:0:0:
183,43,46794,2,0,P|125:27|77:10,1,100,10|0,0:0|0:0,0:0:0:0:
15,67,47042,1,0,0:0:0:0:
0,287,47290,6,0,P|89:267|182:250,1,150,6|0,0:0|0:0,0:0:0:0:
213,292,47537,1,2,0:0:0:0:
225,303,47599,1,0,0:0:0:0:
231,319,47661,1,0,0:0:0:0:
231,334,47723,1,0,0:0:0:0:
227,351,47785,2,0,P|203:344|167:338,1,50
166,174,47909,2,0,P|175:141|180:115,1,50
349,16,48033,5,2,0:0:0:0:
364,28,48095,1,0,0:0:0:0:
372,46,48157,1,0,0:0:0:0:
372,65,48219,1,0,0:0:0:0:
363,83,48281,1,2,0:0:0:0:
348,96,48343,1,0,0:0:0:0:
328,101,48405,1,0,0:0:0:0:
308,96,48467,1,0,0:0:0:0:
292,82,48529,6,0,P|262:62|225:46,1,50
399,162,48653,2,0,P|420:150|441:135,1,50
249,181,48777,2,0,P|261:220|267:248,1,50
365,246,48901,1,0,0:0:0:0:
498,336,49025,6,0,P|470:262|396:258,1,150,6|0,0:0|0:0,0:0:0:0:
340,283,49272,2,0,P|354:342|359:377,1,75.0000028610231,2|0,0:0|0:0,0:0:0:0:
512,184,49520,1,8,0:0:0:0:
419,15,49644,6,0,P|315:57|305:148,1,187.5,2|0,0:0|0:0,0:0:0:0:
257,198,49892,2,0,P|345:267|429:230,1,187.5
419,176,50140,2,0,P|405:124|395:70,1,75.0000028610231
174,9,50388,1,0,0:0:0:0:
174,9,50450,1,0,0:0:0:0:
174,9,50512,2,0,P|160:65|151:93,1,75.0000028610231,10|0,0:0|0:0,0:0:0:0:
18,291,50760,2,0,P|7:261|-10:224,2,50.0000019073487
91,238,51008,6,0,P|172:248|198:361,1,187.5,6|0,0:0|0:0,0:0:0:0:
123,384,51256,2,0,P|64:373|30:370,1,75.0000028610231,2|0,0:0|0:0,0:0:0:0:
41,150,51504,1,8,0:0:0:0:
380,251,51628,6,0,P|335:359|250:371,1,187.5,2|0,0:0|0:0,0:0:0:0:
204,344,51876,2,0,P|132:251|165:171,1,187.5
202,113,52124,2,0,P|246:108|287:93,1,75.0000028610231
480,42,52372,5,0,0:0:0:0:
480,42,52434,1,0,0:0:0:0:
480,42,52496,1,10,0:0:0:0:
278,184,52661,1,10,0:0:0:0:
512,267,52826,1,10,0:0:0:0:
362,19,52991,6,0,P|366:111|485:151,1,187.5,6|0,0:0|0:0,0:0:0:0:
512,153,53239,2,0,P|453:170|424:183,1,75.0000028610231,2|0,0:0|0:0,0:0:0:0:
263,339,53487,1,8,0:0:0:0:
334,306,53611,6,0,P|266:199|190:212,1,187.5,2|0,0:0|0:0,0:0:0:0:
165,142,53859,2,0,P|106:254|155:313,1,187.5
189,367,54107,2,0,P|229:347|261:332,1,75.0000028610231
87,83,54355,1,0,0:0:0:0:
87,83,54417,1,0,0:0:0:0:
87,83,54479,2,0,P|39:60|6:48,1,75.0000028610231,10|0,0:0|0:0,0:0:0:0:
159,19,54727,1,0,0:0:0:0:
284,166,54975,6,0,P|321:78|358:18,1,150,6|0,0:0|0:0,0:0:0:0:
424,2,55222,1,10,0:0:0:0:
451,2,55284,1,0,0:0:0:0:
475,19,55346,1,8,0:0:0:0:
479,47,55408,1,0,0:0:0:0:
465,68,55470,2,0,P|441:103|436:117,1,50,8|0,0:0|0:0,0:0:0:0:
491,174,55594,2,0,P|504:212|504:237,1,50,8|0,0:0|0:0,0:0:0:0:
418,337,55718,5,10,0:0:0:0:
402,346,55780,1,0,0:0:0:0:
382,351,55842,1,8,0:0:0:0:
359,349,55904,1,0,0:0:0:0:
341,341,55966,1,10,0:0:0:0:
324,326,56028,1,0,0:0:0:0:
313,306,56090,1,8,0:0:0:0:
313,285,56152,1,0,0:0:0:0:
321,265,56214,6,0,P|333:232|347:207,1,50,8|0,0:0|0:0,0:0:0:0:
217,154,56338,2,0,P|236:188|244:212,1,50,8|0,0:0|0:0,0:0:0:0:
318,83,56462,2,0,P|302:52|277:38,1,50,8|0,0:0|0:0,0:0:0:0:
207,23,56586,1,0,0:0:0:0:
34,347,56710,6,0,P|108:326|219:302,1,150,6|0,0:0|0:0,0:0:0:0:
132,232,56958,2,0,P|100:169|68:117,1,100,10|0,0:0|0:0,0:0:0:0:
111,373,57206,1,2,0:0:0:0:
111,373,57330,1,0,0:0:0:0:
354,280,57454,1,10,0:0:0:0:
258,173,57578,6,0,P|236:281|221:375,1,200,2|0,0:0|0:0,0:0:0:0:
429,363,57950,1,8,0:0:0:0:
218,241,58074,1,0,0:0:0:0:
218,241,58136,1,0,0:0:0:0:
218,241,58198,1,8,0:0:0:0:
468,166,58322,1,8,0:0:0:0:
350,151,58446,6,0,P|336:81|318:-5,1,150,6|0,0:0|0:0,0:0:0:0:
409,29,58694,2,0,P|458:56|523:83,1,100,10|0,0:0|0:0,0:0:0:0:
297,92,58941,1,2,0:0:0:0:
297,92,59065,1,0,0:0:0:0:
468,166,59189,1,10,0:0:0:0:
218,171,59313,6,0,P|122:125|26:83,1,200,2|0,0:0|0:0,0:0:0:0:
195,63,59685,2,0,P|206:32|219:2,3,50,2|0|0|0,0:0|0:0|0:0|0:0,0:0:0:0:
109,0,59933,2,0,P|114:24|124:51,2,37.5000014305115,4|4|4,0:3|0:3|0:3,0:0:0:0:
30,184,60181,6,0,P|75:250|114:320,1,150,6|0,0:0|0:0,0:0:0:0:
184,370,60429,2,0,P|195:310|209:262,1,100,10|0,0:0|0:0,0:0:0:0:
43,280,60677,1,2,0:0:0:0:
43,280,60801,1,0,0:0:0:0:
274,224,60925,1,10,0:0:0:0:
197,0,61049,6,0,P|171:117|150:227,1,200,2|0,0:0|0:0,0:0:0:0:
42,277,61421,1,8,0:0:0:0:
206,133,61545,1,0,0:0:0:0:
206,133,61607,1,0,0:0:0:0:
206,133,61669,1,8,0:0:0:0:
0,59,61793,1,8,0:0:0:0:
293,38,61917,5,6,0:0:0:0:
370,19,62040,1,0,0:0:0:0:
445,3,62164,1,0,0:0:0:0:
339,46,62288,5,2,0:0:0:0:
387,51,62412,1,0,0:0:0:0:
433,56,62536,1,0,0:0:0:0:
367,77,62660,5,2,0:0:0:0:
394,93,62784,1,0,0:0:0:0:
422,110,62908,1,0,0:0:0:0:
371,103,63032,5,2,0:0:0:0:
380,122,63156,1,0,0:0:0:0:
387,138,63280,1,0,0:0:0:0:
282,132,63404,6,0,P|213:113|141:98,1,100,14|0,0:0|0:0,0:0:0:0:
73,22,63652,1,8,0:0:0:0:
131,179,63776,1,8,0:0:0:0:
241,35,63900,5,2,0:0:0:0:
245,28,64148,1,2,0:0:0:0:
76,113,64272,2,0,P|46:44|24:7,1,100,2|10,0:0|0:0,0:0:0:0:
225,210,64520,2,0,P|200:288|195:334,1,100,0|10,0:0|0:0,0:0:0:0:
58,355,64768,1,0,0:0:0:0:
109,275,64892,5,10,0:0:0:0:
0,247,65016,1,0,0:0:0:0:
257,367,65140,5,6,0:0:0:0:
136,176,65264,2,0,L|107:61,1,100,10|2,0:0|0:0,0:0:0:0:
197,305,65512,5,6,0:0:0:0:
231,91,65636,2,0,P|256:19|277:-29,1,100,8|0,0:0|0:0,0:0:0:0:
392,348,65883,5,6,0:0:0:0:
354,275,66007,1,0,0:0:0:0:
314,203,66131,1,0,0:0:0:0:
397,302,66255,5,2,0:0:0:0:
380,259,66379,1,0,0:0:0:0:
366,219,66503,1,0,0:0:0:0:
412,273,66627,5,2,0:0:0:0:
410,250,66751,1,0,0:0:0:0:
406,221,66875,1,0,0:0:0:0:
433,258,66999,5,2,0:0:0:0:
437,242,67123,1,0,0:0:0:0:
442,222,67247,1,0,0:0:0:0:
463,361,67371,6,0,P|390:344|276:324,1,150,10|0,0:0|0:0,0:0:0:0:
251,365,67619,1,4,0:3:0:0:
251,365,67743,1,4,0:3:0:0:
347,103,67867,5,2,0:0:0:0:
293,166,67991,2,0,P|269:198|236:279,1,100,2|2,0:0|0:0,0:0:0:0:
221,30,68239,5,2,0:0:0:0:
197,90,68363,2,0,P|187:120|185:188,1,80,2|0,0:0|0:0,0:0:0:0:
96,24,68611,5,8,0:0:0:0:
93,76,68735,2,0,P|94:101|111:155,1,59.9999981689454
0,315,68983,5,0,0:0:0:0:
0,315,69107,2,0,P|56:298|157:275,1,150,8|0,0:0|0:0,0:0:0:0:
214,322,69355,1,0,0:0:0:0:
79,211,69478,1,8,0:0:0:0:
126,367,69602,5,0,0:0:0:0:
174,204,69726,1,8,0:0:0:0:
6,52,69850,5,6,0:0:0:0:
92,78,69974,1,0,0:0:0:0:
176,105,70098,1,0,0:0:0:0:
71,23,70222,5,2,0:0:0:0:
112,51,70346,1,0,0:0:0:0:
150,75,70470,1,0,0:0:0:0:
121,10,70594,5,2,0:0:0:0:
138,38,70718,1,0,0:0:0:0:
156,59,70842,1,0,0:0:0:0:
170,0,70966,5,2,0:0:0:0:
168,26,71090,1,0,0:0:0:0:
166,50,71214,1,0,0:0:0:0:
293,102,71338,2,0,P|386:79|469:64,1,150,12|0,0:0|0:0,0:0:0:0:
509,112,71586,1,4,0:3:0:0:
512,106,71710,1,4,0:3:0:0:
357,4,71834,5,2,0:0:0:0:
310,187,71958,2,0,P|299:226|285:300,1,100,2|2,0:0|0:0,0:0:0:0:
385,253,72206,5,2,0:0:0:0:
293,102,72330,2,0,P|243:85|176:71,1,100,2|2,0:0|0:0,0:0:0:0:
213,201,72578,5,2,0:0:0:0:
410,134,72702,1,2,0:0:0:0:
151,11,72826,1,8,0:0:0:0:
143,17,73074,5,2,0:0:0:0:
286,112,73197,1,0,0:0:0:0:
61,98,73321,2,0,P|29:60|44:13,1,100,2|2,0:0|0:0,0:0:0:0:
191,80,73569,2,0,P|175:117|166:150,1,66.6666666666667
153,248,73817,5,6,0:0:0:0:
76,279,73941,1,0,0:0:0:0:
0,313,74065,1,0,0:0:0:0:
148,297,74189,5,2,0:0:0:0:
82,304,74313,1,0,0:0:0:0:
17,310,74437,1,0,0:0:0:0:
142,332,74561,5,2,0:0:0:0:
90,327,74685,1,0,0:0:0:0:
39,322,74809,1,0,0:0:0:0:
131,359,74933,5,2,0:0:0:0:
96,349,75057,1,0,0:0:0:0:
58,343,75181,1,0,0:0:0:0:
23,215,75305,6,0,P|10:156|-9:93,1,100,14|0,0:0|0:0,0:0:0:0:
109,26,75553,1,0,0:0:0:0:
174,119,75677,2,0,P|150:112|115:104,1,50,8|0,0:0|0:0,0:0:0:0:
11,8,75801,5,4,0:3:0:0:
217,29,75972,1,4,0:3:0:0:
406,68,76143,1,4,0:3:0:0:
207,44,76315,1,4,0:3:0:0:
0,42,76485,1,4,0:3:0:0:
343,140,76661,5,14,0:0:0:0:
165,147,76837,1,0,0:0:0:0:
5,184,77014,1,0,0:0:0:0:
267,182,77190,1,14,0:0:0:0:
438,223,77379,1,0,0:0:0:0:
183,254,77567,5,14,0:0:0:0:
78,281,77754,1,0,0:0:0:0:
357,344,77944,6,0,P|420:322|496:300,1,133.333333333333,6|0,0:0|0:0,0:0:0:0:
351,133,78405,2,0,P|300:89|243:34,1,133.333333333333,6|0,0:0|0:0,0:0:0:0:
183,254,78867,2,0,P|170:319|151:396,1,133.333333333333,6|0,0:0|0:0,0:0:0:0:
301,231,79328,1,2,0:0:0:0:
18,150,79636,5,0,0:0:0:0:
170,108,79790,1,10,0:0:0:0:
170,108,79846,1,0,0:0:0:0:
6,135,79960,2,0,P|68:146|121:171,1,100,0|4,0:0|0:3,0:0:0:0:
0,34,80301,1,2,0:0:0:0:
160,12,80471,6,0,P|138:59|66:321,1,320,2|0,0:0|0:0,0:0:0:0:
0,53,90016,6,0,P|10:92|31:108,1,59.9999981689454
196,37,90357,2,0,P|157:26|132:36,1,59.9999981689454
100,218,90698,2,0,P|128:189|132:163,1,59.9999981689454
104,100,91039,2,0,P|241:67|290:58,1,166.666666666667,4|0,0:0|0:0,0:0:0:0:
343,0,91380,6,0,L|337:32,1,30,8|0,0:0|0:0,0:0:0:0:
247,148,92061,6,0,B|251:217|308:221|421:167|267:108|427:131,1,200,10|0,0:0|0:0,0:0:0:0:
461,102,92573,2,0,B|462:83|486:27|498:65|519:33|519:15|506:-2|506:-2|483:0|460:11|434:30|453:71|454:94,1,239.999992675781,6|0,0:0|0:0,0:0:0:0:
421,282,93084,6,0,B|408:323|460:343|460:343|432:284|533:239|406:251|404:198,1,239.999992675781,6|8,0:0|0:0,0:0:0:0:
477,168,93596,1,6,0:0:0:0:
203,355,93880,1,0,0:0:0:0:
284,350,94192,6,0,B|311:357|330:373|330:373|352:256|237:225|237:225|245:242|237:286,1,300
252,107,94874,2,0,B|170:21|86:90|86:90|152:82|159:164|138:213|88:216|90:174|81:140|-63:168|-33:291|30:317,1,550
196,366,96152,1,8,0:0:0:0:
196,366,96493,2,0,P|145:356|98:344,1,100,4|0,0:0|0:0,0:0:0:0:
14,307,96834,5,0,0:0:0:0:
23,322,97175,1,0,0:0:0:0:
291,306,97516,6,0,B|307:263|356:248|356:248|326:168|252:215,1,200,10|0,0:0|0:0,0:0:0:0:
168,4,98027,2,0,B|176:37|176:37|141:43|85:107|156:175|194:120,1,200,6|0,0:0|0:0,0:0:0:0:
193,123,98453,1,0,0:0:0:0:
201,115,98539,2,0,P|173:212|165:272,1,139.999995727539,6|8,0:0|0:0,0:0:0:0:
35,35,99050,2,0,P|49:84|63:188,1,139.999995727539,6|0,0:0|0:0,0:0:0:0:
0,266,99561,5,6,0:0:0:0:
0,266,99647,1,0,0:0:0:0:
204,318,99902,1,0,0:0:0:0:
52,327,100158,1,0,0:0:0:0:
52,327,100243,2,0,P|124:337|191:224,1,200,8|4,0:0|0:0,0:0:0:0:
177,158,100755,1,0,0:0:0:0:
479,237,100925,5,2,0:0:0:0:
479,237,101010,1,0,0:0:0:0:
298,317,101181,1,0,0:0:0:0:
298,317,101266,1,2,0:0:0:0:
471,321,101522,1,0,0:0:0:0:
471,321,101607,2,0,P|426:228|315:149,1,200,10|4,0:0|0:0,0:0:0:0:
480,24,102118,5,0,0:0:0:0:
488,31,102289,1,0,0:0:0:0:
485,45,102630,1,0,0:0:0:0:
327,66,102971,2,0,B|270:94|259:9|382:3|411:102,1,200,10|0,0:0|0:0,0:0:0:0:
477,56,103482,2,0,P|433:125|401:241,1,200,6|0,0:0|0:0,0:0:0:0:
354,303,103993,2,0,B|312:281|321:224|321:224|276:284|323:321,1,200,6|8,0:0|0:0,0:0:0:0:
448,327,104505,2,0,B|458:363|508:344|526:279|458:229|381:239,1,200,6|0,0:0|0:0,0:0:0:0:
321,128,105016,6,0,B|359:76|234:36|47:258|178:344|236:258,1,350,2|0,0:0|0:0,0:0:0:0:
251,364,105783,2,0,B|267:269|75:189|-145:217|-162:304|184:237|130:376,1,550
116,122,107061,6,0,P|99:88|75:68,2,66.6666666666667,8|0|0,0:0|0:0|0:0,0:0:0:0:
18,323,107402,2,0,P|56:237|65:143,1,150,4|0,0:0|0:0,0:0:0:0:
146,204,107743,1,0,0:0:0:0:
353,0,108084,6,0,P|300:38|288:77,1,100
206,46,108425,2,0,B|173:60|175:145|250:185|272:118|337:156|315:226,1,250,10|0,0:0|0:0,0:0:0:0:
299,292,108936,2,0,P|255:330|291:283,1,150,6|0,0:0|0:0,0:0:0:0:
341,73,109448,6,0,B|347:23|411:20|447:27|441:74|356:39|392:149,1,200,6|8,0:0|0:0,0:0:0:0:
503,268,109959,2,0,B|511:182|456:169|456:169|431:213|378:207,1,200,6|0,0:0|0:0,0:0:0:0:
239,315,110471,6,0,B|320:259|394:355|394:355|465:230|354:171|193:241|129:161|196:60|196:60|259:145|343:112,1,800,6|0,0:0|0:0,0:0:0:0:
395,31,112005,1,2,0:0:0:0:
395,31,112175,2,0,P|359:135|332:251,1,200,0|8,0:0|0:0,0:0:0:0:
274,63,112857,2,0,P|188:64|169:141,1,166.666666666667,4|0,0:0|0:0,0:0:0:0:
176,152,113198,5,2,0:0:0:0:
52,14,113368,1,8,0:0:0:0:
71,23,113539,1,8,0:0:0:0:
99,92,113709,5,2,0:0:0:0:
81,249,113880,1,8,0:0:0:0:
65,259,114050,1,8,0:0:0:0:
177,233,114221,5,2,0:0:0:0:
65,160,114391,1,8,0:0:0:0:
48,158,114561,1,8,0:0:0:0:
0,225,114732,5,2,0:0:0:0:
152,309,114902,1,8,0:0:0:0:
334,326,115073,1,0,0:0:0:0:
494,269,115243,5,8,0:0:0:0:
494,269,115286,1,8,0:0:0:0:
415,199,115414,1,0,0:0:0:0:
312,186,115584,1,4,0:3:0:0:
213,231,115755,1,0,0:0:0:0:
152,309,115925,6,0,L|156:340,1,30,4|0,0:0|0:0,0:0:0:0:
155,338,116607,6,0,P|64:247|-28:237,1,200,10|0,0:0|0:0,0:0:0:0:
145,182,117118,1,0,0:0:0:0:
0,148,117289,2,0,P|47:127|77:66,1,100,2|0,0:0|0:0,0:0:0:0:
55,17,117544,1,0,0:0:0:0:
55,17,117630,1,0,0:0:0:0:
145,182,117800,1,0,0:0:0:0:
205,0,117971,5,8,0:0:0:0:
205,0,118141,2,0,P|185:67|172:118,1,100
145,182,118482,1,0,0:0:0:0:
364,280,118652,6,0,P|379:284|395:290,1,30,2|0,0:0|0:0,0:0:0:0:
392,289,119334,6,0,P|426:223|334:134,1,200,8|2,0:0|0:0,0:0:0:0:
242,361,119846,1,0,2:0:0:0:
242,361,119902,1,0,2:0:0:0:
242,361,119959,1,0,2:0:0:0:
242,361,120016,2,0,B|299:171|155:195|220:28,1,333.333333333333,4|0,0:0|0:0,0:0:0:0:
337,0,120698,2,0,B|277:295|131:128|114:391,1,450.000017166138,4|0,0:0|0:0,0:0:0:0:
52,145,121380,6,0,L|58:175,1,30,0|0,2:2|0:0,0:0:0:0:
234,307,121721,6,0,P|94:279|12:266,1,209.999993591309,6|0,0:0|0:0,0:0:0:0:
27,268,122061,1,8,0:0:0:0:
116,370,122232,2,0,L|184:27,1,340.000006484985,6|0,0:0|0:0,0:0:0:0:
385,86,122743,6,0,L|430:287,1,200,6|0,0:0|0:0,0:0:0:0:
428,281,123255,1,4,0:0:0:0:
300,250,123425,2,0,L|314:160,1,80,8|0,0:0|0:0,0:0:0:0:
506,309,123766,6,0,L|247:354,1,239.999992675781,4|0,0:0|0:0,0:0:0:0:
140,86,124789,2,0,P|132:56|124:29,1,60,8|0,0:0|0:0,0:0:0:0:
51,83,125471,5,4,0:0:0:0:
51,83,125556,1,0,0:0:0:0:
245,22,125726,1,0,0:0:0:0:
245,22,125811,2,0,L|222:139,1,89.9999972534181,8|0,0:0|0:0,0:0:0:0:
91,161,125982,1,8,0:0:0:0:
354,107,126152,5,0,0:0:0:0:
354,107,126238,1,0,0:0:0:0:
354,107,126323,2,0,P|290:194|262:241,1,134.999995880127,4|0,0:3|0:0,0:0:0:0:
200,259,126664,1,4,0:3:0:0:
211,277,126749,1,0,0:0:0:0:
221,297,126834,1,4,0:3:0:0:
222,297,127175,1,0,0:0:0:0:
512,347,127516,6,0,P|491:253|365:276,1,209.999993591309,4|0,0:0|0:0,0:0:0:0:
382,261,127857,1,0,0:0:0:0:
425,64,128027,2,0,P|308:221|344:423,1,340.000006484985,6|0,0:0|0:0,0:0:0:0:
232,128,128539,6,0,P|226:54|134:9,1,150,6|0,0:0|0:0,0:0:0:0:
66,32,128880,2,0,L|3:51,1,50,8|0,0:0|0:0,0:0:0:0:
137,105,129050,2,0,P|62:150|61:241,1,160,4|0,0:0|0:0,0:0:0:0:
142,354,129561,6,0,P|172:343|203:336,1,59.9999981689454,4|0,0:0|0:0,0:0:0:0:
73,308,129902,1,0,0:0:0:0:
73,308,129988,1,0,0:0:0:0:
279,383,130158,1,0,0:0:0:0:
279,383,130243,2,0,P|293:294|303:257,1,100,8|0,0:0|0:0,0:0:0:0:
242,219,130499,1,8,0:0:0:0:
461,203,130669,1,0,0:0:0:0:
440,185,130755,1,0,0:0:0:0:
412,178,130840,1,0,0:0:0:0:
383,186,130925,2,0,P|366:126|348:74,1,100
407,270,131266,1,4,0:0:0:0:
407,270,131351,1,0,0:0:0:0:
481,90,131522,1,0,0:0:0:0:
493,67,131607,5,8,0:0:0:0:
451,47,131692,1,8,0:0:0:0:
401,47,131777,1,0,0:0:0:0:
358,85,131863,1,0,0:0:0:0:
311,113,131948,1,8,0:3:0:0:
274,108,132033,1,8,0:3:0:0:
245,95,132118,1,4,0:3:0:0:
231,69,132203,1,4,0:3:0:0:
233,52,132289,1,8,0:3:0:0:
233,52,132630,1,0,0:0:0:0:
44,9,132971,6,0,P|73:79|122:239,1,209.999993591309,10|0,0:0|0:0,0:0:0:0:
130,225,133311,1,0,0:0:0:0:
341,327,133482,2,0,P|169:354|-8:380,1,340.000006484985,6|0,0:0|0:0,0:0:0:0:
227,271,133993,6,0,P|246:187|275:96,1,150,6|0,0:0|0:0,0:0:0:0:
201,47,134334,2,0,P|193:21|168:-30,1,50,8|0,0:0|0:0,0:0:0:0:
259,114,134505,2,0,P|334:92|421:67,1,160,4|0,0:0|0:0,0:0:0:0:
483,311,135016,5,2,0:0:0:0:
483,311,135101,1,0,0:0:0:0:
391,267,135272,5,8,0:0:0:0:
410,189,135357,2,0,P|421:231|425:255,1,50
353,353,135527,1,0,0:0:0:0:
353,353,135613,1,0,0:0:0:0:
289,244,135783,5,8,0:0:0:0:
308,166,135868,2,0,P|319:208|323:232,1,50
236,384,136124,5,0,0:0:0:0:
236,384,136209,1,0,0:0:0:0:
236,384,136294,2,0,P|223:335|208:287,1,100,4|0,0:3|0:0,0:0:0:0:
182,221,136550,5,8,0:0:0:0:
201,143,136635,2,0,P|212:185|216:209,1,50
146,358,136806,1,0,0:0:0:0:
146,358,136891,1,4,0:3:0:0:
66,340,136976,5,8,0:3:0:0:
66,340,137061,2,0,P|76:284|83:257,2,50,8|0|0,0:0|0:0|0:0,0:0:0:0:
42,208,137317,2,0,P|31:168|4:82,1,100,0|8,0:3|0:3,0:0:0:0:
54,47,137573,1,0,0:0:0:0:
59,37,137658,1,0,0:0:0:0:
64,26,137743,1,4,0:0:0:0:
64,26,138084,1,0,0:0:0:0:
476,188,138425,6,0,P|509:218|512:263,1,93.3333304850261,10|0,0:0|0:0,0:0:0:0:
188,180,138681,2,0,P|154:149|151:104,1,93.3333304850261,8|0,0:0|0:0,0:0:0:0:
437,260,138936,6,0,P|425:315|417:371,1,113.333335494995,2|0,0:0|0:0,0:0:0:0:
231,111,139192,2,0,P|242:55|250:0,1,113.333335494995
350,295,139448,6,0,P|331:318|294:317,1,66.6666666666667,10|0,0:0|0:0,0:0:0:0:
313,113,139703,2,0,P|332:90|369:91,1,66.6666666666667,8|0,0:0|0:0,0:0:0:0:
251,252,139959,6,0,B|223:213|235:210|251:251,1,66.6666666666667,4|0,0:0|0:0,0:0:0:0:
433,143,140215,2,0,B|460:181|448:184|432:143,1,66.6666666666667
337,200,140471,6,0,P|224:178|110:164,1,200,4|0,0:0|0:0,0:0:0:0:
139,166,140982,1,0,0:0:0:0:
11,44,141152,1,8,0:0:0:0:
130,15,141323,6,0,P|116:57|106:91,1,50,4|0,0:0|0:0,0:0:0:0:
37,135,141493,2,0,P|48:169|58:208,1,50,4|0,0:0|0:0,0:0:0:0:
112,331,141664,1,4,0:0:0:0:
112,331,142005,5,8,0:0:0:0:
144,348,142090,1,8,0:0:0:0:
176,358,142175,1,8,0:0:0:0:
307,361,142346,1,8,0:0:0:0:
446,308,142516,5,8,0:0:0:0:
345,216,142686,1,0,0:0:0:0:
214,173,142857,1,4,0:3:0:0:
111,187,143027,1,0,0:0:0:0:
41,242,143198,6,0,L|54:329,1,75,6|0,0:0|0:0,0:0:0:0:
125,347,143539,2,0,L|132:398,1,37.5000014305115
146,100,143709,6,0,L|140:61,1,37.5,2|0,0:0|0:0,0:0:0:0:
203,22,144050,2,0,L|197:-22,1,37.5000014305115
294,245,144221,6,0,L|307:332,1,75,2|0,0:0|0:0,0:0:0:0:
383,347,144561,2,0,L|390:398,1,37.5000014305115
409,107,144732,6,0,L|396:14,1,75.0000028610231,2|0,0:0|0:0,0:0:0:0:
484,153,145073,1,0,0:0:0:0:
323,76,145243,1,10,0:0:0:0:
323,76,145300,1,0,0:0:0:0:
198,86,145414,1,0,0:0:0:0:
116,143,145584,1,4,0:3:0:0:
65,212,145755,1,0,0:0:0:0:
89,349,145925,6,0,P|116:364|171:326,1,100,6|0,0:0|0:0,0:0:0:0:
177,321,146436,2,0,P|169:281|129:266,1,80,10|0,0:0|0:0,0:0:0:0:
65,212,146947,6,0,P|21:204|24:112,1,150,2|0,0:0|0:0,0:0:0:0:
45,41,147629,1,0,0:0:0:0:
61,46,147714,1,0,0:0:0:0:
74,56,147800,1,0,0:0:0:0:
83,68,147885,1,0,0:0:0:0:
89,82,147970,2,0,P|99:21|107:-37,1,100,10|0,0:0|0:0,0:0:0:0:
20,285,148311,2,0,P|35:343|44:387,1,100,10|0,0:0|0:0,0:0:0:0:
289,218,148993,5,0,0:0:0:0:
286,208,149050,1,0,0:0:0:0:
283,198,149106,1,0,0:0:0:0:
278,188,149163,1,0,0:0:0:0:
274,181,149220,1,0,0:0:0:0:
270,175,149277,1,0,0:0:0:0:
265,170,149334,6,0,P|276:119|296:55,1,100,8|0,0:0|0:0,0:0:0:0:
207,64,149589,2,0,P|200:35|191:6,1,50,8|0,0:0|0:0,0:0:0:0:
360,143,149824,1,8,0:0:0:0:
170,357,150015,6,0,P|182:301|231:293,1,100,6|0,0:0|0:0,0:0:0:0:
222,295,150526,2,0,P|271:335|270:361,1,80,8|0,0:0|0:0,0:0:0:0:
363,336,151037,6,0,P|394:364|439:285,1,150,2|0,0:0|0:0,0:0:0:0:
433,219,151719,1,0,0:0:0:0:
416,221,151804,1,0,0:0:0:0:
403,227,151890,1,0,0:0:0:0:
391,240,151975,1,0,0:0:0:0:
384,254,152060,2,0,P|369:205|351:160,1,100,10|0,0:0|0:0,0:0:0:0:
469,12,152401,2,0,P|446:68|434:118,1,100,10|0,0:0|0:0,0:0:0:0:
350,17,152742,5,4,0:0:0:0:
341,28,152990,1,0,0:0:0:0:
332,39,153238,6,0,L|320:92,1,50,8|0,0:0|0:0,0:0:0:0:
310,36,153362,2,0,L|298:85,1,50,8|0,0:0|0:0,0:0:0:0:
183,122,153486,6,0,L|171:74,1,50,8|0,0:0|0:0,0:0:0:0:
165,125,153610,2,0,L|154:77,1,50,8|0,0:0|0:0,0:0:0:0:
22,32,153734,5,6,0:0:0:0:
268,241,153857,1,0,0:0:0:0:
0,339,153981,1,10,0:0:0:0:
111,372,154105,1,0,0:0:0:0:
111,372,154167,1,0,0:0:0:0:
111,372,154229,2,0,P|119:303|130:246,1,119.999996337891,2|2,0:0|0:0,0:0:0:0:
11,182,154477,1,8,0:0:0:0:
318,0,154601,6,0,P|336:93|352:192,1,179.999994506836,2|0,0:0|0:0,0:0:0:0:
354,186,154849,1,0,0:0:0:0:
206,202,154973,5,8,0:0:0:0:
487,234,155097,1,0,0:0:0:0:
487,234,155159,1,0,0:0:0:0:
487,234,155221,1,2,0:0:0:0:
462,130,155345,1,0,0:0:0:0:
363,77,155469,1,10,0:0:0:0:
265,109,155593,1,0,0:0:0:0:
7,44,155717,6,0,P|57:126|112:310,2,279.999991455078,6|10|0,0:0|0:0|0:0,0:0:0:0:
263,19,156336,2,0,P|195:47|179:126,1,139.999995727539,0|8,0:0|0:0,0:0:0:0:
0,197,156584,6,0,P|150:229|255:296,1,279.999991455078,2|0,0:0|0:0,0:0:0:0:
61,358,156956,1,8,0:0:0:0:
333,153,157080,6,0,P|342:82|356:11,1,139.999995727539,2|0,0:0|0:0,0:0:0:0:
179,153,157328,2,0,P|170:82|156:11,1,139.999995727539,2|8,0:0|0:0,0:0:0:0:
412,354,157576,6,0,P|496:348|476:213,1,209.999993591309,6|0,0:0|0:0,0:0:0:0:
506,232,157824,1,0,0:0:0:0:
223,237,157948,2,0,P|249:327|266:414,1,139.999995727539,8|0,0:0|0:0,0:0:0:0:
258,372,158134,1,0,0:0:0:0:
258,372,158196,1,2,0:0:0:0:
512,140,158320,2,0,P|450:149|412:206,1,139.999995727539,0|10,0:0|0:0,0:0:0:0:
313,195,158568,6,0,P|288:95|330:1,1,209.999993591309,2|0,0:0|0:0,0:0:0:0:
145,347,158940,5,4,0:3:0:0:
99,361,159022,5,4,0:3:0:0:
50,345,159105,5,4,0:3:0:0:
26,305,159188,5,8,0:0:0:0:
42,211,159312,1,8,0:0:0:0:
217,268,159436,6,0,P|354:242|492:220,2,279.999991455078,6|8|2,0:0|0:0|0:0,0:0:0:0:
512,0,160055,2,0,P|464:76|441:137,1,139.999995727539,2|8,0:0|0:0,0:0:0:0:
409,382,160303,6,0,P|360:268|252:154,1,279.999991455078,2|0,0:0|0:0,0:0:0:0:
252,154,160613,1,0,0:0:0:0:
252,154,160675,1,8,0:0:0:0:
375,0,160799,6,0,L|355:138,1,139.999995727539,2|0,0:0|0:0,0:0:0:0:
139,0,161047,2,0,L|158:138,1,139.999995727539,2|8,0:0|0:0,0:0:0:0:
6,245,161295,6,0,P|26:340|154:318,1,209.999993591309,2|0,0:0|0:0,0:0:0:0:
132,341,161543,1,0,0:0:0:0:
318,325,161667,5,10,0:0:0:0:
329,286,161729,1,0,0:0:0:0:
312,246,161791,1,0,0:0:0:0:
279,225,161853,1,0,0:0:0:0:
258,221,161915,1,4,0:3:0:0:
236,224,161977,1,4,0:3:0:0:
219,231,162039,1,4,0:3:0:0:
206,243,162101,1,4,0:3:0:0:
203,259,162163,2,0,L|219:336,1,69.9999978637696,12|8,0:3|0:3,0:0:0:0:
402,379,162287,5,10,0:0:0:0:
402,379,162349,1,4,0:3:0:0:
402,379,162411,2,4,L|419:305,1,69.9999978637696,4|4,0:3|0:3,0:3:0:0:
336,154,162535,5,10,0:0:0:0:
325,115,162597,1,4,0:3:0:0:
342,75,162659,1,4,0:3:0:0:
375,54,162721,1,4,0:3:0:0:
396,50,162783,1,4,0:3:0:0:
418,53,162845,1,4,0:3:0:0:
436,61,162907,2,0,L|444:103,3,34.9999989318848,4|0|8|8,0:3|0:0|0:3|0:3,0:0:0:0:
501,155,163155,6,0,P|284:100|191:79,2,279.999991455078,6|8|2,0:0|0:0|0:0,0:0:0:0:
184,17,163774,1,2,0:0:0:0:
305,372,163898,1,8,0:0:0:0:
384,336,164022,6,0,P|401:240|436:57,1,279.999991455078,2|0,0:0|0:0,0:0:0:0:
328,17,164394,1,8,0:0:0:0:
14,296,164518,6,0,P|83:270|172:258,1,139.999995727539,2|0,0:0|0:0,0:0:0:0:
14,88,164766,2,0,P|83:114|172:126,1,139.999995727539,2|10,0:0|0:0,0:0:0:0:
328,17,165014,6,0,P|418:81|388:185,1,209.999993591309,6|0,0:0|0:0,0:0:0:0:
397,175,165262,1,0,0:0:0:0:
239,364,165386,2,0,P|254:289|276:211,1,139.999995727539,8|0,0:0|0:0,0:0:0:0:
270,227,165572,1,0,0:0:0:0:
270,227,165634,1,0,0:0:0:0:
472,337,165758,1,0,0:0:0:0:
329,115,165882,1,10,0:0:0:0:
491,256,166006,6,0,P|288:279|205:293,1,279.999991455078,2|0,0:0|0:0,0:0:0:0:
122,375,166378,1,0,0:0:0:0:
87,366,166440,1,0,0:0:0:0:
120,354,166502,1,0,0:0:0:0:
106,342,166564,1,0,0:0:0:0:
128,333,166626,1,8,0:0:0:0:
24,16,166874,6,0,P|186:51|215:173,2,279.999991455078,6|8|2,0:0|0:0|0:0,0:0:0:0:
0,116,167431,1,0,0:0:0:0:
294,206,167617,1,8,0:0:0:0:
276,9,167741,6,0,P|136:70|117:201,1,279.999991455078,2|0,0:0|0:0,0:0:0:0:
112,183,168051,1,0,0:0:0:0:
112,183,168113,1,8,0:0:0:0:
475,123,168237,6,0,P|396:106|312:89,1,139.999995727539,2|0,0:0|0:0,0:0:0:0:
475,261,168485,2,0,P|396:278|312:295,1,139.999995727539,2|8,0:0|0:0,0:0:0:0:
83,380,168733,6,0,P|41:264|1:179,1,209.999993591309,2|0,0:0|0:0,0:0:0:0:
9,176,168981,1,0,0:0:0:0:
175,31,169105,1,8,0:0:0:0:
204,45,169167,1,8,0:0:0:0:
213,64,169229,1,0,0:0:0:0:
86,105,169353,1,10,0:0:0:0:
62,74,169415,1,8,0:0:0:0:
58,39,169477,1,8,0:0:0:0:
67,16,169539,1,8,0:0:0:0:
79,0,169601,1,8,0:0:0:0:
459,73,169725,5,10,0:0:0:0:
484,91,169787,1,8,0:0:0:0:
485,115,169849,1,8,0:0:0:0:
320,118,169973,1,10,0:0:0:0:
320,118,170035,1,8,0:0:0:0:
320,118,170097,2,0,P|336:25|343:-37,1,139.999995727539,8|8,0:0|0:0,0:0:0:0:
487,208,170345,5,8,0:0:0:0:
220,113,170469,1,8,0:0:0:0:
401,124,170593,5,8,0:0:0:0:
149,210,170716,1,8,0:0:0:0:
30,119,170840,6,0,L|12:16,1,100,6|0,0:0|0:0,0:0:0:0:
131,107,171088,1,0,0:0:0:0:
149,210,171212,1,0,0:0:0:0:
40,227,171336,1,4,0:0:0:0:
44,219,171584,5,0,0:0:0:0:
47,212,171832,5,12,0:0:0:0:
150,202,171956,1,0,0:0:0:0:
192,296,172080,1,0,0:0:0:0:
117,369,172204,1,0,0:0:0:0:
27,319,172328,1,6,0:0:0:0:
31,311,172576,5,0,0:0:0:0:
195,289,172700,1,0,0:0:0:0:
362,259,172824,1,4,0:0:0:0:
366,251,173072,5,0,0:0:0:0:
370,243,173320,5,4,0:0:0:0:
447,176,173444,1,0,0:0:0:0:
398,79,173568,1,0,0:0:0:0:
298,98,173692,1,0,0:0:0:0:
285,197,173816,1,14,0:0:0:0:
413,363,174064,5,0,0:0:0:0:
426,354,174126,1,0,0:0:0:0:
419,337,174188,1,0,0:0:0:0:
399,340,174250,1,0,0:0:0:0:
396,359,174312,1,6,0:0:0:0:
491,259,174435,1,0,0:0:0:0:
298,339,174559,1,0,0:0:0:0:
512,384,174683,1,0,0:0:0:0:
376,233,174807,6,0,L|362:122,1,100,6|0,0:0|0:0,0:0:0:0:
352,36,175055,1,2,0:0:0:0:
454,23,175179,1,2,0:0:0:0:
468,123,175303,1,6,0:0:0:0:
465,131,175551,5,0,0:0:0:0:
359,142,175675,1,0,0:0:0:0:
259,155,175799,1,12,0:0:0:0:
162,168,175923,1,0,0:0:0:0:
158,175,176171,5,0,0:0:0:0:
81,141,176295,1,6,0:0:0:0:
71,60,176419,1,0,0:0:0:0:
136,11,176543,1,2,0:0:0:0:
212,44,176667,1,2,0:0:0:0:
226,122,176791,1,6,0:0:0:0:
223,129,177039,5,0,0:0:0:0:
203,210,177163,1,0,0:0:0:0:
184,295,177287,1,4,0:0:0:0:
164,373,177411,1,2,0:0:0:0:
160,380,177659,5,0,0:0:0:0:
8,247,177783,1,12,0:0:0:0:
109,272,177907,1,0,0:0:0:0:
107,284,177969,1,0,0:0:0:0:
95,276,178031,1,8,0:0:0:0:
28,339,178154,1,8,0:0:0:0:
84,178,178278,5,4,0:0:0:0:
152,363,178402,1,8,0:0:0:0:
275,108,178526,5,0,0:0:0:0:
243,373,178650,1,4,0:3:0:0:
428,101,178774,6,0,L|447:-15,1,100,6|0,0:0|0:0,0:0:0:0:
487,185,179022,1,0,0:0:0:0:
402,243,179146,1,0,0:0:0:0:
347,162,179270,1,4,0:0:0:0:
344,157,179518,5,0,0:0:0:0:
341,150,179766,5,12,0:0:0:0:
279,75,179890,1,0,0:0:0:0:
180,109,180014,1,0,0:0:0:0:
184,216,180138,1,0,0:0:0:0:
290,244,180262,1,6,0:0:0:0:
287,235,180510,5,0,0:0:0:0:
181,208,180634,1,0,0:0:0:0:
81,182,180758,1,4,0:0:0:0:
79,174,181006,5,0,0:0:0:0:
77,163,181254,5,4,0:0:0:0:
15,255,181378,1,0,0:0:0:0:
79,344,181502,1,0,0:0:0:0:
186,311,181626,1,0,0:0:0:0:
179,200,181750,1,12,0:0:0:0:
307,38,181997,5,0,0:0:0:0:
304,61,182059,1,0,0:0:0:0:
330,68,182121,1,0,0:0:0:0:
346,50,182183,1,0,0:0:0:0:
328,28,182245,1,6,0:0:0:0:
229,120,182369,1,0,0:0:0:0:
431,56,182493,1,0,0:0:0:0:
219,0,182617,1,0,0:0:0:0:
351,163,182741,2,0,L|371:268,1,100,6|0,0:0|0:0,0:0:0:0:
301,336,182989,5,2,0:0:0:0:
395,375,183113,1,2,0:0:0:0:
465,304,183237,1,6,0:0:0:0:
468,297,183485,5,2,0:0:0:0:
449,208,183609,1,0,0:0:0:0:
349,175,183733,1,12,0:0:0:0:
278,250,183857,1,0,0:0:0:0:
281,243,184105,5,0,0:0:0:0:
225,336,184229,1,6,0:0:0:0:
113,319,184353,1,0,0:0:0:0:
73,226,184477,1,0,0:0:0:0:
140,130,184601,1,0,0:0:0:0:
247,154,184725,1,6,0:0:0:0:
252,147,184973,5,0,0:0:0:0:
359,222,185097,1,0,0:0:0:0:
479,173,185221,1,4,0:0:0:0:
485,47,185345,1,2,0:0:0:0:
489,38,185593,5,0,0:0:0:0:
255,140,185717,1,8,0:0:0:0:
376,108,185841,1,8,0:0:0:0:
374,96,185903,1,8,0:0:0:0:
362,104,185965,1,8,0:0:0:0:
244,270,186088,1,8,0:0:0:0:
284,11,186212,5,8,0:0:0:0:
123,219,186336,1,8,0:0:0:0:
192,54,186460,5,8,0:0:0:0:
89,124,186584,1,8,0:0:0:0:
80,18,186708,6,0,P|132:148|155:332,1,300.000011444092,6|0,0:0|0:0,0:0:0:0:
251,353,187079,2,0,P|318:336|320:255,1,150.000005722046,10|0,0:0|0:0,0:0:0:0:
478,132,187451,2,0,P|339:112|168:39,1,300.000011444092,2|0,0:0|0:0,0:0:0:0:
78,17,187823,2,0,P|62:108|120:139,1,150.000005722046,2|0,0:0|0:0,0:0:0:0:
100,136,188133,1,0,0:0:0:0:
100,136,188195,1,10,0:0:0:0:
306,8,188443,6,0,P|293:33|279:75,1,70,10|0,0:0|0:0,0:0:0:0:
279,72,188939,6,0,P|249:46|207:36,1,50
338,131,189063,2,0,P|358:105|363:74,1,50
226,149,189187,2,0,P|276:359|276:378,1,187.5,2|0,0:0|0:0,0:0:0:0:
459,377,189435,2,0,P|450:326|376:341,1,112.500004291535,2|0,0:0|0:0,0:0:0:0:
482,248,189683,6,0,P|348:246|345:398,1,300.000011444092,6|0,0:0|0:0,0:0:0:0:
486,253,190055,2,0,P|495:185|515:74,1,150.000005722046,10|0,0:0|0:0,0:0:0:0:
174,45,190427,6,0,P|171:162|314:110,1,300.000011444092,2|0,0:0|0:0,0:0:0:0:
375,87,190798,2,0,P|370:9|368:-21,1,75.0000028610231,2|0,0:0|0:0,0:0:0:0:
370,12,190984,1,0,0:0:0:0:
370,12,191046,1,0,0:0:0:0:
370,12,191108,1,0,0:0:0:0:
370,12,191170,1,10,0:0:0:0:
212,289,191418,6,0,P|207:315|201:350,1,60,10|0,0:0|0:0,0:0:0:0:
201,348,191914,6,0,P|196:319|184:292,1,50
291,308,192038,2,0,P|281:346|278:382,1,50
118,344,192162,5,8,0:0:0:0:
362,260,192286,1,8,0:0:0:0:
70,237,192410,5,8,0:0:0:0:
396,345,192534,1,8,0:0:0:0:
152,119,192658,6,0,P|140:62|117:-3,1,100,2|0,0:0|0:0,0:0:0:0:
327,59,192905,2,0,P|268:137|229:241,1,200,8|2,0:0|0:0,0:0:0:0:
28,31,193277,1,2,0:0:0:0:
28,31,193339,1,0,0:0:0:0:
28,31,193401,1,8,0:0:0:0:
256,0,193525,6,0,P|325:36|446:64,1,187.5,2|0,0:0|0:0,0:0:0:0:
438,58,193773,1,0,0:0:0:0:
422,222,193897,6,0,P|405:293|392:367,1,125,10|0,0:0|0:0,0:0:0:0:
395,344,194083,1,0,0:0:0:0:
395,344,194145,1,8,0:0:0:0:
311,263,194269,1,8,0:0:0:0:
491,293,194393,1,8,0:0:0:0:
307,380,194517,1,8,0:0:0:0:
340,140,194641,5,10,0:0:0:0:
351,101,194703,1,0,0:0:0:0:
334,61,194765,1,0,0:0:0:0:
301,40,194827,1,0,0:0:0:0:
280,36,194889,1,4,0:3:0:0:
258,39,194951,1,4,0:3:0:0:
241,46,195013,1,8,0:3:0:0:
228,58,195075,1,8,0:3:0:0:
225,74,195137,2,0,L|238:137,1,50,10|0,0:0|0:0,0:0:0:0:
99,320,195261,5,10,0:0:0:0:
63,323,195323,1,0,0:0:0:0:
41,292,195385,2,0,L|58:235,1,50,4|4,0:3|0:3,0:0:0:0:
0,185,195509,5,10,0:0:0:0:
49,145,195571,1,0,0:0:0:0:
117,145,195633,1,0,0:0:0:0:
167,180,195695,1,0,0:0:0:0:
185,207,195757,1,4,0:3:0:0:
195,241,195819,1,4,0:3:0:0:
195,269,195881,1,0,0:0:0:0:
186,295,195943,1,0,0:0:0:0:
179,310,196005,2,0,L|190:365,1,50,8|0,0:0|0:0,0:0:0:0:
274,249,196129,2,0,L|283:199,3,50,10|0|0|0,0:0|0:0|0:0|0:0,0:0:0:0:
278,332,196377,2,0,L|297:395,3,50,4|4|0|0,0:3|0:3|0:0|0:0,0:0:0:0:
388,332,196624,5,10,0:0:0:0:
427,343,196686,1,0,0:0:0:0:
467,326,196748,1,0,0:0:0:0:
488,293,196810,1,0,0:0:0:0:
492,272,196872,1,4,0:3:0:0:
489,250,196934,1,4,0:3:0:0:
482,233,196996,1,0,0:0:0:0:
470,220,197058,1,0,0:0:0:0:
454,217,197120,2,0,L|391:230,1,50,10|0,0:0|0:0,0:0:0:0:
268,97,197244,5,10,0:0:0:0:
260,72,197306,1,0,0:0:0:0:
271,48,197368,2,0,L|318:35,1,50,4|4,0:3|0:3,0:0:0:0:
394,0,197492,5,10,0:0:0:0:
412,71,197554,1,0,0:0:0:0:
382,148,197616,1,0,0:0:0:0:
320,186,197678,1,0,0:0:0:0:
280,196,197740,1,4,0:3:0:0:
239,190,197802,1,4,0:3:0:0:
207,175,197864,1,0,0:0:0:0:
182,152,197926,1,0,0:0:0:0:
173,127,197988,2,0,L|183:66,1,50,10|0,0:0|0:0,0:0:0:0:
89,4,198112,2,0,L|97:61,3,50,10|0|4|4,0:0|0:0|0:3|0:3,0:0:0:0:
0,125,198360,5,10,0:0:0:0:
16,129,198422,1,8,0:0:0:0:
32,141,198484,1,8,0:0:0:0:
41,157,198546,1,8,0:0:0:0:
46,177,198608,5,10,0:0:0:0:
35,216,198670,1,0,0:0:0:0:
52,256,198732,1,0,0:0:0:0:
85,277,198794,1,0,0:0:0:0:
106,281,198856,1,4,0:3:0:0:
128,278,198918,1,4,0:3:0:0:
145,271,198980,1,0,0:0:0:0:
158,259,199042,1,0,0:0:0:0:
168,245,199104,2,0,L|156:195,1,50,10|0,0:0|0:0,0:0:0:0:
259,267,199228,5,10,0:0:0:0:
268,289,199290,1,0,0:0:0:0:
257,313,199352,2,0,L|245:373,1,50,4|4,0:3|0:3,0:0:0:0:
186,119,199476,5,10,0:0:0:0:
233,65,199538,1,0,0:0:0:0:
308,54,199600,1,0,0:0:0:0:
369,84,199662,1,0,0:0:0:0:
395,111,199724,1,4,0:3:0:0:
411,146,199786,1,4,0:3:0:0:
416,177,199848,1,0,0:0:0:0:
410,208,199910,1,0,0:0:0:0:
399,236,199972,2,0,L|313:264,1,50,10|0,0:0|0:0,0:0:0:0:
464,291,200096,2,0,L|512:275,3,50,10|4|4|0,0:0|0:3|0:3|0:0,0:0:0:0:
402,355,200343,2,0,L|354:371,3,50,10|4|4|0,0:0|0:3|0:3|0:0,0:0:0:0:
269,347,200591,5,10,0:0:0:0:
247,316,200653,1,8,0:0:0:0:
255,278,200715,1,4,0:3:0:0:
285,141,200839,1,10,0:0:0:0:
299,168,200901,1,8,0:0:0:0:
292,197,200963,1,4,0:3:0:0:
69,268,201087,1,10,0:0:0:0:
82,230,201149,1,8,0:0:0:0:
113,205,201211,1,8,0:0:0:0:
153,192,201273,1,8,0:0:0:0:
193,201,201335,1,8,0:0:0:0:
343,267,201459,5,4,0:0:0:0:
