osu file format v14

[General]
AudioFilename: audio.mp3
AudioLeadIn: 0
PreviewTime: 91721
Countdown: 0
SampleSet: Soft
StackLeniency: 0.2
Mode: 0
LetterboxInBreaks: 0
WidescreenStoryboard: 1

[Editor]
Bookmarks: 99561
DistanceSpacing: 0.7
BeatDivisor: 8
GridSize: 8
TimelineZoom: 2.699999

[Metadata]
Title:Levitator
TitleUnicode:Levitator
Artist:Satyr
ArtistUnicode:Satyr
Creator:IllusionB
Version:Extreme
Source:
Tags:alternative english progressive math rock alt metal locus stream fast zoli itswinter silence player lmt flake zetera
BeatmapID:3111554
BeatmapSetID:1520317

[Difficulty]
HPDrainRate:5.5
CircleSize:3.9
OverallDifficulty:9.3
ApproachRate:9.7
SliderMultiplier:1.8
SliderTickRate:1

[Events]
//Background and Video events
0,0,"elena-bespalova-ask-keep.jpg",0,0
//Break Periods
2,83539,88652
//Storyboard Layer 0 (Background)
//Storyboard Layer 1 (Fail)
//Storyboard Layer 2 (Pass)
//Storyboard Layer 3 (Foreground)
//Storyboard Layer 4 (Overlay)
//Storyboard Sound Samples

[TimingPoints]
185,247.933884297521,8,2,1,60,1,0
185,-66.6666666666667,4,2,1,60,0,0
432,-100,4,2,1,60,0,0
1920,-200,4,2,1,60,0,0
2168,-66.6666666666667,4,2,1,60,0,0
2416,-100,4,2,1,60,0,0
4151,-66.6666666666667,4,2,1,60,0,0
4399,-100,4,2,1,60,0,0
5887,-333.333333333333,4,2,1,60,0,0
6135,247.933884297521,7,2,1,75,1,0
6135,-66.6666666666667,7,2,1,75,0,0
6382,-66.6666666666667,7,2,3,80,0,0
7870,247.933884297521,8,2,1,60,1,0
7870,-66.6666666666667,8,2,1,60,0,0
8117,-100,8,2,1,60,0,0
9605,-200,8,2,1,60,0,0
9853,-66.6666666666667,8,2,1,60,0,0
10101,-100,8,2,1,60,0,0
11506,-100,8,2,1,30,0,0
11671,-100,8,2,1,40,0,0
11836,-66.6666666666667,8,2,1,60,0,0
12084,-100,8,2,1,60,0,0
13572,-333.333333333333,8,2,1,60,0,0
13820,247.933884297521,7,2,1,75,1,0
13820,-66.6666666666667,7,2,1,75,0,0
14067,-66.6666666666667,7,2,3,80,0,0
15555,247.933884297521,4,2,1,60,1,0
15555,-80,4,2,1,60,0,0
31422,-200,4,2,1,50,0,0
32166,-142.857142857143,4,2,1,50,0,0
33406,-50,4,2,1,80,0,0
35079,-50,4,2,1,5,0,0
35141,-50,4,2,1,80,0,0
35637,-100,4,2,1,80,0,0
35885,-200,4,2,1,60,0,0
36381,-50,4,2,1,80,0,0
38055,-50,4,2,1,5,0,0
38116,-50,4,2,1,60,0,0
38860,-50,4,2,1,80,0,0
39356,-66.6666666666667,4,2,1,60,0,0
41340,247.933884297521,8,2,1,60,1,0
41340,-66.6666666666667,8,2,1,60,0,0
41587,-100,8,2,1,60,0,0
42827,-66.6666666666667,8,2,1,60,0,0
43075,-200,8,2,1,60,0,0
43323,-66.6666666666667,8,2,1,60,0,0
43571,-100,8,2,1,60,0,0
44811,-66.6666666666667,8,2,1,60,0,0
45554,-100,8,2,1,60,0,0
47042,-333.333333333333,8,2,1,60,0,0
47290,247.933884297521,7,2,1,75,1,0
47290,-66.6666666666667,7,2,1,75,0,0
47537,-66.6666666666667,7,2,3,75,0,0
49025,247.933884297521,8,2,1,60,1,0
49025,-66.6666666666667,8,2,1,60,0,0
49272,-100,8,2,1,60,0,0
50760,-200,8,2,1,60,0,0
51008,-66.6666666666667,8,2,1,60,0,0
51256,-100,8,2,1,60,0,0
52991,-66.6666666666667,8,2,1,60,0,0
53239,-100,8,2,1,60,0,0
54727,-333.333333333333,8,2,1,60,0,0
54975,247.933884297521,7,2,1,75,1,0
54975,-66.6666666666667,7,2,1,75,0,0
55222,-66.6666666666667,7,2,3,75,0,0
56710,-66.6666666666667,7,2,1,65,0,0
57206,-100,7,2,1,65,0,0
58446,-66.6666666666667,7,2,1,65,0,0
58941,-100,7,2,1,65,0,0
60181,-66.6666666666667,7,2,1,65,0,0
60676,-100,7,2,1,65,0,0
61917,247.933884297521,8,2,1,75,1,0
65512,-200,8,2,1,75,0,0
65883,-66.6666666666667,8,2,1,75,0,0
66255,-80,8,2,1,75,0,0
66627,-100,8,2,1,75,0,0
68239,-200,8,2,1,75,0,0
68611,-100,8,2,1,75,0,0
75801,342.857142857143,5,2,1,60,1,0
76485,352.941176470588,5,2,1,50,1,0
76485,-125,5,2,1,50,0,0
77192,375,5,2,1,50,1,0
77944,461.538461538462,4,2,1,50,1,0
79790,340.909090909091,4,2,1,50,1,0
80471,340.909090909091,8,2,1,40,1,0
90016,-200,8,2,2,30,0,0
91039,-66.6666666666667,8,2,2,40,0,0
92061,-57.1428571428571,8,2,2,50,0,0
94107,-100,8,2,2,50,0,0
95130,-100,8,2,1,50,0,0
95471,-100,8,2,2,50,0,0
95811,-100,8,2,1,50,0,0
95982,-100,8,2,2,50,0,0
96834,-100,8,2,1,50,0,0
97516,-57.1428571428571,8,2,2,50,0,0
99902,-200,8,2,1,50,0,0
100243,-133.333333333333,8,2,2,50,0,0
102118,-133.333333333333,8,2,1,50,0,0
102971,-50,8,2,2,50,0,0
103993,-57.1428571428571,8,2,2,50,0,0
105016,-100,8,2,2,50,0,0
107743,-100,8,2,1,50,0,0
108425,-50,8,2,2,50,0,0
110471,-100,8,2,2,50,0,0
110811,-66.6666666666667,8,2,2,50,0,0
110982,-125,8,2,2,50,0,0
113198,-125,8,2,1,50,0,0
113368,-125,8,2,3,70,0,0
113709,-125,8,2,1,50,0,0
113879,-125,8,2,3,70,0,0
114221,-125,8,2,1,50,0,0
114391,-125,8,2,3,70,0,0
114732,-125,8,2,1,50,0,0
114902,-125,8,2,3,70,0,0
115243,-125,8,2,1,50,0,0
119846,-125,8,2,2,50,0,0
120016,-125,8,2,1,50,0,0
121721,-50,8,2,2,60,0,0
122061,-50,8,2,1,60,0,0
122232,-50,8,2,2,60,0,0
123425,-100,8,2,1,60,0,0
123766,-142.857142857143,8,2,2,60,0,0
124789,-200,8,2,1,60,0,0
125471,-200,8,2,2,60,0,0
125556,-200,8,2,1,60,0,0
125811,-100,8,2,1,60,0,0
127516,-50,8,2,2,60,0,0
128880,-50,8,2,1,60,0,0
129050,-100,8,2,2,60,0,0
129561,-333.333333333333,8,2,2,60,0,0
129647,-333.333333333333,8,2,1,60,0,0
129817,-333.333333333333,8,2,2,60,0,0
130073,-333.333333333333,8,2,1,60,0,0
130243,-100,8,2,1,60,0,0
131010,-333.333333333333,8,2,2,60,0,0
131096,-333.333333333333,8,2,1,60,0,0
131266,-333.333333333333,8,2,2,60,0,0
131522,-100,8,2,1,60,0,0
132971,-50,8,2,1,60,0,0
133482,-50,8,2,2,60,0,0
134334,-50,8,2,1,60,0,0
134505,-100,8,2,2,60,0,0
135016,-100,8,2,1,60,0,0
135698,-100,8,2,2,60,0,0
135783,-100,8,2,1,60,0,0
136039,-100,8,2,2,60,0,0
136124,-100,8,2,1,60,0,0
136380,-100,8,2,2,60,0,0
136550,-100,8,2,1,60,0,0
137743,-100,8,2,2,60,0,0
138084,-100,8,2,1,60,0,0
138425,-50,8,2,1,60,0,0
139959,-66.6666666666667,8,2,2,60,0,0
140471,-133.333333333333,8,2,1,60,0,0
141323,-133.333333333333,8,2,1,40,0,0
141493,-133.333333333333,8,2,1,45,0,0
141664,-133.333333333333,8,2,1,50,0,0
142005,-133.333333333333,8,2,1,60,0,0
143198,-133.333333333333,8,2,1,50,0,0
145925,340.909090909091,4,2,1,35,1,0
146436,-200,4,2,1,35,0,0
146947,-100,4,2,1,35,0,0
147459,-200,4,2,1,35,0,0
147970,-100,4,2,1,35,0,0
148652,-100,4,2,2,35,0,0
148993,-100,4,2,1,35,0,0
149824,247.933884297521,8,2,1,35,1,0
150015,340.909090909091,4,2,1,35,1,0
150526,-200,4,2,1,35,0,0
151037,-100,4,2,1,35,0,0
151549,-200,4,2,1,35,0,0
152743,247.933884297521,4,2,2,50,1,0
152743,-100,4,2,2,50,0,0
153238,-100,4,2,1,50,0,0
153734,247.933884297521,8,2,1,80,1,1
153734,-66.6666666666667,8,2,1,80,0,1
155717,247.933884297521,15,2,1,80,1,1
155717,-50,15,2,1,80,0,1
155964,-66.6666666666667,15,2,1,80,0,1
158568,-100,15,2,1,80,0,1
159436,-50,15,2,1,80,0,1
159683,-66.6666666666667,15,2,1,80,0,1
162411,-133.333333333333,15,2,1,80,0,1
163155,-50,15,2,1,80,0,1
163402,-66.6666666666667,15,2,1,80,0,1
165014,-50,15,2,1,80,0,1
165386,-66.6666666666667,15,2,1,80,0,1
166874,247.933884297521,8,2,1,80,1,1
166874,-50,8,2,1,80,0,1
167121,-66.6666666666667,8,2,1,80,0,1
169229,-100,8,2,1,80,0,1
170840,-133.333333333333,8,2,1,60,0,1
176791,-100,8,2,1,60,0,1
180262,-80,8,2,1,60,0,1
185716,-80,8,2,1,80,0,1
186708,247.933884297521,12,2,1,80,1,1
186708,-40,12,2,1,80,0,1
187079,-200,12,2,1,80,0,1
187451,-40,12,2,1,80,0,1
187823,-200,12,2,1,80,0,1
188939,-66.6666666666667,12,2,1,80,0,1
189187,-200,12,2,1,80,0,1
189683,-40,12,2,1,80,0,1
190055,-200,12,2,1,80,0,1
190427,-40,12,2,1,80,0,1
190799,-200,12,2,1,80,0,1
191914,-66.6666666666667,12,2,1,80,0,1
192658,247.933884297521,4,2,1,80,1,0
193525,-66.6666666666667,4,2,1,80,0,0
194641,-66.6666666666667,4,2,1,80,0,1
201459,-66.6666666666667,4,2,2,80,0,0

[Colours]
Combo1 : 0,128,255
Combo2 : 147,163,183
Combo3 : 94,72,72
Combo4 : 117,186,255

[HitObjects]
139,68,185,6,0,L|127:291,1,202.500007724762,6|0,0:2|0:0,0:0:0:0:
167,357,432,2,0,L|161:245,1,90,2|0,0:0|0:0,0:0:0:0:
25,114,680,1,8,0:0:0:0:
249,20,804,2,0,B|362:-9|325:62|456:27,2,180,2|0|0,0:0|0:0|0:0,0:0:0:0:
249,20,1548,5,0,0:0:0:0:
250,55,1610,1,0,0:0:0:0:
252,91,1672,2,0,L|259:238,1,135,10|0,0:0|0:0,0:0:0:0:
374,265,1920,2,0,L|376:235,2,30
266,323,2168,6,0,P|352:298|435:376,1,202.500007724762,6|0,0:0|0:0,0:0:0:0:
512,283,2416,2,0,P|464:297|427:336,1,90,2|0,0:0|0:0,0:0:0:0:
339,149,2664,1,8,0:0:0:0:
461,31,2788,2,0,B|456:118|456:118|460:119|460:119|455:214,2,180,2|0|0,0:0|0:0|0:0,0:0:0:0:
461,31,3532,5,0,0:0:0:0:
426,32,3594,1,0,0:0:0:0:
390,33,3656,1,10,0:0:0:0:
248,37,3904,1,0,0:0:0:0:
284,36,3965,1,0,0:0:0:0:
319,35,4027,1,0,0:0:0:0:
355,34,4089,1,0,0:0:0:0:
390,33,4151,6,0,P|364:120|336:250,1,202.500007724762,6|0,0:0|0:0,0:0:0:0:
375,327,4399,2,0,P|361:262|346:206,1,90,2|0,0:0|0:0,0:0:0:0:
161,276,4647,1,8,0:0:0:0:
249,128,4771,2,0,B|201:128|201:128|180:108|180:108|66:113,2,180,2|0|0,0:0|0:0|0:0,0:0:0:0:
249,128,5515,5,0,0:0:0:0:
285,127,5577,1,0,0:0:0:0:
320,126,5639,1,10,0:0:0:0:
320,126,5887,2,0,L|323:172,1,40.4999987640381
352,274,6135,2,0,L|340:54,1,202.500007724762,6|0,0:0|0:0,0:0:0:0:
339,25,6382,5,10,0:0:0:0:
452,156,6506,1,8,0:0:0:0:
239,48,6630,5,8,0:0:0:0:
246,239,6754,1,8,0:0:0:0:
142,20,6878,5,10,0:0:0:0:
53,192,7002,1,8,0:0:0:0:
256,37,7126,5,10,0:0:0:0:
289,217,7250,1,8,0:0:0:0:
146,114,7374,5,8,0:0:0:0:
346,125,7498,1,8,0:0:0:0:
160,279,7622,5,8,0:0:0:0:
21,221,7746,1,0,0:0:0:0:
246,130,7870,6,0,L|448:119,1,202.500007724762,6|0,0:0|0:0,0:0:0:0:
512,161,8117,2,0,L|422:156,1,90,2|0,0:0|0:0,0:0:0:0:
281,23,8365,1,8,0:0:0:0:
117,135,8489,2,0,P|99:189|202:233,2,180,2|0|0,0:0|0:0|0:0,0:0:0:0:
117,135,9233,5,0,0:0:0:0:
116,170,9295,1,0,0:0:0:0:
114,206,9357,2,0,L|107:353,1,135,10|0,0:0|0:0,0:0:0:0:
16,254,9605,2,0,L|13:214,2,30
107,340,9853,6,0,B|216:368|180:299|308:333,1,202.500007724762,6|0,0:0|0:0,0:0:0:0:
276,219,10101,2,0,P|255:262|234:319,1,90,2|0,0:0|0:0,0:0:0:0:
396,150,10349,1,8,0:0:0:0:
235,23,10473,2,0,L|414:13,2,180,2|0|0,0:0|0:0|0:0,0:0:0:0:
235,23,11217,1,0,0:0:0:0:
96,133,11341,6,0,L|91:221,1,60,10|0,0:0|0:0,0:0:0:0:
190,131,11506,2,0,L|186:190,1,60,6|0,0:0|0:0,0:0:0:0:
287,122,11671,2,0,L|282:210,1,60,6|0,0:0|0:0,0:0:0:0:
247,373,11836,6,0,P|210:320|78:307,1,202.500007724762,6|0,0:0|0:0,0:0:0:0:
186,190,12084,2,0,P|203:231|203:275,1,90,2|0,0:0|0:0,0:0:0:0:
62,108,12332,1,8,0:0:0:0:
235,23,12456,2,0,B|318:18|318:18|343:29|343:29|443:24,2,180,2|0|0,0:0|0:0|0:0,0:0:0:0:
235,23,13200,5,0,0:0:0:0:
234,58,13262,1,0,0:0:0:0:
232,94,13324,1,10,0:0:0:0:
232,94,13572,2,0,L|271:96,1,40.4999987640381
348,127,13820,2,0,L|124:115,1,202.500007724762,6|0,0:0|0:0,0:0:0:0:
120,113,14067,5,10,0:0:0:0:
36,307,14191,1,8,0:0:0:0:
237,163,14315,5,8,0:0:0:0:
232,350,14439,1,8,0:0:0:0:
358,137,14563,5,10,0:0:0:0:
442,322,14687,1,8,0:0:0:0:
217,197,14811,5,10,0:0:0:0:
401,233,14935,1,8,0:0:0:0:
200,88,15059,5,8,0:0:0:0:
353,41,15183,1,8,0:0:0:0:
177,213,15307,5,8,0:0:0:0:
321,242,15431,1,0,0:0:0:0:
100,29,15555,6,0,L|94:141,1,112.5,4|0,0:0|0:0,0:0:0:0:
10,364,15802,2,0,L|4:251,1,112.5,10|0,0:0|0:0,0:0:0:0:
184,80,16050,1,2,0:0:0:0:
0,96,16174,1,2,0:0:0:0:
177,213,16298,1,8,0:0:0:0:
323,19,16422,6,0,P|412:3|466:124,1,225,2|0,0:0|0:0,0:0:0:0:
336,208,16794,1,8,0:0:0:0:
512,325,16918,2,0,B|503:332|503:332|343:318,1,168.75,2|0,0:0|0:0,0:0:0:0:
217,330,17166,2,0,B|336:341,1,112.5,2|8,0:0|0:0,0:0:0:0:
120,167,17414,6,0,B|93:137|93:137|113:327,1,225,6|0,0:0|0:0,0:0:0:0:
361,119,17786,2,0,P|282:96|216:143,1,168.75,10|0,0:0|0:0,0:0:0:0:
209,167,18034,1,0,0:0:0:0:
123,56,18158,1,0,0:0:0:0:
28,245,18282,1,8,0:0:0:0:
186,361,18406,6,0,B|229:386|229:386|413:377,1,225
264,165,18778,1,8,0:0:0:0:
268,298,18902,2,0,L|507:285,1,225
171,102,19274,1,8,0:0:0:0:
164,299,19397,1,0,0:3:0:0:
163,334,19459,1,0,0:3:0:0:
161,370,19521,1,4,0:3:0:0:
161,370,19769,6,0,L|150:170,1,168.75,14|0,0:0|0:0,0:0:0:0:
71,48,20017,1,2,0:0:0:0:
274,151,20141,1,2,0:0:0:0:
14,177,20265,1,8,0:0:0:0:
293,29,20389,6,0,B|418:-3|377:76|524:37,1,225,2|0,0:0|0:0,0:0:0:0:
388,207,20761,1,8,0:0:0:0:
160,133,20885,2,0,B|152:142|152:142|166:302,1,168.75,2|0,0:0|0:0,0:0:0:0:
140,373,21133,2,0,L|130:254,1,112.5,2|8,0:0|0:0,0:0:0:0:
289,215,21381,6,0,P|353:300|457:280,1,225,2|0,0:0|0:0,0:0:0:0:
359,20,21753,2,0,P|374:86|396:199,1,168.75,10|0,0:0|0:0,0:0:0:0:
388,207,22001,1,0,0:0:0:0:
388,207,22125,1,0,0:0:0:0:
242,108,22249,1,8,0:0:0:0:
167,223,22373,6,0,B|103:219|103:219|59:129|59:129|-4:125,1,225
67,305,22745,1,8,0:0:0:0:
166,123,22869,2,0,B|229:126|229:126|273:216|273:216|337:220,1,225
350,221,23178,1,0,0:0:0:0:
363,222,23240,1,8,0:0:0:0:
199,316,23364,1,8,0:0:0:0:
464,355,23488,6,0,L|454:243,1,112.5,4|0,0:0|0:0,0:0:0:0:
242,4,23736,2,0,L|232:115,1,112.5,10|0,0:0|0:0,0:0:0:0:
329,230,23984,1,2,0:0:0:0:
132,150,24108,1,0,0:0:0:0:
395,76,24232,1,8,0:0:0:0:
213,300,24356,6,0,P|135:264|-2:228,1,225,2|0,0:0|0:0,0:0:0:0:
154,13,24728,1,8,0:0:0:0:
312,138,24852,2,0,B|336:172|336:172|329:300,1,168.75,2|0,0:0|0:0,0:0:0:0:
356,384,25100,2,0,L|362:256,1,112.5,2|8,0:0|0:0,0:0:0:0:
422,53,25348,6,0,P|512:43|464:120,1,225,6|0,0:0|0:0,0:0:0:0:
236,39,25720,2,0,B|156:32|156:32|149:23|149:23|37:13,1,168.75,10|0,0:0|0:0,0:0:0:0:
49,17,25968,1,0,0:0:0:0:
125,156,26092,1,0,0:0:0:0:
281,33,26216,1,8,0:0:0:0:
99,174,26340,2,0,B|70:199|70:199|59:399,1,225
2,111,26712,1,8,0:0:0:0:
181,269,26835,2,0,L|186:381,1,112.5
458,132,27083,5,0,0:0:0:0:
460,117,27145,1,0,0:0:0:0:
463,104,27207,1,0,0:0:0:0:
418,80,27269,1,0,0:0:0:0:
367,81,27331,1,0,0:0:0:0:
330,115,27393,1,0,0:0:0:0:
318,167,27455,1,0,0:0:0:0:
318,167,27703,6,0,L|190:160,1,112.5,14|0,0:0|0:0,0:0:0:0:
41,93,27951,1,2,0:0:0:0:
64,249,28075,1,0,0:0:0:0:
168,14,28199,1,10,0:0:0:0:
207,303,28323,6,0,B|342:340|301:261|426:293,1,225,2|0,0:0|0:0,0:0:0:0:
490,168,28695,1,8,0:0:0:0:
342,78,28819,2,0,L|134:67,1,168.75,2|0,0:0|0:0,0:0:0:0:
41,40,29067,2,0,L|154:35,1,112.5,2|8,0:0|0:0,0:0:0:0:
9,189,29315,6,0,P|92:129|42:40,1,225,6|0,0:0|0:0,0:0:0:0:
165,260,29687,2,0,P|144:209|91:182,1,112.5,8|0,0:0|0:0,0:0:0:0:
188,114,29935,1,0,0:0:0:0:
188,114,30059,1,0,0:0:0:0:
55,290,30183,1,8,0:0:0:0:
253,202,30307,6,0,B|265:192|265:192|493:204,1,225
377,314,30678,1,8,0:0:0:0:
282,81,30802,2,0,B|269:70|269:70|41:82,1,225
43,82,31112,1,0,0:0:0:0:
26,83,31174,1,8,0:0:0:0:
180,232,31298,1,8,0:0:0:0:
92,380,31422,6,0,L|98:316,1,45,2|0,0:0|0:0,0:0:0:0:
104,262,31670,1,0,0:0:0:0:
15,173,31794,6,0,L|21:236,1,45,2|0,0:0|0:0,0:0:0:0:
27,291,32042,1,0,0:0:0:0:
175,351,32166,6,0,P|208:342|241:337,1,62.9999980773926,2|0,0:0|0:0,0:0:0:0:
302,291,32414,1,0,0:0:0:0:
443,272,32538,6,0,P|410:263|377:258,1,62.9999980773926,2|0,0:0|0:0,0:0:0:0:
316,212,32786,1,0,0:0:0:0:
182,236,32910,5,2,0:0:0:0:
168,145,33034,1,0,0:0:0:0:
81,118,33158,1,4,0:3:0:0:
100,201,33282,1,4,0:3:0:0:
275,63,33406,6,0,B|267:93|215:67|222:5|281:-16|367:-3|329:72|454:41|454:41|434:83|426:130,1,360,6|0,0:0|0:0,0:0:0:0:
473,281,33778,2,0,B|497:305|499:335|499:335|439:287|426:206|426:135|462:53,1,360,10|0,0:0|0:0,0:0:0:0:
314,264,34150,2,0,B|234:271|234:271|130:96|130:96|34:104,1,360,2|0,0:0|0:0,0:0:0:0:
66,299,34521,5,2,0:0:0:0:
287,82,34645,1,0,0:0:0:0:
321,85,34707,1,0,0:0:0:0:
357,88,34769,1,0,0:0:0:0:
509,326,34893,2,0,L|214:352,1,270,10|0,0:0|0:0,0:0:0:0:
161,359,35141,1,10,0:0:0:0:
143,65,35637,2,0,L|139:20,3,45,2|2|2|2,0:0|0:0|0:0|0:0,0:0:0:0:
99,141,35885,2,0,P|65:123|32:113,1,67.5,2|0,0:0|0:0,0:0:0:0:
200,129,36133,2,0,P|232:108|264:95,1,67.5,2|0,0:0|0:0,0:0:0:0:
156,218,36381,6,0,B|170:388|170:388|254:354|254:354|244:232,1,360,6|0,0:0|0:0,0:0:0:0:
373,8,36753,2,0,B|336:51|336:51|358:298|358:298|411:339,1,360,10|0,0:0|0:0,0:0:0:0:
497,159,37125,2,0,B|291:90|359:259|148:200,1,360,2|0,0:0|0:0,0:0:0:0:
10,54,37497,5,2,0:0:0:0:
25,298,37621,1,0,0:0:0:0:
28,332,37683,1,0,0:0:0:0:
31,368,37745,1,0,0:0:0:0:
157,202,37869,2,0,L|435:226,1,270,10|0,0:0|0:0,0:0:0:0:
510,233,38117,1,8,0:0:0:0:
510,233,38612,5,2,0:0:0:0:
507,272,38674,1,0,0:0:0:0:
505,304,38736,1,0,0:0:0:0:
503,344,38798,1,0,0:0:0:0:
501,376,38860,5,10,0:0:0:0:
403,172,38984,1,8,0:0:0:0:
316,376,39108,5,8,0:0:0:0:
402,157,39232,1,8,0:0:0:0:
501,376,39356,6,0,L|493:232,1,135.000005149842,6|0,0:0|0:0,0:0:0:0:
299,37,39604,2,0,L|291:171,1,135.000005149842,10|0,0:0|0:0,0:0:0:0:
405,107,39852,1,2,0:0:0:0:
202,19,39976,1,0,0:0:0:0:
336,254,40100,1,8,0:0:0:0:
128,162,40224,6,0,B|56:156|56:156|51:229|21:293|21:293|47:258|79:242,1,270.000010299683,2|0,0:0|0:0,0:0:0:0:
211,238,40596,1,10,0:0:0:0:
12,25,40720,1,0,0:0:0:0:
10,58,40782,1,0,0:0:0:0:
7,94,40844,1,10,0:0:0:0:
290,157,40968,1,10,0:0:0:0:
0,256,41092,1,10,0:0:0:0:
179,43,41216,1,10,0:0:0:0:
237,329,41340,6,0,L|444:310,1,202.500007724762,6|0,0:0|0:0,0:0:0:0:
512,347,41587,2,0,L|388:336,1,90
309,176,41835,1,8,0:0:0:0:
413,128,41959,2,0,P|422:171|410:214,1,90,2|0,0:0|0:0,0:0:0:0:
214,108,42207,2,0,P|247:78|290:67,1,90
297,290,42455,2,0,P|254:276|223:244,1,90
309,176,42703,1,0,0:0:0:0:
118,79,42827,2,0,P|132:179|144:279,1,202.500007724762,10|0,0:0|0:0,0:0:0:0:
84,348,43075,2,0,P|96:372|137:362,1,67.5,2|0,0:0|0:0,0:0:0:0:
232,375,43323,6,0,P|288:327|412:356,1,202.500007724762,6|0,0:0|0:0,0:0:0:0:
411,228,43571,2,0,P|357:275|348:322,1,90
508,267,43819,1,8,0:0:0:0:
353,136,43943,2,0,L|344:44,1,90,2|0,0:0|0:0,0:0:0:0:
441,97,44191,2,0,L|433:7,1,90
265,175,44439,2,0,L|256:83,1,90
411,228,44687,1,0,0:0:0:0:
240,309,44811,2,0,B|115:301|192:236|32:230,1,202.500007724762,14|0,0:0|0:0,0:0:0:0:
10,258,45059,5,0,0:0:0:0:
20,240,45120,1,0,0:0:0:0:
27,221,45182,1,0,0:0:0:0:
28,200,45244,1,0,0:0:0:0:
25,179,45306,2,0,P|92:79|187:98,1,202.500007724762,4|0,0:0|0:0,0:0:0:0:
6,0,45554,2,0,P|43:34|92:55,1,90
134,194,45802,1,8,0:0:0:0:
340,171,45926,6,0,P|276:190|229:219,1,90,2|0,0:0|0:0,0:0:0:0:
152,296,46174,2,0,P|195:306|236:325,1,90
287,39,46422,6,0,L|470:29,1,180
485,27,46732,1,0,0:0:0:0:
504,26,46794,1,10,0:0:0:0:
504,26,47042,2,0,L|501:73,1,40.4999987640381
475,251,47290,6,0,L|486:27,1,202.500007724762,6|0,0:0|0:0,0:0:0:0:
488,27,47537,5,2,0:0:0:0:
321,4,47661,1,0,0:0:0:0:
512,137,47785,5,0,0:0:0:0:
344,155,47909,1,0,0:0:0:0:
465,315,48033,5,2,0:0:0:0:
298,292,48157,1,0,0:0:0:0:
411,100,48281,5,2,0:0:0:0:
437,226,48405,1,0,0:0:0:0:
276,78,48529,5,0,0:0:0:0:
231,228,48653,1,0,0:0:0:0:
159,29,48777,5,0,0:0:0:0:
67,157,48901,1,0,0:0:0:0:
234,327,49025,6,0,P|303:287|426:322,1,202.500007724762,6|0,0:0|0:0,0:0:0:0:
383,254,49272,2,0,P|405:215|438:185,1,90,2|0,0:0|0:0,0:0:0:0:
263,98,49520,1,8,0:0:0:0:
141,205,49644,2,0,L|150:384,2,180,2|0|0,0:0|0:0|0:0,0:0:0:0:
141,205,50388,5,0,0:0:0:0:
105,204,50450,1,0,0:0:0:0:
70,203,50512,2,0,L|76:68,1,135,10|0,0:0|0:0,0:0:0:0:
0,0,50760,2,0,L|2:55,2,30
110,110,51008,6,0,B|219:138|183:69|311:103,1,202.500007724762,6|0,0:0|0:0,0:0:0:0:
378,27,51256,2,0,P|320:41|270:67,1,90,2|0,0:0|0:0,0:0:0:0:
404,247,51504,1,8,0:0:0:0:
250,205,51628,2,0,B|254:292|254:292|246:298|246:298|251:380,2,180,2|0|0,0:0|0:0|0:0,0:0:0:0:
250,205,52372,5,0,0:0:0:0:
285,207,52434,1,0,0:0:0:0:
320,210,52496,1,10,0:0:0:0:
80,307,52661,1,10,0:0:0:0:
118,54,52826,1,10,0:0:0:0:
245,328,52991,6,0,L|460:316,1,202.500007724762,6|0,0:0|0:0,0:0:0:0:
512,358,53239,2,0,L|400:352,1,90,2|0,0:0|0:0,0:0:0:0:
285,207,53487,1,8,0:0:0:0:
363,69,53611,2,0,P|430:63|438:163,2,180,2|0|0,0:0|0:0|0:0,0:0:0:0:
363,68,54355,5,0,0:0:0:0:
328,65,54417,1,0,0:0:0:0:
293,63,54479,1,10,0:0:0:0:
293,63,54727,2,0,L|290:114,1,40.4999987640381
357,147,54975,2,0,L|141:135,1,202.500007724762,6|0,0:0|0:0,0:0:0:0:
123,132,55222,5,10,0:0:0:0:
164,281,55346,1,8,0:0:0:0:
31,76,55470,5,8,0:0:0:0:
0,233,55594,1,8,0:0:0:0:
132,23,55718,5,10,0:0:0:0:
176,193,55842,1,8,0:0:0:0:
379,68,55966,5,10,0:0:0:0:
238,31,56090,1,8,0:0:0:0:
414,174,56214,5,8,0:0:0:0:
276,200,56338,1,8,0:0:0:0:
422,346,56462,5,8,0:0:0:0:
291,323,56586,1,0,0:0:0:0:
183,125,56710,6,0,P|87:131|39:216,1,202.500007724762,6|0,0:0|0:0,0:0:0:0:
33,207,56958,2,0,P|84:123|181:117,1,202.500007724762,10|0,0:0|0:0,0:0:0:0:
192,335,57206,2,0,P|140:303|98:292,1,90,2|0,0:0|0:0,0:0:0:0:
286,210,57454,1,10,0:0:0:0:
286,210,57578,2,0,P|379:189|485:184,1,180,2|0,0:0|0:0,0:0:0:0:
275,237,57950,1,8,0:0:0:0:
210,7,58074,2,0,L|204:70,1,45
193,164,58198,1,8,0:0:0:0:
67,73,58322,1,8,0:0:0:0:
47,261,58446,6,0,B|102:274|133:312|133:312|187:294|232:304,1,202.500007724762,6|0,0:0|0:0,0:0:0:0:
232,311,58694,2,0,B|180:302|130:321|130:321|101:282|45:268,1,202.500007724762,10|0,0:0|0:0,0:0:0:0:
170,198,58941,2,0,L|195:111,1,90,2|0,0:0|0:0,0:0:0:0:
321,203,59189,1,10,0:0:0:0:
321,203,59313,2,0,P|340:304|355:382,1,180,2|0,0:0|0:0,0:0:0:0:
496,223,59685,5,2,0:0:0:0:
492,187,59747,1,0,0:0:0:0:
488,151,59809,1,0,0:0:0:0:
484,115,59871,1,0,0:0:0:0:
449,78,59933,5,4,0:3:0:0:
445,104,59995,1,4,0:3:0:0:
441,130,60057,1,4,0:3:0:0:
437,156,60119,1,4,0:3:0:0:
407,197,60181,6,0,L|187:185,1,202.500007724762,6|0,0:0|0:0,0:0:0:0:
202,193,60429,2,0,L|405:204,1,202.500007724762,10|0,0:0|0:0,0:0:0:0:
171,87,60677,2,0,L|51:80,1,90,2|0,0:0|0:0,0:0:0:0:
139,303,60925,1,10,0:0:0:0:
139,303,61049,2,0,L|341:313,1,180,2|0,0:0|0:0,0:0:0:0:
202,193,61421,1,8,0:0:0:0:
356,44,61545,2,0,L|352:88,1,45
343,215,61669,1,8,0:0:0:0:
217,61,61793,1,8,0:0:0:0:
80,292,61917,5,6,0:0:0:0:
65,130,62040,1,0,0:0:0:0:
56,23,62164,1,0,0:0:0:0:
97,280,62289,5,2,0:0:0:0:
84,136,62412,1,0,0:0:0:0:
76,40,62536,1,0,0:0:0:0:
114,271,62660,5,2,0:0:0:0:
102,141,62783,1,0,0:0:0:0:
95,54,62907,1,0,0:0:0:0:
129,264,63032,5,2,0:0:0:0:
118,146,63155,1,0,0:0:0:0:
112,69,63279,1,0,0:0:0:0:
222,253,63404,6,0,L|213:348,1,90,14|0,0:0|0:0,0:0:0:0:
312,241,63651,1,8,0:0:0:0:
312,241,63776,1,8,0:0:0:0:
296,66,63900,1,2,0:0:0:0:
296,66,64148,5,2,0:0:0:0:
397,163,64272,1,2,0:0:0:0:
273,73,64396,5,10,0:0:0:0:
374,170,64520,1,0,0:0:0:0:
250,80,64644,5,10,0:0:0:0:
351,177,64768,1,0,0:0:0:0:
227,87,64892,6,0,L|115:77,1,90,10|0,0:0|0:0,0:0:0:0:
149,234,65140,1,6,0:0:0:0:
90,160,65264,1,10,0:0:0:0:
123,75,65388,1,2,0:0:0:0:
107,312,65512,2,0,L|101:375,1,45,6|8,0:0|0:0,0:0:0:0:
0,192,65759,1,0,0:0:0:0:
260,169,65883,6,0,P|322:71|210:41,1,270.000010299683,6|0,0:0|0:0,0:0:0:0:
317,337,66255,2,0,B|456:323|373:259|515:243,1,225,2|0,0:0|0:0,0:0:0:0:
169,122,66627,2,0,L|150:335,1,180,2|0,0:0|0:0,0:0:0:0:
289,151,66999,2,0,P|320:135|380:134,1,90,2|0,0:0|0:0,0:0:0:0:
338,242,67247,1,0,0:0:0:0:
274,359,67371,2,0,P|238:331|195:319,1,90,10|0,0:0|0:0,0:0:0:0:
86,372,67619,5,4,0:3:0:0:
86,372,67743,1,4,0:3:0:0:
13,300,67867,1,2,0:0:0:0:
92,380,67991,1,2,0:0:0:0:
92,380,68115,1,2,0:0:0:0:
105,286,68239,2,0,P|113:265|123:244,1,45,2|2,0:0|0:0,0:0:0:0:
39,205,68487,1,0,0:0:0:0:
197,312,68611,6,0,L|324:300,1,90,8|0,0:0|0:0,0:0:0:0:
371,348,68859,1,0,0:0:0:0:
371,348,68983,1,0,0:0:0:0:
200,206,69107,2,0,L|327:194,1,90,8|0,0:0|0:0,0:0:0:0:
374,242,69355,1,0,0:0:0:0:
245,63,69478,1,8,0:0:0:0:
204,192,69602,1,0,0:0:0:0:
375,95,69726,1,8,0:0:0:0:
117,61,69850,5,6,0:0:0:0:
23,169,69974,1,0,0:0:0:0:
14,285,70098,1,0,0:0:0:0:
131,74,70222,5,2,0:0:0:0:
46,171,70346,1,0,0:0:0:0:
38,275,70470,1,0,0:0:0:0:
143,86,70594,5,2,0:0:0:0:
67,173,70718,1,0,0:0:0:0:
60,267,70842,1,0,0:0:0:0:
155,96,70966,5,2,0:0:0:0:
86,175,71090,1,0,0:0:0:0:
80,259,71214,1,0,0:0:0:0:
169,110,71338,6,0,L|264:101,1,90,12|0,0:0|0:0,0:0:0:0:
345,140,71586,1,4,0:3:0:0:
345,140,71710,1,4,0:3:0:0:
345,140,71834,5,2,0:0:0:0:
294,225,71958,1,2,0:0:0:0:
343,310,72082,1,2,0:0:0:0:
440,324,72206,1,2,0:0:0:0:
501,246,72330,1,2,0:0:0:0:
453,158,72454,1,2,0:0:0:0:
486,64,72578,1,2,0:0:0:0:
401,12,72702,1,2,0:0:0:0:
307,81,72826,5,8,0:0:0:0:
199,6,72950,1,0,0:0:0:0:
168,159,73074,1,2,0:0:0:0:
32,24,73197,1,0,0:0:0:0:
6,238,73321,1,2,0:0:0:0:
6,238,73445,1,2,0:0:0:0:
6,238,73817,5,6,0:0:0:0:
182,293,73941,1,0,0:0:0:0:
192,322,74065,1,0,0:0:0:0:
75,184,74189,5,2,0:0:0:0:
236,193,74313,1,0,0:0:0:0:
252,217,74437,1,0,0:0:0:0:
102,117,74561,5,2,0:0:0:0:
244,87,74685,1,0,0:0:0:0:
263,105,74809,1,0,0:0:0:0:
93,62,74933,5,2,0:0:0:0:
208,2,75057,1,0,0:0:0:0:
229,13,75181,1,0,0:0:0:0:
68,37,75305,6,0,L|58:148,1,90,14|0,0:0|0:0,0:0:0:0:
120,219,75553,1,0,0:0:0:0:
120,219,75677,1,8,0:0:0:0:
190,295,75801,6,0,P|243:310|292:302,3,90,4|4|4|4,0:3|0:3|0:3|0:3,0:0:0:0:
359,169,76485,1,4,0:3:0:0:
360,179,76661,2,0,L|366:258,1,72,14|0,0:0|0:0,0:0:0:0:
249,134,77014,1,0,0:0:0:0:
174,261,77192,1,14,0:0:0:0:
250,177,77379,1,0,0:0:0:0:
136,99,77567,1,14,0:0:0:0:
213,162,77754,1,0,0:0:0:0:
194,30,77944,6,0,P|108:9|42:78,2,180,6|6|6,0:0|0:0|0:0,0:0:0:0:
191,47,79328,2,0,P|173:98|152:179,1,120,2|0,0:0|0:0,0:0:0:0:
206,252,79790,2,8,L|202:273,1,22.5,10|8,0:0|0:0,0:0:0:0:
304,201,79960,1,0,0:0:0:0:
297,210,80130,1,4,0:3:0:0:
363,277,80301,1,2,0:0:0:0:
457,244,80471,1,2,0:0:0:0:
256,192,80556,12,0,83198,0:0:0:0:
213,99,90016,6,0,P|245:90|272:86,5,45
288,12,91039,6,0,P|269:112|254:236,1,202.500007724762,4|0,0:0|0:0,0:0:0:0:
254,237,91380,1,8,0:0:0:0:
89,370,92061,6,0,B|54:278|-31:298|-1:361|133:376|258:312,1,315.000003004074,10|0,0:0|0:0,0:0:0:0:
87,62,92573,2,0,B|49:26|49:26|31:233|31:233|83:198,1,315.000003004074,6|0,0:0|0:0,0:0:0:0:
265,91,93084,2,0,P|349:83|492:145,1,236.250002253056,6|0,0:0|0:0,0:0:0:0:
506,164,93425,1,8,0:0:0:0:
356,314,93596,2,0,L|373:0,1,315.000003004074,6|0,0:0|0:0,0:0:0:0:
219,250,94107,6,0,B|115:236|156:305|49:290,1,180,2|0,0:0|0:0,0:0:0:0:
15,281,94618,1,0,0:0:0:0:
88,64,94789,2,0,P|111:142|135:247,1,180,8|0,0:0|0:0,0:0:0:0:
227,128,95300,1,0,0:0:0:0:
227,128,95471,6,0,L|234:38,1,90,2|2,0:0|0:0,0:0:0:0:
305,204,95811,2,0,P|260:236|212:237,1,90
328,102,96152,1,8,0:0:0:0:
328,102,96493,1,4,0:0:0:0:
402,163,96664,1,0,0:0:0:0:
507,76,96834,1,0,0:0:0:0:
507,76,97175,1,0,0:0:0:0:
507,76,97516,6,0,B|489:53|489:53|473:343,1,315.000003004074,10|0,0:0|0:0,0:0:0:0:
201,182,98027,2,0,B|249:121|255:38|255:38|301:110|380:145,1,315.000003004074,6|0,0:0|0:0,0:0:0:0:
216,384,98539,2,0,P|149:284|33:284,1,236.250002253056,6|0,0:0|0:0,0:0:0:0:
14,295,98880,1,8,0:0:0:0:
129,94,99050,2,0,L|449:110,1,315.000003004074,6|0,0:0|0:0,0:0:0:0:
321,236,99561,1,6,0:0:0:0:
321,236,99902,6,0,B|289:247|289:247|255:238,1,67.5
256,150,100243,2,0,B|288:139|288:139|321:147,2,67.5,8|0|4,0:0|0:0|0:0,0:0:0:0:
392,191,100755,1,0,0:0:0:0:
181,198,100925,6,0,L|175:243,2,33.7500012874604,2|0|0,0:0|0:0|0:0,0:0:0:0:
111,151,101181,1,0,0:0:0:0:
40,103,101266,2,0,L|35:69,2,33.7500012874604,2|0|0,0:0|0:0|0:0,0:0:0:0:
122,55,101522,1,0,0:0:0:0:
211,2,101607,2,0,L|198:89,1,67.5000025749208,10|0,0:0|0:0,0:0:0:0:
181,198,101948,1,4,0:0:0:0:
75,295,102118,1,0,0:0:0:0:
6,231,102289,1,0,0:0:0:0:
6,231,102630,1,0,0:0:0:0:
6,231,102971,6,0,B|151:204|151:204|200:234|200:234|373:192,1,360,10|0,0:0|0:0,0:0:0:0:
512,13,103482,2,0,P|483:110|425:371,1,360,6|0,0:0|0:0,0:0:0:0:
219,142,103993,2,0,P|193:56|320:82,1,236.250002253056,6|0,0:0|0:0,0:0:0:0:
325,70,104334,1,8,0:0:0:0:
230,295,104505,2,0,B|146:329|146:329|5:270|5:270|41:293|64:338,1,315.000003004074,6|0,0:0|0:0,0:0:0:0:
74,192,105016,6,0,P|58:166|34:148,2,60,2|0|0,0:0|0:0|0:0,0:0:0:0:
106,87,105357,2,0,P|108:57|99:29,2,60
204,88,105698,5,10,0:0:0:0:
277,147,105811,1,0,0:0:0:0:
363,129,105925,1,0,0:0:0:0:
393,45,106039,2,0,P|424:27|472:26,2,60
363,129,106380,6,0,L|369:208,1,60
434,252,106607,1,0,0:0:0:0:
277,147,106721,2,0,L|283:226,1,60
348,270,106948,1,0,0:0:0:0:
192,167,107061,5,8,0:0:0:0:
113,137,107175,1,0,0:0:0:0:
33,164,107289,1,0,0:0:0:0:
5,242,107402,1,4,0:0:0:0:
256,56,107743,1,0,0:0:0:0:
256,360,108084,1,0,0:0:0:0:
256,360,108425,6,0,B|307:278|417:250|497:283|497:283|498:337|458:376,1,360,10|0,0:0|0:0,0:0:0:0:
252,181,108936,2,0,B|187:109|74:101|1:147|1:147|9:200|55:232,1,360,6|0,0:0|0:0,0:0:0:0:
437,0,109448,2,0,P|402:107|357:296,1,270,6|0,0:0|0:0,0:0:0:0:
356,295,109789,1,8,0:0:0:0:
154,104,109959,2,0,L|520:136,1,360,6|0,0:0|0:0,0:0:0:0:
503,319,110471,6,0,B|430:307|473:264|380:255,1,135,6|0,0:0|0:0,0:0:0:0:
358,255,110811,2,0,L|366:350,1,67.5000025749208
222,384,110982,2,0,B|213:346|213:346|230:288,1,72,0|8,0:0|0:0,0:0:0:0:
270,242,111323,1,0,0:0:0:0:
66,195,111493,5,2,0:0:0:0:
149,127,111664,2,0,P|169:196|173:221,1,72
172,223,112005,1,2,0:0:0:0:
280,83,112175,2,0,P|259:136|248:180,1,72
377,99,112516,5,8,0:0:0:0:
196,30,112686,1,0,0:0:0:0:
432,11,112857,1,4,0:0:0:0:
282,0,113027,1,0,0:0:0:0:
367,231,113198,5,2,0:0:0:0:
190,147,113368,1,8,0:0:0:0:
327,243,113539,1,8,0:0:0:0:
42,323,113709,5,2,0:0:0:0:
219,239,113879,1,8,0:0:0:0:
82,335,114050,1,8,0:0:0:0:
61,58,114221,5,2,0:0:0:0:
118,217,114391,1,8,0:0:0:0:
166,9,114561,1,8,0:0:0:0:
386,193,114732,5,2,0:0:0:0:
250,138,114902,1,8,0:0:0:0:
458,89,115073,1,0,0:0:0:0:
389,338,115243,6,8,L|386:369,1,18
274,286,115414,1,0,0:0:0:0:
441,250,115584,1,4,0:3:0:0:
304,311,115755,1,0,0:0:0:0:
321,98,115925,6,0,B|351:152|351:152|384:125|447:99|447:99|426:127|418:157,1,216,4|0,0:0|0:0,0:0:0:0:
371,24,116607,2,0,P|331:9|290:15,2,72,10|0|0,0:0|0:0|0:0,0:0:0:0:
235,94,117118,1,0,0:0:0:0:
152,47,117289,5,2,0:0:0:0:
246,184,117459,1,0,0:0:0:0:
247,207,117544,1,0,0:0:0:0:
248,223,117630,1,0,0:0:0:0:
182,284,117800,1,0,0:0:0:0:
321,130,117971,1,8,0:0:0:0:
98,170,118141,2,0,L|90:321,1,144
46,240,118652,5,2,0:0:0:0:
168,374,118823,2,0,B|202:381|232:367|232:367|249:374|249:374|280:363|315:372,1,144
300,215,119334,2,0,P|282:264|273:304,1,72,8|0,0:0|0:0,0:0:0:0:
371,277,119675,1,2,0:0:0:0:
245,64,119846,2,0,L|242:40,2,24,0|0|0,2:0|2:0|2:0,0:0:0:0:
204,143,120016,5,4,0:0:0:0:
204,143,120698,5,4,0:0:0:0:
204,143,121380,5,0,2:2:0:0:
204,143,121721,6,0,B|241:113|241:113|412:131|412:131|465:97,1,270,6|0,0:0|0:0,0:0:0:0:
484,84,122061,1,8,0:0:0:0:
245,288,122232,2,0,B|292:302|326:322|359:349|359:349|395:346|410:320|404:290|404:290|366:254|315:230|259:214,1,360,6|0,0:0|0:0,0:0:0:0:
0,141,122743,6,0,B|75:116|128:29|82:-32|19:-27|-11:48|80:116|168:107,1,360,6|0,0:0|0:0,0:0:0:0:
253,209,123255,1,4,0:0:0:0:
368,2,123425,2,0,P|350:55|337:106,1,90,8|0,0:0|0:0,0:0:0:0:
358,317,123766,6,0,B|433:377|545:253|423:97,1,314.999990386963,4|0,0:0|0:0,0:0:0:0:
365,18,124789,1,8,0:0:0:0:
263,71,125300,5,0,0:0:0:0:
170,125,125471,1,4,0:0:0:0:
169,140,125556,1,0,0:0:0:0:
168,156,125641,1,0,0:0:0:0:
167,172,125726,1,0,0:0:0:0:
94,238,125811,6,0,P|81:213|66:194,1,45,8|0,0:0|0:0,0:0:0:0:
225,249,125982,2,0,P|239:224|255:206,1,45,8|0,0:0|0:0,0:0:0:0:
156,334,126152,5,0,0:0:0:0:
155,343,126238,1,0,0:0:0:0:
154,351,126323,5,4,0:3:0:0:
196,329,126408,1,0,0:0:0:0:
239,334,126493,1,0,0:0:0:0:
266,350,126578,1,0,0:0:0:0:
295,356,126664,1,4,0:3:0:0:
315,350,126749,1,0,0:0:0:0:
325,342,126834,1,4,0:3:0:0:
325,342,127175,1,0,0:0:0:0:
325,342,127516,6,0,B|340:365|340:365|358:22,1,360,4|0,0:0|0:0,0:0:0:0:
512,235,128027,2,0,B|311:293|381:138|154:196,1,360,6|0,0:0|0:0,0:0:0:0:
44,311,128539,2,0,B|70:332|69:365|69:365|11:332|0:241|39:172,1,270,6|0,0:0|0:0,0:0:0:0:
59,146,128880,1,8,0:0:0:0:
212,339,129050,2,0,L|403:327,1,180,4|0,0:0|0:0,0:0:0:0:
503,139,129561,6,0,L|501:125,2,13.4999995880127,4|0|0,0:0|0:0|0:0,0:0:0:0:
425,150,129817,2,0,L|423:136,1,13.4999995880127,4|0,0:0|0:0,0:0:0:0:
347,161,130073,1,0,0:0:0:0:
344,134,130158,1,0,0:0:0:0:
342,102,130243,6,0,L|337:43,2,45,8|0|0,0:0|0:0|0:0,0:0:0:0:
361,274,130499,2,0,L|365:323,1,45,8|0,0:0|0:0,0:0:0:0:
89,75,131010,6,0,L|65:72,2,13.4999995880127,4|0|0,0:0|0:0|0:0,0:0:0:0:
36,149,131266,2,0,L|59:146,1,13.4999995880127,4|0,0:0|0:0,0:0:0:0:
87,226,131522,1,0,0:0:0:0:
155,185,131607,1,8,0:0:0:0:
207,191,131692,1,8,0:0:0:0:
249,221,131777,1,0,0:0:0:0:
290,246,131863,1,0,0:0:0:0:
332,254,131948,1,8,0:3:0:0:
365,245,132033,1,8,0:3:0:0:
386,226,132118,1,4,0:3:0:0:
395,205,132203,1,4,0:3:0:0:
396,193,132289,5,8,0:3:0:0:
396,193,132630,1,0,0:0:0:0:
396,193,132971,2,0,B|314:142|314:142|148:169|256:239|72:269,1,360,10|0,0:0|0:0,0:0:0:0:
213,47,133482,2,0,B|252:178|284:328|284:328|294:280|325:215,1,360,6|0,0:0|0:0,0:0:0:0:
77,43,133993,2,0,P|18:141|131:161,1,270,6|0,0:0|0:0,0:0:0:0:
149,129,134334,1,8,0:0:0:0:
400,86,134505,2,0,B|375:50|370:2|370:2|339:41|299:57,1,180,4|0,0:0|0:0,0:0:0:0:
314,157,135016,6,0,L|234:163,2,45,2|0|0,0:0|0:0|0:0,0:0:0:0:
239,238,135272,1,8,0:0:0:0:
216,235,135357,1,0,0:0:0:0:
193,232,135442,1,0,0:0:0:0:
170,229,135527,1,0,0:0:0:0:
147,226,135613,2,0,L|69:215,1,45,0|4,0:0|0:0,0:0:0:0:
10,95,135783,5,8,0:0:0:0:
32,90,135868,1,0,0:0:0:0:
54,86,135953,2,0,L|124:75,1,45
255,131,136124,2,0,L|185:120,1,45
166,0,136294,1,4,0:3:0:0:
166,0,136380,2,0,L|236:11,1,45,4|0,0:0|0:0,0:0:0:0:
370,125,136550,5,8,0:0:0:0:
392,122,136635,1,0,0:0:0:0:
414,120,136721,1,0,0:0:0:0:
436,118,136806,1,0,0:0:0:0:
458,116,136891,2,0,L|465:53,1,45,4|8,0:3|0:3,0:0:0:0:
297,244,137061,1,8,0:0:0:0:
246,264,137147,1,0,0:0:0:0:
195,260,137232,1,0,0:0:0:0:
152,242,137317,1,0,0:3:0:0:
125,213,137402,1,0,0:3:0:0:
107,175,137488,1,8,0:3:0:0:
83,147,137573,1,0,0:0:0:0:
60,132,137658,1,0,0:0:0:0:
41,130,137743,5,4,0:0:0:0:
41,130,138084,1,0,0:0:0:0:
41,130,138425,2,0,P|75:74|179:20,1,180,10|0,0:0|0:0,0:0:0:0:
186,41,138681,2,0,P|151:96|47:150,1,180,8|0,0:0|0:0,0:0:0:0:
78,290,138936,6,0,P|137:260|254:275,1,180,2|0,0:0|0:0,0:0:0:0:
249,296,139192,2,0,P|189:323|72:309,1,180
41,130,139448,6,0,P|75:74|179:20,1,180,10|0,0:0|0:0,0:0:0:0:
186,41,139704,2,0,P|151:96|47:150,1,180,8|0,0:0|0:0,0:0:0:0:
382,269,139959,6,0,L|372:66,1,202.500007724762,4|0,0:0|0:0,0:0:0:0:
372,67,140471,2,0,B|262:98|298:22|172:54,1,202.500007724762,4|0,0:0|0:0,0:0:0:0:
120,150,141152,1,8,0:0:0:0:
57,40,141323,6,0,L|73:69,1,33.7500012874604,4|0,0:0|0:0,0:0:0:0:
249,150,141494,2,0,L|215:150,1,33.7500012874604,4|0,0:0|0:0,0:0:0:0:
56,260,141664,2,0,L|72:230,1,33.7500012874604,4|0,0:0|0:0,0:0:0:0:
206,291,142005,5,8,0:0:0:0:
223,320,142090,1,8,0:0:0:0:
240,349,142175,1,8,0:0:0:0:
425,115,142346,1,8,0:0:0:0:
156,221,142516,1,8,0:0:0:0:
292,42,142686,1,0,0:0:0:0:
254,151,142857,1,4,0:3:0:0:
208,67,143027,1,0,0:0:0:0:
396,204,143198,6,0,L|463:197,1,67.5000025749208,6|0,0:0|0:0,0:0:0:0:
350,116,143539,1,0,0:0:0:0:
265,292,143709,2,0,L|169:283,1,67.5000025749208,2|0,0:0|0:0,0:0:0:0:
305,206,144050,1,0,0:0:0:0:
445,346,144221,6,0,L|540:337,1,67.5000025749208,2|0,0:0|0:0,0:0:0:0:
415,265,144562,1,0,0:0:0:0:
263,384,144732,2,0,P|247:318|228:254,1,135.000005149842,2|0,0:0|0:0,0:0:0:0:
120,99,145243,6,8,L|88:96,1,16.8750006437302,10|8,0:0|0:0,0:0:0:0:
168,181,145414,1,0,0:0:0:0:
259,183,145584,1,4,0:3:0:0:
314,107,145755,1,0,0:0:0:0:
41,201,145925,6,0,L|30:396,1,180,6|0,0:0|0:0,0:0:0:0:
126,191,146436,2,0,P|83:176|42:187,1,90,10|0,0:0|0:0,0:0:0:0:
192,291,146947,2,0,L|299:281,2,90,2|0|0,0:0|0:0|0:0,0:0:0:0:
205,113,147459,1,0,0:0:0:0:
315,208,147629,1,0,0:0:0:0:
335,215,147714,1,0,0:0:0:0:
357,215,147800,1,0,0:0:0:0:
379,210,147885,1,0,0:0:0:0:
393,201,147970,2,0,P|360:245|437:334,1,180,10|10,0:0|0:0,0:0:0:0:
451,112,148652,5,4,0:0:0:0:
451,112,148993,2,0,L|417:109,5,30
474,94,149334,5,8,0:0:0:0:
283,75,149589,1,8,0:0:0:0:
93,57,149824,1,8,0:0:0:0:
27,301,150015,6,0,B|63:286|63:286|161:320|161:320|203:301,1,180,6|0,0:0|0:0,0:0:0:0:
274,242,150526,2,0,L|369:250,1,90,8|0,0:0|0:0,0:0:0:0:
249,2,151037,2,0,P|226:69|196:184,1,180,2|0,0:0|0:0,0:0:0:0:
119,72,151549,1,0,0:0:0:0:
304,197,151719,1,0,0:0:0:0:
306,220,151804,1,0,0:0:0:0:
308,244,151890,1,0,0:0:0:0:
310,268,151975,1,0,0:0:0:0:
312,292,152060,2,0,P|332:271|374:244,1,67.5,10|0,0:0|0:0,0:0:0:0:
312,292,152401,2,0,P|290:272|246:249,1,67.5,10|0,0:0|0:0,0:0:0:0:
284,384,152743,5,4,0:0:0:0:
284,384,152990,1,0,0:0:0:0:
284,384,153238,5,8,0:0:0:0:
252,271,153362,1,8,0:0:0:0:
196,349,153486,1,8,0:0:0:0:
338,307,153610,1,8,0:0:0:0:
105,375,153734,6,0,B|83:308|83:308|106:234,1,135.000005149842,6|0,0:0|0:0,0:0:0:0:
313,54,153981,2,0,B|332:115|332:115|310:182,1,135.000005149842,10|0,0:0|0:0,0:0:0:0:
184,39,154229,1,2,0:0:0:0:
421,113,154353,1,2,0:0:0:0:
134,182,154477,1,8,0:0:0:0:
417,210,154601,6,0,L|130:184,1,270.000010299683,2|0,0:0|0:0,0:0:0:0:
229,324,154973,1,8,0:0:0:0:
390,116,155097,1,0,0:0:0:0:
421,113,155159,1,0,0:0:0:0:
453,110,155221,1,2,0:0:0:0:
512,258,155345,1,0,0:0:0:0:
278,166,155469,1,10,0:0:0:0:
495,251,155593,1,0,0:0:0:0:
265,364,155717,6,0,B|107:388|188:290|13:306,1,270,6|0,0:0|0:0,0:0:0:0:
3,325,155964,2,0,L|16:165,1,135.000005149842,10|0,0:0|0:0,0:0:0:0:
143,156,156212,1,0,0:0:0:0:
143,156,156336,1,0,0:0:0:0:
0,62,156460,1,8,0:0:0:0:
243,19,156584,2,0,P|350:9|526:0,1,270.000010299683,2|0,0:0|0:0,0:0:0:0:
313,150,156956,1,8,0:0:0:0:
398,338,157080,2,0,P|405:265|450:221,1,135.000005149842,2|0,0:0|0:0,0:0:0:0:
197,315,157328,2,0,P|196:241|155:193,1,135.000005149842,2|8,0:0|0:0,0:0:0:0:
327,0,157576,6,0,L|303:270,1,270.000010299683,6|0,0:0|0:0,0:0:0:0:
44,70,157948,2,0,L|178:58,1,135.000005149842,8|0,0:0|0:0,0:0:0:0:
277,148,158196,1,2,0:0:0:0:
277,148,158320,1,0,0:0:0:0:
431,42,158444,1,10,0:0:0:0:
244,172,158568,2,0,P|259:241|279:367,1,180,2|0,0:0|0:0,0:0:0:0:
111,347,158940,5,4,0:3:0:0:
119,300,159022,1,4,0:3:0:0:
156,330,159105,1,4,0:3:0:0:
111,347,159188,1,8,0:0:0:0:
0,194,159312,1,8,0:0:0:0:
191,66,159436,6,0,B|244:44|244:44|393:92|393:92|468:64,1,270,6|0,0:0|0:0,0:0:0:0:
455,58,159683,2,0,L|441:217,1,135.000005149842,8|0,0:0|0:0,0:0:0:0:
491,353,159931,1,2,0:0:0:0:
293,274,160055,1,2,0:0:0:0:
512,254,160179,1,8,0:0:0:0:
261,366,160303,6,0,B|175:374|175:374|154:355|154:355|-11:336,1,270.000010299683,2|0,0:0|0:0,0:0:0:0:
169,190,160675,1,8,0:0:0:0:
114,13,160799,2,0,P|57:45|29:127,1,135.000005149842,2|0,0:0|0:0,0:0:0:0:
323,163,161047,2,0,P|324:96|285:42,1,135.000005149842,2|8,0:0|0:0,0:0:0:0:
139,384,161295,2,0,L|183:107,1,270.000010299683,2|0,0:0|0:0,0:0:0:0:
261,313,161667,5,10,0:0:0:0:
318,366,161729,1,0,0:0:0:0:
386,381,161791,1,0,0:0:0:0:
450,367,161853,1,0,0:0:0:0:
493,322,161915,1,4,0:3:0:0:
512,274,161977,1,4,0:3:0:0:
512,221,162039,1,4,0:3:0:0:
492,184,162101,1,4,0:3:0:0:
481,156,162163,1,12,0:3:0:0:
481,135,162225,1,8,0:3:0:0:
488,123,162287,5,10,0:0:0:0:
430,144,162349,1,4,0:3:0:0:
373,142,162411,2,4,P|341:137|311:125,1,33.7500012874604,4|4,0:3|0:3,0:3:0:0:
208,42,162535,5,10,0:0:0:0:
142,12,162597,1,4,0:3:0:0:
75,22,162659,1,4,0:3:0:0:
27,56,162721,1,4,0:3:0:0:
2,108,162783,1,4,0:3:0:0:
6,154,162845,1,4,0:3:0:0:
32,192,162907,1,4,0:3:0:0:
118,296,163031,5,8,0:3:0:0:
125,322,163093,1,8,0:3:0:0:
123,346,163155,2,0,B|93:318|93:318|348:342,1,270,6|0,0:0|0:0,0:0:0:0:
331,359,163402,2,0,L|318:215,1,135.000005149842,8|0,0:0|0:0,0:0:0:0:
414,143,163650,1,2,0:0:0:0:
170,41,163774,1,2,0:0:0:0:
435,152,163898,1,8,0:0:0:0:
175,194,164022,6,0,B|86:205|1:166|1:166|35:195|66:249,1,270.000010299683,2|0,0:0|0:0,0:0:0:0:
173,329,164394,1,8,0:0:0:0:
307,90,164518,2,0,L|320:241,1,135.000005149842,2|0,0:0|0:0,0:0:0:0:
87,106,164766,1,2,0:0:0:0:
398,25,164890,1,10,0:0:0:0:
195,376,165014,6,0,L|214:-3,1,360,6|0,0:0|0:0,0:0:0:0:
343,236,165386,2,0,P|404:218|474:205,1,135.000005149842,8|0,0:0|0:0,0:0:0:0:
364,341,165634,1,0,0:0:0:0:
364,341,165758,1,0,0:0:0:0:
292,83,165882,1,10,0:0:0:0:
246,351,166006,2,0,B|208:383|208:383|157:352|56:335|56:335|106:324|132:307,1,270.000010299683,2|0,0:0|0:0,0:0:0:0:
25,115,166378,5,0,0:0:0:0:
21,148,166440,1,0,0:0:0:0:
17,181,166502,1,0,0:0:0:0:
13,214,166564,1,0,0:0:0:0:
9,247,166626,1,8,0:0:0:0:
9,247,166874,6,0,P|66:207|279:231,1,270,6|0,0:0|0:0,0:0:0:0:
276,218,167121,2,0,L|262:377,1,135.000005149842,8|0,0:0|0:0,0:0:0:0:
159,260,167369,1,2,0:0:0:0:
372,278,167493,1,2,0:0:0:0:
88,345,167617,1,8,0:0:0:0:
137,91,167741,6,0,B|149:53|149:53|210:58|255:81|255:81|296:56|378:46,1,270.000010299683,2|0,0:0|0:0,0:0:0:0:
501,175,168113,1,8,0:0:0:0:
381,373,168237,2,0,P|435:333|502:325,1,135.000005149842,2|0,0:0|0:0,0:0:0:0:
349,174,168485,2,0,P|412:199|478:189,1,135.000005149842,2|8,0:0|0:0,0:0:0:0:
268,295,168733,2,0,L|-66:324,1,270.000010299683,2|0,0:0|0:0,0:0:0:0:
47,31,169105,5,8,0:0:0:0:
48,47,169167,1,8,0:0:0:0:
49,63,169229,2,0,L|53:118,1,45
148,289,169353,5,10,0:0:0:0:
207,306,169415,1,8,0:0:0:0:
268,295,169477,1,8,0:0:0:0:
317,257,169539,1,8,0:0:0:0:
336,196,169601,2,0,P|297:216|285:244,1,45,8|0,0:0|0:0,0:0:0:0:
450,373,169725,5,10,0:0:0:0:
454,333,169787,1,8,0:0:0:0:
458,291,169849,2,0,L|464:214,1,45,8|0,0:0|0:0,0:0:0:0:
331,11,169973,1,10,0:0:0:0:
345,72,170035,1,8,0:0:0:0:
390,117,170097,1,8,0:0:0:0:
450,134,170159,1,8,0:0:0:0:
511,115,170221,2,0,P|467:95|433:101,1,45,8|0,0:0|0:0,0:0:0:0:
184,286,170345,5,8,0:0:0:0:
246,23,170469,1,8,0:0:0:0:
315,296,170593,5,8,0:0:0:0:
245,38,170716,1,8,0:0:0:0:
176,300,170840,6,0,L|45:289,1,101.250003862381,6|0,0:0|0:0,0:0:0:0:
58,271,171088,1,0,0:0:0:0:
50,174,171212,1,0,0:0:0:0:
41,66,171336,2,0,L|43:97,1,16.8750006437302,4|0,0:0|0:0,0:0:0:0:
41,66,171584,2,0,L|43:97,1,16.8750006437302
41,66,171832,5,12,0:0:0:0:
40,57,171956,1,0,0:0:0:0:
128,112,172080,5,0,0:0:0:0:
127,103,172204,1,0,0:0:0:0:
292,42,172328,6,0,L|419:30,1,101.250003862381,6|0,0:0|0:0,0:0:0:0:
408,31,172576,1,0,0:0:0:0:
379,132,172700,1,0,0:0:0:0:
441,229,172824,2,0,L|438:260,1,16.8750006437302,4|0,0:0|0:0,0:0:0:0:
441,229,173072,2,0,L|438:260,1,16.8750006437302
429,226,173320,5,4,0:0:0:0:
336,241,173444,1,0,0:0:0:0:
352,333,173568,1,0,0:0:0:0:
444,318,173692,1,0,0:0:0:0:
235,257,173816,6,0,B|202:246|202:246|120:255,1,101.250003862381,14|0,0:0|0:0,0:0:0:0:
105,277,174064,2,0,L|101:316,3,33.7500012874604
9,184,174312,2,0,L|86:188,1,67.5000025749208,6|0,0:0|0:0,0:0:0:0:
128,109,174559,2,0,L|195:104,1,67.5000025749208
271,172,174807,5,6,0:0:0:0:
270,181,174931,1,0,0:0:0:0:
358,126,175055,5,2,0:0:0:0:
357,135,175179,1,2,0:0:0:0:
448,222,175303,6,0,P|432:280|420:334,1,101.250003862381,6|0,0:0|0:0,0:0:0:0:
416,347,175551,1,0,0:0:0:0:
329,302,175675,1,0,0:0:0:0:
194,383,175799,2,0,P|186:350|175:318,1,67.5000025749208,12|0,0:0|0:0,0:0:0:0:
77,262,176047,1,0,0:0:0:0:
142,171,176171,1,0,0:0:0:0:
62,198,176295,2,0,L|56:265,1,67.5000025749208,6|0,0:0|0:0,0:0:0:0:
72,110,176543,1,2,0:0:0:0:
83,20,176667,1,2,0:0:0:0:
205,84,176791,6,0,B|243:105|284:96|284:96|302:104|302:104|338:92|381:102,1,180,6|0,0:0|0:0,0:0:0:0:
397,106,177163,1,0,0:0:0:0:
355,224,177287,1,4,0:0:0:0:
462,299,177411,2,0,P|479:217|506:119,1,180,2|0,0:0|0:0,0:0:0:0:
280,133,177783,5,12,0:0:0:0:
296,314,177907,1,0,0:0:0:0:
298,345,177969,1,0,0:0:0:0:
301,377,178031,1,8,0:0:0:0:
160,269,178154,1,8,0:0:0:0:
292,226,178278,1,4,0:0:0:0:
96,94,178402,1,8,0:0:0:0:
274,214,178526,1,0,0:0:0:0:
81,192,178650,1,4,0:3:0:0:
251,64,178774,6,0,L|402:77,1,135,6|0,0:0|0:0,0:0:0:0:
403,80,179022,1,0,0:0:0:0:
395,177,179146,1,0,0:0:0:0:
386,285,179270,2,0,L|388:253,1,22.5,4|0,0:0|0:0,0:0:0:0:
386,285,179518,2,0,L|388:253,1,22.5
386,285,179766,5,12,0:0:0:0:
385,294,179890,1,0,0:0:0:0:
473,239,180014,5,0,0:0:0:0:
472,248,180138,1,0,0:0:0:0:
311,165,180262,2,0,B|264:143|264:143|82:188,1,225,6|0,0:0|0:0,0:0:0:0:
138,76,180634,1,0,0:0:0:0:
254,269,180758,2,0,L|250:297,1,28.125,4|0,0:0|0:0,0:0:0:0:
254,269,181006,2,0,L|250:297,1,28.125
248,258,181254,5,4,0:0:0:0:
341,273,181378,1,0,0:0:0:0:
325,365,181502,1,0,0:0:0:0:
233,350,181626,1,0,0:0:0:0:
436,202,181750,2,0,B|464:184|464:184|444:321,1,168.75,12|0,0:0|0:0,0:0:0:0:
457,349,181997,2,0,L|520:340,3,56.25
341,273,182245,2,0,L|221:253,1,112.5,6|0,0:0|0:0,0:0:0:0:
133,357,182493,2,0,L|13:337,1,112.5
57,143,182741,5,6,0:0:0:0:
137,237,182865,1,0,0:0:0:0:
100,109,182989,1,2,0:0:0:0:
92,264,183113,1,2,0:0:0:0:
220,112,183237,2,0,L|210:0,1,112.5,6|0,0:0|0:0,0:0:0:0:
317,75,183485,1,2,0:0:0:0:
405,110,183609,1,0,0:0:0:0:
509,27,183733,1,12,0:0:0:0:
390,157,183857,2,0,P|375:227|350:387,1,225
481,238,184229,5,6,0:0:0:0:
489,272,184353,1,0,0:0:0:0:
274,210,184477,5,0,0:0:0:0:
260,242,184601,1,0,0:0:0:0:
132,102,184725,6,0,P|154:27|293:51,1,225,6|0,0:0|0:0,0:0:0:0:
235,135,185097,1,0,0:0:0:0:
56,193,185221,1,4,0:0:0:0:
228,332,185345,2,0,P|311:314|488:289,1,225,2|0,0:0|0:0,0:0:0:0:
449,92,185716,5,8,0:0:0:0:
157,175,185840,1,8,0:0:0:0:
153,214,185902,1,8,0:0:0:0:
150,254,185964,1,8,0:0:0:0:
356,168,186088,1,8,0:0:0:0:
109,42,186212,5,8,0:0:0:0:
247,329,186336,1,8,0:0:0:0:
248,0,186460,5,8,0:0:0:0:
117,380,186584,1,8,0:0:0:0:
389,75,186708,6,0,B|447:64|496:25|496:25|458:78|445:138|445:138|470:230|493:374,1,450,6|0,0:0|0:0,0:0:0:0:
252,311,187079,2,0,B|273:290|273:290|307:292|307:292|324:312,1,90,10|0,0:0|0:0,0:0:0:0:
92,283,187451,2,0,B|70:35|70:35|92:13|115:10|142:29|142:29|153:157,1,450,2|0,0:0|0:0,0:0:0:0:
8,371,187823,1,2,0:0:0:0:
247,160,187947,1,0,0:0:0:0:
267,163,188009,1,0,0:0:0:0:
287,166,188071,1,0,0:0:0:0:
307,169,188133,1,0,0:0:0:0:
326,172,188195,5,10,0:0:0:0:
0,79,188443,1,10,0:0:0:0:
0,79,188939,2,0,L|67:84,3,67.5000025749208
144,150,189187,2,0,P|106:168|80:188,1,67.5,2|0,0:0|0:0,0:0:0:0:
158,37,189435,2,0,P|121:15|97:-6,1,67.5,2|0,0:0|0:0,0:0:0:0:
252,114,189683,6,0,B|508:134|508:134|471:206|471:206|309:194,1,450,6|0,0:0|0:0,0:0:0:0:
503,377,190055,2,0,L|510:287,1,90,10|0,0:0|0:0,0:0:0:0:
307,383,190427,2,0,B|118:362|118:362|126:340|126:340|99:248|99:248|172:188|172:188|141:251,1,450,2|0,0:0|0:0,0:0:0:0:
54,0,190798,1,2,0:0:0:0:
12,234,190922,1,0,0:0:0:0:
9,254,190984,1,0,0:0:0:0:
6,274,191046,1,0,0:0:0:0:
3,294,191108,1,0,0:0:0:0:
0,313,191170,5,10,0:0:0:0:
347,149,191418,1,10,0:0:0:0:
347,149,191914,2,0,L|338:248,3,67.5000025749208
251,61,192162,5,8,0:0:0:0:
403,368,192286,1,8,0:0:0:0:
403,10,192410,5,8,0:0:0:0:
240,319,192534,1,8,0:0:0:0:
496,99,192658,5,2,0:0:0:0:
479,215,192781,1,0,0:0:0:0:
256,116,192905,5,8,0:0:0:0:
239,0,193029,1,0,0:0:0:0:
55,195,193153,1,2,0:0:0:0:
55,195,193277,1,2,0:0:0:0:
105,32,193401,1,8,0:0:0:0:
242,292,193525,6,0,B|399:336|354:222|507:263,1,270.000010299683,2|0,0:0|0:0,0:0:0:0:
198,156,193897,1,10,0:0:0:0:
399,12,194021,1,0,0:0:0:0:
396,41,194083,1,0,0:0:0:0:
393,71,194145,5,8,0:0:0:0:
152,298,194269,1,8,0:0:0:0:
272,10,194393,5,8,0:0:0:0:
346,295,194517,1,8,0:0:0:0:
192,56,194641,5,10,0:0:0:0:
124,31,194703,1,0,0:0:0:0:
59,39,194765,1,0,0:0:0:0:
17,76,194827,1,0,0:0:0:0:
1,129,194889,1,4,0:3:0:0:
8,179,194951,1,4,0:3:0:0:
32,208,195013,1,8,0:3:0:0:
65,227,195075,1,8,0:3:0:0:
83,232,195137,2,0,P|69:194|42:173,1,67.5000025749208,10|0,0:0|0:0,0:0:0:0:
140,344,195261,5,10,0:0:0:0:
186,350,195323,1,0,0:0:0:0:
232,355,195385,1,4,0:3:0:0:
279,357,195447,1,4,0:3:0:0:
325,363,195509,2,0,L|425:368,1,67.5000025749208,10|0,0:0|0:0,0:0:0:0:
502,134,195633,5,0,0:0:0:0:
453,78,195695,1,0,0:0:0:0:
386,59,195757,1,4,0:3:0:0:
330,65,195819,1,4,0:3:0:0:
287,88,195881,1,0,0:0:0:0:
265,120,195943,1,0,0:0:0:0:
257,150,196005,2,0,P|302:124|318:91,1,67.5000025749208,8|0,0:0|0:0,0:0:0:0:
82,9,196129,5,10,0:0:0:0:
23,53,196191,1,0,0:0:0:0:
0,102,196253,1,0,0:0:0:0:
1,152,196315,1,0,0:0:0:0:
18,190,196377,1,4,0:3:0:0:
38,216,196438,1,4,0:3:0:0:
46,246,196500,1,0,0:0:0:0:
44,269,196562,1,0,0:0:0:0:
34,288,196624,5,10,0:0:0:0:
104,300,196686,1,0,0:0:0:0:
173,307,196748,1,0,0:0:0:0:
232,311,196810,1,0,0:0:0:0:
287,317,196872,1,4,0:3:0:0:
331,320,196934,1,4,0:3:0:0:
369,323,196996,1,0,0:0:0:0:
389,325,197058,1,0,0:0:0:0:
404,326,197120,6,0,L|395:232,1,67.5000025749208,10|0,0:0|0:0,0:0:0:0:
226,114,197244,2,0,L|220:181,3,67.5000025749208,10|0|4|4,0:0|0:0|0:3|0:3,0:0:0:0:
368,15,197492,5,10,0:0:0:0:
405,0,197554,1,0,0:0:0:0:
446,6,197616,1,0,0:0:0:0:
479,26,197678,1,0,0:0:0:0:
501,60,197740,1,4,0:3:0:0:
503,100,197802,1,4,0:3:0:0:
486,136,197864,1,0,0:0:0:0:
451,157,197926,1,0,0:0:0:0:
410,162,197988,2,0,P|431:129|483:105,1,67.5000025749208,10|0,0:0|0:0,0:0:0:0:
483,284,198112,6,0,L|415:278,3,67.5000025749208,10|0|4|4,0:0|0:0|0:3|0:3,0:0:0:0:
343,355,198360,5,10,0:0:0:0:
263,359,198422,1,8,0:0:0:0:
183,363,198484,1,8,0:0:0:0:
103,367,198546,1,8,0:0:0:0:
23,371,198608,1,10,0:0:0:0:
48,322,198670,1,0,0:0:0:0:
57,280,198732,1,0,0:0:0:0:
59,232,198794,1,0,0:0:0:0:
51,196,198856,1,4,0:3:0:0:
36,173,198918,1,4,0:3:0:0:
22,160,198980,1,0,0:0:0:0:
9,154,199042,1,0,0:0:0:0:
0,153,199104,2,0,P|12:198|37:228,1,67.5000025749208,10|0,0:0|0:0,0:0:0:0:
128,47,199228,5,10,0:0:0:0:
176,41,199290,1,0,0:0:0:0:
224,36,199352,1,4,0:3:0:0:
273,32,199414,1,4,0:3:0:0:
321,28,199476,2,0,L|422:17,1,67.5000025749208,10|0,0:0|0:0,0:0:0:0:
466,249,199600,5,0,0:0:0:0:
426,275,199662,1,0,0:0:0:0:
378,275,199724,1,4,0:3:0:0:
335,253,199786,1,4,0:3:0:0:
315,209,199848,1,0,0:0:0:0:
328,163,199910,1,0,0:0:0:0:
367,136,199972,2,0,P|362:197|337:230,1,67.5000025749208,10|0,0:0|0:0,0:0:0:0:
144,250,200096,5,10,0:0:0:0:
151,178,200158,1,4,0:3:0:0:
157,108,200219,1,4,0:3:0:0:
162,63,200281,1,0,0:0:0:0:
169,22,200343,1,10,0:0:0:0:
176,41,200405,1,4,0:3:0:0:
185,59,200467,1,4,0:3:0:0:
193,78,200529,1,0,0:0:0:0:
200,97,200591,5,10,0:0:0:0:
134,82,200653,1,8,0:0:0:0:
67,69,200715,2,4,L|-3:58,1,67.5000025749208,4|4,0:3|0:3,0:3:0:0:
155,345,200839,5,10,0:0:0:0:
221,338,200901,1,8,0:0:0:0:
289,329,200963,2,4,L|363:323,1,67.5000025749208,4|4,0:3|0:3,0:3:0:0:
437,90,201087,5,10,0:0:0:0:
379,33,201149,1,8,0:0:0:0:
300,14,201211,1,8,0:0:0:0:
220,30,201273,1,8,0:0:0:0:
161,87,201335,1,8,0:0:0:0:
434,357,201459,1,4,0:0:0:0:
