osu file format v14

[General]
AudioFilename: audio.mp3
AudioLeadIn: 0
PreviewTime: 45839
Countdown: 1
SampleSet: Normal
StackLeniency: 0.4
Mode: 0
LetterboxInBreaks: 0
WidescreenStoryboard: 1

[Editor]
Bookmarks: 8818,21583,31796,42009,47115,57328,67541
DistanceSpacing: 2.2
BeatDivisor: 4
GridSize: 16
TimelineZoom: 1.8

[Metadata]
Title:Virtual Nojya Loli Fox Youtuber Uncle Song (Short Version)
TitleUnicode:バーチャルのじゃロリ狐娘Youtuberおじさんのうた (ショート版)
Artist:Satuki ga Tenkomori
ArtistUnicode:さつき が てんこもり
Creator:ANuko
Version:Ulimate
Source:けもみみおーこく国営放送
Tags:n
BeatmapID:1623920
BeatmapSetID:772511

[Difficulty]
HPDrainRate:6
CircleSize:3.5
OverallDifficulty:9.5
ApproachRate:9.6
SliderMultiplier:1.8
SliderTickRate:1

[Events]
//Background and Video events
0,0,"__mikoko_kemomimi_vr_channel_drawn_by_natori_youkai__be5c4f08ee679c348fce39494d565c8f.png",0,0
//Break Periods
//Storyboard Layer 0 (Background)
//Storyboard Layer 1 (Fail)
//Storyboard Layer 2 (Pass)
//Storyboard Layer 3 (Foreground)
//Storyboard Sound Samples

[TimingPoints]
1563.73684210526,526.315789473684,4,1,0,80,1,0
8818,319.148936170213,4,1,0,80,1,0
10094,-100,4,1,0,80,0,1
10413,-100,4,1,0,80,0,0
47115,-100,4,1,0,80,0,1
52222,-100,4,1,0,80,0,0
57328,-100,4,1,0,80,0,1
62435,-100,4,1,0,80,0,0
67541,-100,4,1,0,80,0,1
67860,-100,4,1,0,80,0,0
79349,-1000,4,1,0,80,0,0

[HitObjects]
93,47,774,5,0,0:0:0:0:
115,334,1037,1,0,0:0:0:0:
93,47,1563,5,0,0:0:0:0:
433,64,2090,1,0,0:0:0:0:
402,252,2353,1,0,0:0:0:0:
433,64,2616,1,0,0:0:0:0:
321,129,2879,5,0,0:0:0:0:
117,124,3011,1,0,0:0:0:0:
321,129,3142,1,0,0:0:0:0:
217,219,3405,1,0,0:0:0:0:
247,39,3668,5,0,0:0:0:0:
276,254,3932,1,0,0:0:0:0:
247,39,4195,1,0,0:0:0:0:
286,207,4458,1,0,0:0:0:0:
247,39,4721,5,0,0:0:0:0:
247,39,5247,5,0,0:0:0:0:
266,302,5511,1,0,0:0:0:0:
256,192,5774,12,0,8405,0:0:0:0:
122,36,8818,5,0,0:0:0:0:
122,36,9137,1,0,0:0:0:0:
56,301,9296,1,0,0:0:0:0:
134,65,9456,1,0,0:0:0:0:
56,301,9615,1,0,0:0:0:0:
293,344,9775,5,0,0:0:0:0:
293,344,10094,5,0,0:0:0:0:
381,58,10254,1,0,0:0:0:0:
335,124,10333,1,0,0:0:0:0:
382,69,10413,1,0,0:0:0:0:
238,54,10573,1,0,0:0:0:0:
247,134,10653,1,0,0:0:0:0:
225,66,10732,1,0,0:0:0:0:
101,171,10892,5,0,0:0:0:0:
172,210,10972,1,0,0:0:0:0:
97,178,11052,5,0,0:0:0:0:
190,211,11132,1,0,0:0:0:0:
94,186,11211,5,0,0:0:0:0:
204,207,11291,1,0,0:0:0:0:
91,193,11371,5,0,0:0:0:0:
437,148,11530,1,0,0:0:0:0:
459,70,11610,1,0,0:0:0:0:
426,134,11690,1,0,0:0:0:0:
294,77,11849,1,0,0:0:0:0:
320,153,11929,1,0,0:0:0:0:
280,92,12009,1,0,0:0:0:0:
280,236,12169,5,0,0:0:0:0:
230,310,12248,1,0,0:0:0:0:
296,249,12328,5,0,0:0:0:0:
229,295,12408,1,0,0:0:0:0:
304,268,12488,5,0,0:0:0:0:
232,278,12568,1,0,0:0:0:0:
160,280,12647,5,0,0:0:0:0:
66,353,12807,1,0,0:0:0:0:
7,298,12886,1,0,0:0:0:0:
72,328,12966,1,0,0:0:0:0:
159,212,13126,1,0,0:0:0:0:
218,156,13206,1,0,0:0:0:0:
157,194,13285,1,0,0:0:0:0:
155,49,13445,5,0,0:0:0:0:
223,25,13525,1,0,0:0:0:0:
163,65,13605,5,0,0:0:0:0:
252,61,13684,1,0,0:0:0:0:
164,83,13764,5,0,0:0:0:0:
265,104,13844,1,0,0:0:0:0:
161,96,13924,5,0,0:0:0:0:
258,277,14083,1,0,0:0:0:0:
348,274,14163,1,0,0:0:0:0:
267,261,14243,1,0,0:0:0:0:
392,158,14402,1,0,0:0:0:0:
434,78,14482,1,0,0:0:0:0:
411,155,14562,1,0,0:0:0:0:
265,104,14722,5,0,0:0:0:0:
210,185,14801,1,0,0:0:0:0:
287,123,14881,5,0,0:0:0:0:
218,166,14961,1,0,0:0:0:0:
295,150,15041,5,0,0:0:0:0:
232,155,15121,1,0,0:0:0:0:
169,155,15200,5,0,0:0:0:0:
104,263,15360,1,0,0:0:0:0:
134,337,15439,1,0,0:0:0:0:
136,263,15519,1,0,0:0:0:0:
289,314,15679,1,0,0:0:0:0:
351,262,15759,1,0,0:0:0:0:
284,287,15838,1,0,0:0:0:0:
388,162,15998,5,0,0:0:0:0:
458,120,16078,1,0,0:0:0:0:
379,140,16158,5,0,0:0:0:0:
473,113,16237,1,0,0:0:0:0:
373,114,16317,5,0,0:0:0:0:
490,105,16397,1,0,0:0:0:0:
373,92,16477,5,0,0:0:0:0:
143,52,16636,1,0,0:0:0:0:
159,131,16716,1,0,0:0:0:0:
166,59,16796,1,0,0:0:0:0:
79,173,16955,1,0,0:0:0:0:
111,247,17035,1,0,0:0:0:0:
63,192,17115,1,0,0:0:0:0:
207,196,17275,5,0,0:0:0:0:
291,167,17354,1,0,0:0:0:0:
214,215,17434,5,0,0:0:0:0:
284,197,17514,1,0,0:0:0:0:
222,233,17594,5,0,0:0:0:0:
280,230,17674,1,0,0:0:0:0:
338,224,17754,5,0,0:0:0:0:
457,334,17914,1,0,0:0:0:0:
496,264,17993,1,0,0:0:0:0:
447,317,18073,1,0,0:0:0:0:
462,162,18233,1,0,0:0:0:0:
430,87,18313,1,0,0:0:0:0:
467,147,18392,1,0,0:0:0:0:
332,94,18552,5,0,0:0:0:0:
275,35,18632,1,0,0:0:0:0:
320,103,18712,5,0,0:0:0:0:
272,27,18791,1,0,0:0:0:0:
307,109,18871,5,0,0:0:0:0:
273,15,18951,1,0,0:0:0:0:
289,112,19031,5,0,0:0:0:0:
209,292,19190,1,0,0:0:0:0:
209,292,19270,1,0,0:0:0:0:
119,212,19429,1,0,0:0:0:0:
119,212,19509,1,0,0:0:0:0:
119,212,19589,1,0,0:0:0:0:
96,297,19669,5,0,0:0:0:0:
15,178,19828,1,0,0:0:0:0:
15,178,19908,1,0,0:0:0:0:
9,269,20068,1,0,0:0:0:0:
9,269,20147,1,0,0:0:0:0:
9,269,20227,1,0,0:0:0:0:
2,354,20307,5,0,0:0:0:0:
339,352,20466,1,0,0:0:0:0:
2,354,20626,1,0,0:0:0:0:
339,352,20786,1,0,0:0:0:0:
426,207,20945,5,0,0:0:0:0:
396,164,21025,1,0,0:0:0:0:
395,200,21105,1,0,0:0:0:0:
373,187,21185,1,0,0:0:0:0:
361,201,21264,5,0,0:0:0:0:
346,30,21424,1,0,0:0:0:0:
346,30,21583,5,0,0:0:0:0:
280,61,21743,1,0,0:0:0:0:
208,72,21903,1,0,0:0:0:0:
143,103,22062,1,0,0:0:0:0:
116,170,22222,5,0,0:0:0:0:
194,295,22381,1,0,0:0:0:0:
116,170,22541,1,0,0:0:0:0:
194,295,22700,1,0,0:0:0:0:
261,320,22860,5,0,0:0:0:0:
328,294,23020,1,0,0:0:0:0:
373,238,23179,1,0,0:0:0:0:
363,166,23339,1,0,0:0:0:0:
309,118,23498,5,0,0:0:0:0:
473,56,23658,1,0,0:0:0:0:
309,118,23818,1,0,0:0:0:0:
274,125,23897,1,0,0:0:0:0:
238,116,23977,1,0,0:0:0:0:
175,80,24137,5,0,0:0:0:0:
140,90,24216,1,0,0:0:0:0:
119,119,24296,1,0,0:0:0:0:
116,154,24376,1,0,0:0:0:0:
129,187,24456,1,0,0:0:0:0:
158,207,24536,1,0,0:0:0:0:
193,210,24615,1,0,0:0:0:0:
260,184,24775,5,0,0:0:0:0:
294,247,24935,1,0,0:0:0:0:
353,286,25094,1,0,0:0:0:0:
425,288,25254,1,0,0:0:0:0:
491,262,25413,5,0,0:0:0:0:
512,99,25573,1,0,0:0:0:0:
491,262,25732,1,0,0:0:0:0:
512,99,25892,1,0,0:0:0:0:
491,262,26052,5,0,0:0:0:0:
425,288,26211,1,0,0:0:0:0:
399,313,26291,1,0,0:0:0:0:
380,343,26371,1,0,0:0:0:0:
363,177,26530,1,0,0:0:0:0:
363,177,26690,5,0,0:0:0:0:
291,180,26849,1,0,0:0:0:0:
226,147,27009,1,0,0:0:0:0:
186,86,27169,1,0,0:0:0:0:
175,14,27328,5,0,0:0:0:0:
84,99,27488,1,0,0:0:0:0:
175,14,27647,1,0,0:0:0:0:
84,99,27807,1,0,0:0:0:0:
76,170,27966,5,0,0:0:0:0:
106,235,28126,1,0,0:0:0:0:
167,272,28286,1,0,0:0:0:0:
238,280,28445,1,0,0:0:0:0:
307,261,28605,5,0,0:0:0:0:
475,242,28764,1,0,0:0:0:0:
307,261,28924,1,0,0:0:0:0:
475,242,29083,1,0,0:0:0:0:
468,206,29163,1,0,0:0:0:0:
443,179,29243,5,0,0:0:0:0:
407,206,29323,1,0,0:0:0:0:
432,168,29403,1,0,0:0:0:0:
394,192,29482,1,0,0:0:0:0:
417,153,29562,1,0,0:0:0:0:
300,73,29722,1,0,0:0:0:0:
249,181,29881,5,0,0:0:0:0:
219,147,29961,1,0,0:0:0:0:
228,191,30041,1,0,0:0:0:0:
190,165,30121,1,0,0:0:0:0:
201,208,30200,5,0,0:0:0:0:
177,246,30280,1,0,0:0:0:0:
220,235,30360,1,0,0:0:0:0:
198,274,30440,1,0,0:0:0:0:
241,263,30520,5,0,0:0:0:0:
474,232,30679,1,0,0:0:0:0:
241,263,30839,1,0,0:0:0:0:
474,232,30998,1,0,0:0:0:0:
483,198,31158,5,0,0:0:0:0:
371,372,31318,1,0,0:0:0:0:
361,237,31477,1,0,0:0:0:0:
371,372,31637,1,0,0:0:0:0:
361,237,31796,5,0,0:0:0:0:
282,52,32115,1,0,0:0:0:0:
282,52,32275,1,0,0:0:0:0:
282,52,32435,1,0,0:0:0:0:
126,197,32754,1,0,0:0:0:0:
195,109,33073,5,0,0:0:0:0:
201,277,33232,1,0,0:0:0:0:
225,254,33392,1,0,0:0:0:0:
250,230,33552,1,0,0:0:0:0:
191,384,33711,1,0,0:0:0:0:
250,230,34030,1,0,0:0:0:0:
425,145,34349,5,0,0:0:0:0:
384,299,34669,1,0,0:0:0:0:
384,299,34828,1,0,0:0:0:0:
384,299,34988,1,0,0:0:0:0:
415,221,35307,1,0,0:0:0:0:
333,176,35626,5,0,0:0:0:0:
296,243,35786,1,0,0:0:0:0:
287,119,36105,1,0,0:0:0:0:
287,119,36264,1,0,0:0:0:0:
215,309,36583,1,0,0:0:0:0:
215,187,36903,5,0,0:0:0:0:
71,234,37222,1,0,0:0:0:0:
215,187,37541,5,0,0:0:0:0:
71,234,37860,1,0,0:0:0:0:
215,187,38179,5,0,0:0:0:0:
71,234,38339,1,0,0:0:0:0:
215,187,38498,1,0,0:0:0:0:
71,234,38818,5,0,0:0:0:0:
215,187,39137,1,0,0:0:0:0:
71,234,39456,5,0,0:0:0:0:
73,188,39536,1,0,0:0:0:0:
88,229,39615,1,0,0:0:0:0:
91,183,39695,1,0,0:0:0:0:
108,224,39775,1,0,0:0:0:0:
180,338,39935,5,0,0:0:0:0:
209,304,40014,1,0,0:0:0:0:
199,348,40094,1,0,0:0:0:0:
236,322,40174,1,0,0:0:0:0:
229,366,40254,1,0,0:0:0:0:
343,295,40413,5,0,0:0:0:0:
307,267,40493,1,0,0:0:0:0:
350,280,40573,1,0,0:0:0:0:
320,246,40653,1,0,0:0:0:0:
364,252,40732,1,0,0:0:0:0:
329,222,40812,1,0,0:0:0:0:
373,226,40892,5,0,0:0:0:0:
320,112,41052,1,0,0:0:0:0:
373,226,41211,1,0,0:0:0:0:
425,157,41371,1,0,0:0:0:0:
425,157,41690,1,0,0:0:0:0:
425,157,42009,5,0,0:0:0:0:
195,73,42328,1,0,0:0:0:0:
156,193,42488,1,0,0:0:0:0:
195,73,42647,1,0,0:0:0:0:
207,325,42966,1,0,0:0:0:0:
57,104,43286,5,0,0:0:0:0:
156,193,43445,1,0,0:0:0:0:
57,104,43605,1,0,0:0:0:0:
156,193,43764,1,0,0:0:0:0:
59,255,43924,5,0,0:0:0:0:
269,176,44083,1,0,0:0:0:0:
59,255,44243,1,0,0:0:0:0:
269,176,44403,1,0,0:0:0:0:
199,55,44562,5,0,0:0:0:0:
219,46,44642,1,0,0:0:0:0:
241,44,44722,1,0,0:0:0:0:
261,54,44802,1,0,0:0:0:0:
276,69,44881,5,0,0:0:0:0:
301,94,44961,1,0,0:0:0:0:
334,108,45041,1,0,0:0:0:0:
370,108,45121,1,0,0:0:0:0:
403,96,45200,5,0,0:0:0:0:
456,103,45280,1,0,0:0:0:0:
488,146,45360,1,0,0:0:0:0:
479,199,45440,1,0,0:0:0:0:
440,236,45520,5,0,0:0:0:0:
377,259,45599,1,0,0:0:0:0:
309,261,45679,1,0,0:0:0:0:
244,239,45759,1,0,0:0:0:0:
197,189,45839,5,0,0:0:0:0:
110,348,45998,1,0,0:0:0:0:
197,189,46318,1,0,0:0:0:0:
103,68,46477,5,0,0:0:0:0:
183,57,46557,1,0,0:0:0:0:
263,45,46637,1,0,0:0:0:0:
103,68,46796,5,0,0:0:0:0:
181,90,46876,1,0,0:0:0:0:
258,112,46956,1,0,0:0:0:0:
103,68,47115,5,0,0:0:0:0:
65,226,47275,1,0,0:0:0:0:
131,161,47355,1,0,0:0:0:0:
78,227,47435,1,0,0:0:0:0:
187,258,47594,1,0,0:0:0:0:
210,336,47674,1,0,0:0:0:0:
205,269,47754,1,0,0:0:0:0:
307,276,47913,5,0,0:0:0:0:
307,276,47993,1,0,0:0:0:0:
328,192,48073,1,0,0:0:0:0:
432,324,48232,1,0,0:0:0:0:
494,173,48392,5,0,0:0:0:0:
479,66,48552,1,0,0:0:0:0:
401,153,48631,1,0,0:0:0:0:
470,81,48711,1,0,0:0:0:0:
259,46,48871,1,0,0:0:0:0:
204,160,48950,1,0,0:0:0:0:
254,73,49030,1,0,0:0:0:0:
107,73,49190,5,0,0:0:0:0:
103,81,49270,1,0,0:0:0:0:
118,161,49349,1,0,0:0:0:0:
26,41,49509,1,0,0:0:0:0:
65,228,49669,5,0,0:0:0:0:
91,313,49748,1,0,0:0:0:0:
91,231,49828,1,0,0:0:0:0:
117,316,49907,1,0,0:0:0:0:
117,233,49988,5,0,0:0:0:0:
143,318,50067,1,0,0:0:0:0:
143,236,50147,1,0,0:0:0:0:
169,321,50226,1,0,0:0:0:0:
169,238,50307,5,0,0:0:0:0:
319,186,50466,1,0,0:0:0:0:
299,275,50546,1,0,0:0:0:0:
329,210,50626,1,0,0:0:0:0:
463,135,50786,1,0,0:0:0:0:
494,65,50865,1,0,0:0:0:0:
439,141,50945,5,0,0:0:0:0:
401,49,51025,1,0,0:0:0:0:
401,148,51105,1,0,0:0:0:0:
363,56,51185,1,0,0:0:0:0:
363,154,51264,5,0,0:0:0:0:
325,62,51344,1,0,0:0:0:0:
325,161,51424,1,0,0:0:0:0:
287,69,51504,1,0,0:0:0:0:
287,167,51583,5,0,0:0:0:0:
129,39,51743,1,0,0:0:0:0:
104,275,51903,1,0,0:0:0:0:
129,39,52062,1,0,0:0:0:0:
137,84,52222,5,0,0:0:0:0:
208,138,52381,1,0,0:0:0:0:
248,212,52461,1,0,0:0:0:0:
240,174,52541,1,0,0:0:0:0:
239,304,52700,1,0,0:0:0:0:
312,354,52780,1,0,0:0:0:0:
268,298,52860,1,0,0:0:0:0:
435,207,53020,5,0,0:0:0:0:
435,207,53099,1,0,0:0:0:0:
383,148,53179,1,0,0:0:0:0:
377,267,53339,1,0,0:0:0:0:
326,88,53498,5,0,0:0:0:0:
263,187,53658,1,0,0:0:0:0:
240,113,53738,1,0,0:0:0:0:
231,168,53818,1,0,0:0:0:0:
126,96,53977,1,0,0:0:0:0:
145,190,54057,1,0,0:0:0:0:
158,127,54137,1,0,0:0:0:0:
108,253,54296,5,0,0:0:0:0:
108,253,54376,1,0,0:0:0:0:
169,292,54456,1,0,0:0:0:0:
233,330,54615,1,0,0:0:0:0:
390,251,54775,5,0,0:0:0:0:
233,330,54935,1,0,0:0:0:0:
219,249,55014,1,0,0:0:0:0:
253,294,55094,1,0,0:0:0:0:
280,109,55254,1,0,0:0:0:0:
239,185,55333,1,0,0:0:0:0:
287,194,55413,1,0,0:0:0:0:
200,40,55573,1,0,0:0:0:0:
188,108,55653,1,0,0:0:0:0:
173,178,55732,1,0,0:0:0:0:
200,40,56052,5,0,0:0:0:0:
399,39,56211,1,0,0:0:0:0:
399,39,56291,1,0,0:0:0:0:
499,181,56450,1,0,0:0:0:0:
499,181,56530,1,0,0:0:0:0:
499,181,56610,1,0,0:0:0:0:
452,271,56690,5,0,0:0:0:0:
238,312,56849,1,0,0:0:0:0:
238,312,56929,1,0,0:0:0:0:
347,175,57089,1,0,0:0:0:0:
347,175,57169,1,0,0:0:0:0:
347,175,57248,1,0,0:0:0:0:
286,107,57328,5,0,0:0:0:0:
180,218,57488,1,0,0:0:0:0:
171,108,57568,1,0,0:0:0:0:
168,187,57648,1,0,0:0:0:0:
79,301,57807,1,0,0:0:0:0:
43,203,57887,1,0,0:0:0:0:
83,271,57967,1,0,0:0:0:0:
78,66,58126,5,0,0:0:0:0:
78,66,58206,1,0,0:0:0:0:
35,133,58286,1,0,0:0:0:0:
158,43,58445,1,0,0:0:0:0:
168,187,58605,5,0,0:0:0:0:
309,150,58765,1,0,0:0:0:0:
287,245,58844,1,0,0:0:0:0:
283,168,58924,1,0,0:0:0:0:
349,312,59084,1,0,0:0:0:0:
278,334,59163,1,0,0:0:0:0:
377,326,59243,1,0,0:0:0:0:
469,237,59403,5,0,0:0:0:0:
443,157,59483,1,0,0:0:0:0:
431,223,59562,1,0,0:0:0:0:
426,68,59722,1,0,0:0:0:0:
309,150,59882,5,0,0:0:0:0:
283,83,59961,1,0,0:0:0:0:
283,155,60041,1,0,0:0:0:0:
257,88,60120,1,0,0:0:0:0:
257,160,60200,5,0,0:0:0:0:
231,93,60279,1,0,0:0:0:0:
231,166,60360,1,0,0:0:0:0:
205,99,60439,1,0,0:0:0:0:
205,172,60520,5,0,0:0:0:0:
179,328,60679,1,0,0:0:0:0:
179,328,60759,1,0,0:0:0:0:
128,273,60839,1,0,0:0:0:0:
254,350,60999,1,0,0:0:0:0:
310,337,61078,1,0,0:0:0:0:
351,295,61158,5,0,0:0:0:0:
439,276,61238,1,0,0:0:0:0:
357,276,61318,1,0,0:0:0:0:
445,257,61398,1,0,0:0:0:0:
364,257,61477,5,0,0:0:0:0:
452,238,61557,1,0,0:0:0:0:
370,238,61637,1,0,0:0:0:0:
458,219,61717,1,0,0:0:0:0:
377,219,61796,5,0,0:0:0:0:
330,101,61956,1,0,0:0:0:0:
309,186,62036,1,0,0:0:0:0:
314,105,62116,1,0,0:0:0:0:
213,114,62275,1,0,0:0:0:0:
213,207,62355,1,0,0:0:0:0:
230,131,62435,5,0,0:0:0:0:
134,177,62594,1,0,0:0:0:0:
123,268,62674,1,0,0:0:0:0:
148,198,62754,1,0,0:0:0:0:
201,339,62913,1,0,0:0:0:0:
250,278,62993,1,0,0:0:0:0:
221,337,63073,1,0,0:0:0:0:
381,335,63233,5,0,0:0:0:0:
381,335,63312,1,0,0:0:0:0:
358,267,63392,1,0,0:0:0:0:
511,317,63552,1,0,0:0:0:0:
412,122,63711,5,0,0:0:0:0:
343,73,63871,1,0,0:0:0:0:
298,144,63951,1,0,0:0:0:0:
321,78,64031,1,0,0:0:0:0:
201,112,64190,1,0,0:0:0:0:
165,189,64270,1,0,0:0:0:0:
224,133,64350,1,0,0:0:0:0:
100,91,64509,5,0,0:0:0:0:
100,91,64589,1,0,0:0:0:0:
77,163,64669,1,0,0:0:0:0:
48,37,64828,1,0,0:0:0:0:
28,257,64988,5,0,0:0:0:0:
182,322,65148,1,0,0:0:0:0:
219,255,65227,1,0,0:0:0:0:
194,316,65307,1,0,0:0:0:0:
342,191,65467,1,0,0:0:0:0:
390,278,65546,1,0,0:0:0:0:
333,211,65626,1,0,0:0:0:0:
464,174,65786,5,0,0:0:0:0:
474,93,65866,1,0,0:0:0:0:
481,13,65945,1,0,0:0:0:0:
481,13,66265,5,0,0:0:0:0:
353,44,66424,1,0,0:0:0:0:
353,44,66504,1,0,0:0:0:0:
257,297,66663,1,0,0:0:0:0:
257,297,66743,1,0,0:0:0:0:
257,297,66823,1,0,0:0:0:0:
180,227,66903,5,0,0:0:0:0:
181,332,67062,1,0,0:0:0:0:
181,332,67142,1,0,0:0:0:0:
73,183,67302,1,0,0:0:0:0:
73,183,67382,1,0,0:0:0:0:
180,102,67541,5,0,0:0:0:0:
326,172,67701,1,0,0:0:0:0:
385,225,67780,1,0,0:0:0:0:
321,191,67860,1,0,0:0:0:0:
441,111,68020,1,0,0:0:0:0:
366,77,68100,1,0,0:0:0:0:
436,89,68179,1,0,0:0:0:0:
265,13,68339,5,0,0:0:0:0:
180,44,68419,1,0,0:0:0:0:
269,32,68499,5,0,0:0:0:0:
168,50,68578,1,0,0:0:0:0:
271,57,68658,5,0,0:0:0:0:
158,48,68738,1,0,0:0:0:0:
92,139,68818,5,0,0:0:0:0:
143,357,68977,1,0,0:0:0:0:
167,274,69057,1,0,0:0:0:0:
148,343,69137,1,0,0:0:0:0:
281,291,69296,1,0,0:0:0:0:
305,208,69376,1,0,0:0:0:0:
294,279,69456,1,0,0:0:0:0:
189,179,69616,5,0,0:0:0:0:
266,135,69695,1,0,0:0:0:0:
179,159,69775,5,0,0:0:0:0:
247,135,69855,1,0,0:0:0:0:
174,132,69935,5,0,0:0:0:0:
227,125,70015,1,0,0:0:0:0:
279,117,70094,5,0,0:0:0:0:
406,185,70254,1,0,0:0:0:0:
444,114,70333,1,0,0:0:0:0:
382,152,70413,1,0,0:0:0:0:
396,295,70573,1,0,0:0:0:0:
485,284,70653,1,0,0:0:0:0:
413,278,70732,1,0,0:0:0:0:
275,322,70892,5,0,0:0:0:0:
227,256,70972,1,0,0:0:0:0:
259,330,71052,5,0,0:0:0:0:
222,248,71131,1,0,0:0:0:0:
240,332,71211,5,0,0:0:0:0:
218,235,71291,1,0,0:0:0:0:
188,140,71371,5,0,0:0:0:0:
48,233,71530,1,0,0:0:0:0:
97,168,71610,1,0,0:0:0:0:
90,239,71690,1,0,0:0:0:0:
213,166,71849,1,0,0:0:0:0:
292,151,71929,1,0,0:0:0:0:
219,147,72009,1,0,0:0:0:0:
335,61,72169,5,0,0:0:0:0:
423,72,72248,1,0,0:0:0:0:
333,81,72328,5,0,0:0:0:0:
402,100,72408,1,0,0:0:0:0:
329,101,72488,5,0,0:0:0:0:
378,123,72568,1,0,0:0:0:0:
426,146,72647,5,0,0:0:0:0:
414,261,72807,1,0,0:0:0:0:
353,208,72886,1,0,0:0:0:0:
380,274,72966,1,0,0:0:0:0:
259,195,73126,1,0,0:0:0:0:
200,251,73206,1,0,0:0:0:0:
264,220,73285,1,0,0:0:0:0:
174,106,73445,5,0,0:0:0:0:
242,61,73525,1,0,0:0:0:0:
164,84,73605,5,0,0:0:0:0:
252,70,73684,1,0,0:0:0:0:
162,61,73764,5,0,0:0:0:0:
259,81,73844,1,0,0:0:0:0:
351,116,73924,5,0,0:0:0:0:
54,198,74083,1,0,0:0:0:0:
88,271,74163,1,0,0:0:0:0:
89,198,74243,1,0,0:0:0:0:
173,313,74402,1,0,0:0:0:0:
244,352,74482,1,0,0:0:0:0:
192,300,74562,1,0,0:0:0:0:
368,263,74722,5,0,0:0:0:0:
435,204,74801,1,0,0:0:0:0:
348,231,74881,1,0,0:0:0:0:
405,187,74961,1,0,0:0:0:0:
333,194,75041,1,0,0:0:0:0:
377,163,75121,1,0,0:0:0:0:
419,129,75201,5,0,0:0:0:0:
310,123,75361,1,0,0:0:0:0:
250,68,75440,1,0,0:0:0:0:
275,135,75520,1,0,0:0:0:0:
130,137,75680,1,0,0:0:0:0:
152,214,75760,1,0,0:0:0:0:
147,142,75839,1,0,0:0:0:0:
97,277,75999,5,0,0:0:0:0:
171,308,76079,1,0,0:0:0:0:
89,308,76159,5,0,0:0:0:0:
186,298,76238,1,0,0:0:0:0:
96,341,76318,5,0,0:0:0:0:
197,281,76398,1,0,0:0:0:0:
116,366,76478,5,0,0:0:0:0:
327,267,76637,1,0,0:0:0:0:
327,267,76717,1,0,0:0:0:0:
365,100,76876,1,0,0:0:0:0:
365,100,76956,1,0,0:0:0:0:
365,100,77036,1,0,0:0:0:0:
297,29,77116,5,0,0:0:0:0:
404,199,77275,1,0,0:0:0:0:
404,199,77355,1,0,0:0:0:0:
230,142,77515,1,0,0:0:0:0:
230,142,77594,1,0,0:0:0:0:
230,142,77674,1,0,0:0:0:0:
212,55,77754,5,0,0:0:0:0:
60,317,77913,1,0,0:0:0:0:
212,55,78073,1,0,0:0:0:0:
60,317,78233,1,0,0:0:0:0:
86,174,78392,5,0,0:0:0:0:
128,249,78472,1,0,0:0:0:0:
133,191,78552,1,0,0:0:0:0:
172,216,78632,1,0,0:0:0:0:
202,195,78711,5,0,0:0:0:0:
324,382,78871,1,0,0:0:0:0:
493,73,79349,6,0,P|407:43|376:52,1,126
