osu file format v14

[General]
AudioFilename: audio.mp3
AudioLeadIn: 0
PreviewTime: 45839
Countdown: 1
SampleSet: Normal
StackLeniency: 0.4
Mode: 0
LetterboxInBreaks: 0
WidescreenStoryboard: 1

[Editor]
Bookmarks: 8818,21583,31796,42009,47115,57328,67541
DistanceSpacing: 0.9
BeatDivisor: 4
GridSize: 16
TimelineZoom: 1.8

[Metadata]
Title:Virtual Nojya Loli Fox Youtuber Uncle Song (Short Version)
TitleUnicode:バーチャルのじゃロリ狐娘Youtuberおじさんのうた (ショート版)
Artist:Satuki ga Tenkomori
ArtistUnicode:さつき が てんこもり
Creator:ANuko
Version:Light Insane
Source:けもみみおーこく国営放送
Tags:n
BeatmapID:1623916
BeatmapSetID:772511

[Difficulty]
HPDrainRate:4
CircleSize:3
OverallDifficulty:8
ApproachRate:8.8
SliderMultiplier:1.6
SliderTickRate:1

[Events]
//Background and Video events
0,0,"__mikoko_kemomimi_vr_channel_drawn_by_natori_youkai__be5c4f08ee679c348fce39494d565c8f.png",0,0
//Break Periods
//Storyboard Layer 0 (Background)
//Storyboard Layer 1 (Fail)
//Storyboard Layer 2 (Pass)
//Storyboard Layer 3 (Foreground)
//Storyboard Sound Samples

[TimingPoints]
1563.73684210526,526.315789473684,4,1,0,80,1,0
8818,319.148936170213,4,1,0,80,1,0
10094,-66.6666666666667,4,1,0,80,0,1
10413,-66.6666666666667,4,1,0,80,0,0
21583,-79.9999999999999,4,1,0,80,0,0
31796,-100,4,1,0,80,0,0
39456,-79.9999999999999,4,1,0,80,0,0
47115,-66.6666666666667,4,1,0,80,0,1
52222,-100,4,1,0,80,0,0
57328,-66.6666666666667,4,1,0,80,0,1
62435,-100,4,1,0,80,0,0
67541,-66.6666666666667,4,1,0,80,0,1
67860,-66.6666666666667,4,1,0,80,0,0

[HitObjects]
466,61,1563,6,0,P|368:53|304:84,1,160,2|8,0:0|0:0,0:0:0:0:
214,203,2616,6,0,P|134:225|56:172,1,160,0|2,0:0|0:3,0:0:0:0:
153,54,3668,5,2,0:0:0:0:
214,203,4195,2,0,P|268:250|358:233,1,160,8|8,0:0|0:0,0:0:0:0:
476,139,5247,1,2,0:0:0:0:
406,98,5511,1,4,0:0:0:0:
326,96,5774,1,0,0:0:0:0:
256,192,5905,12,0,8405,0:0:0:0:
451,20,8818,6,0,L|413:113,1,80,2|0,0:0|0:0,0:0:0:0:
374,202,9137,5,8,0:0:0:0:
306,159,9296,1,0,0:0:0:0:
264,227,9456,1,8,0:0:0:0:
192,192,9615,1,0,0:0:0:0:
174,270,9775,1,8,0:2:0:0:
152,118,9935,6,0,L|148:78,1,40,8|0,0:0|0:0,0:0:0:0:
79,6,10094,6,0,P|47:70|90:148,1,120.000004577637,2|0,0:0|0:0,0:0:0:0:
132,192,10333,1,0,0:0:0:0:
187,167,10413,2,0,P|219:157|266:169,1,60.0000022888184,8|0,0:0|0:0,0:0:0:0:
326,194,10573,2,0,P|355:199|385:196,1,60.0000022888184,0|0,0:0|0:0,0:0:0:0:
470,211,10732,6,0,P|442:263|387:283,1,120.000004577637,0|0,0:0|0:0,0:0:0:0:
307,278,11052,2,0,P|231:294|201:339,1,120.000004577637,8|0,0:0|0:0,0:0:0:0:
155,384,11371,6,0,L|90:273,1,120.000004577637,2|0,0:0|0:0,0:0:0:0:
50,209,11610,1,0,0:0:0:0:
129,199,11690,2,0,P|160:192|186:159,1,60.0000022888184,8|0,0:0|0:0,0:0:0:0:
218,94,11849,2,0,P|244:67|285:67,1,60.0000022888184,0|0,0:0|0:0,0:0:0:0:
351,81,12009,6,0,P|375:134|427:163,1,120.000004577637,0|0,0:0|0:0,0:0:0:0:
462,242,12328,2,0,P|511:158|498:115,1,120.000004577637,8|0,0:0|0:0,0:0:0:0:
437,80,12647,6,0,P|412:26|315:7,1,120.000004577637,2|0,0:0|0:0,0:0:0:0:
282,15,12887,1,0,0:0:0:0:
229,79,12966,6,0,P|254:111|262:165,1,60.0000022888184,8|0,0:0|0:0,0:0:0:0:
259,211,13126,2,0,P|263:236|292:269,1,60.0000022888184
349,315,13286,6,0,P|370:260|345:208,1,120.000004577637
283,263,13605,2,0,P|182:275|166:330,1,120.000004577637,8|0,0:0|0:0,0:0:0:0:
145,370,13924,6,0,P|76:337|53:276,1,120.000004577637,2|0,0:0|0:0,0:0:0:0:
18,167,14163,1,0,0:0:0:0:
104,161,14243,2,0,P|138:153|168:110,1,60.0000022888184,8|0,0:0|0:0,0:0:0:0:
184,57,14403,2,0,P|208:18|257:0,1,60.0000022888184
263,76,14562,6,0,P|264:134|307:173,1,120.000004577637
458,141,14881,2,0,P|471:187|445:150,1,120.000004577637,8|0,0:0|0:0,0:0:0:0:
483,50,15200,6,0,P|413:40|350:59,1,120.000004577637,2|0,0:0|0:0,0:0:0:0:
236,164,15440,1,0,0:0:0:0:
265,239,15520,6,0,P|296:262|347:266,1,60.0000022888184,8|0,0:0|0:0,0:0:0:0:
400,261,15679,2,0,P|413:291|411:349,1,60.0000022888184
358,380,15839,6,0,P|278:398|219:348,1,120.000004577637
201,296,16158,2,0,P|104:291|70:320,1,120.000004577637,8|0,0:0|0:0,0:0:0:0:
21,352,16477,6,0,P|7:320|20:220,1,120.000004577637,2|0,0:0|0:0,0:0:0:0:
36,118,16716,1,0,0:0:0:0:
108,153,16796,6,0,P|140:146|171:101,1,60.0000022888184,8|0,0:0|0:0,0:0:0:0:
193,56,16956,2,0,P|219:31|266:13,1,60.0000022888184
323,22,17115,6,0,P|292:92|313:152,1,120.000004577637
339,173,17435,2,0,P|370:243|349:303,1,120.000004577637,8|0,0:0|0:0,0:0:0:0:
313,373,17754,6,0,P|372:340|406:287,1,120.000004577637,2|0,0:0|0:0,0:0:0:0:
488,207,17993,1,0,0:0:0:0:
422,153,18073,6,0,P|409:128|406:95,1,60.0000022888184,8|0,0:0|0:0,0:0:0:0:
368,28,18232,2,0,P|338:19|302:30,1,60.0000022888184
239,60,18392,6,0,P|245:118|211:165,1,120.000004577637
264,273,18711,2,0,P|215:305|156:298,1,120.000004577637,8|0,0:0|0:0,0:0:0:0:
65,250,19030,5,4,0:0:0:0:
86,143,19270,1,0,0:0:0:0:
65,250,19509,1,4,0:0:0:0:
136,238,19669,5,4,0:0:0:0:
225,178,19908,1,4,0:0:0:0:
136,238,20147,1,0,0:0:0:0:
171,175,20307,6,0,P|186:124|151:56,3,120.000004577637,2|0|2|0,0:0|0:0|0:0|0:0,0:0:0:0:
189,43,20945,5,2,0:0:0:0:
224,37,21025,1,2,0:3:0:0:
259,45,21105,1,2,0:3:0:0:
285,69,21185,1,2,0:3:0:0:
295,103,21264,6,0,P|294:183|323:253,1,120.000004577637,10|10,0:3|0:3,0:0:0:0:
197,198,21583,6,0,P|157:230|78:237,3,100,2|0|0|0,0:2|0:0|0:0|0:0,0:0:0:0:
113,144,22222,6,0,L|164:16,3,100,2|0|0|0,0:2|0:0|0:0|0:0,0:0:0:0:
265,32,22860,6,0,P|312:47|345:105,3,100,8|0|0|0,0:0|0:0|0:0|0:0,0:0:0:0:
276,164,23498,6,0,P|316:182|373:187,1,100,0|0,0:0|0:0,0:0:0:0:
474,170,23818,1,2,0:0:0:0:
453,255,23977,1,0,0:0:0:0:
433,341,24137,6,0,L|307:330,1,100,8|0,0:0|0:0,0:0:0:0:
245,281,24456,2,0,L|119:270,1,100,0|0,0:0|0:0,0:0:0:0:
216,197,24775,6,0,L|315:188,1,100,8|0,0:0|0:0,0:0:0:0:
404,137,25094,2,0,L|503:128,1,100,0|0,0:0|0:0,0:0:0:0:
428,61,25413,5,8,0:0:0:0:
404,137,25573,1,0,0:0:0:0:
428,61,25732,1,8,0:0:0:0:
404,137,25892,1,0,0:0:0:0:
465,57,26052,5,8,0:0:0:0:
503,128,26212,1,0,0:0:0:0:
465,57,26371,1,8,0:0:0:0:
503,128,26531,1,0,0:0:0:0:
484,205,26690,6,0,P|430:224|375:224,3,100,2|0|0|0,0:0|0:0|0:0|0:0,0:0:0:0:
307,216,27328,6,0,P|302:264|284:313,3,100,2|0|0|0,0:0|0:0|0:0|0:0,0:0:0:0:
214,266,27966,6,0,P|217:216|235:169,3,100,4|0|8|0,0:3|0:0|0:0|0:0,0:0:0:0:
292,112,28605,6,0,L|394:91,1,100,0|0,0:0|0:0,0:0:0:0:
469,78,28924,1,8,0:0:0:0:
389,91,29083,1,0,0:0:0:0:
376,139,29243,5,8,0:0:0:0:
362,187,29403,1,0,0:0:0:0:
398,220,29562,1,0,0:0:0:0:
384,268,29722,1,2,0:0:0:0:
399,315,29881,5,2,0:0:0:0:
350,326,30041,1,0,0:0:0:0:
308,299,30200,1,2,0:0:0:0:
257,301,30360,1,0,0:0:0:0:
210,282,30520,5,2,0:0:0:0:
156,221,30679,1,0,0:0:0:0:
210,282,30839,1,8,0:0:0:0:
221,180,30998,1,8,0:0:0:0:
221,180,31477,2,0,P|275:154|302:93,1,100,0|2,0:0|0:0,0:0:0:0:
298,41,31796,6,0,P|206:59|218:105,1,160,4|0,0:0|0:0,0:0:0:0:
302,232,32435,2,0,P|253:292|175:300,1,160,8|4,0:0|0:3,0:0:0:0:
155,222,33073,6,0,L|174:299,2,80,4|0|0,0:0|0:0|0:0,0:0:0:0:
202,113,33711,2,0,L|230:21,2,80,2|0|4,0:0|0:0|0:0,0:0:0:0:
274,149,34349,6,0,P|304:211|394:254,1,160,8|0,0:0|0:0,0:0:0:0:
398,123,34988,2,0,P|350:197|400:262,1,160,4|4,0:0|0:3,0:0:0:0:
451,315,35626,6,0,P|393:343|346:330,2,80,8|0|0,0:0|0:0|0:0,0:0:0:0:
381,252,36264,2,0,L|346:95,1,160,8|4,0:0|0:0,0:0:0:0:
250,230,36903,6,0,P|149:272|88:252,1,160,2|0,0:0|0:0,0:0:0:0:
226,217,37541,2,0,P|122:184|88:129,1,160,2|0,0:0|0:0,0:0:0:0:
217,192,38179,6,0,P|158:100|167:36,1,160,2|0,0:0|0:0,0:0:0:0:
226,167,38818,2,0,P|240:59|288:16,1,160,2|2,0:0|0:0,0:0:0:0:
415,141,39456,6,0,P|339:248|227:135,2,300,8|8|8,0:0|0:0|0:0,0:0:0:0:
225,167,40732,5,0,0:0:0:0:
166,66,41052,1,8,0:0:0:0:
166,66,41211,2,0,L|275:66,1,100,0|2,0:0|0:0,0:0:0:0:
394,65,41690,1,2,0:3:0:0:
512,63,42009,5,2,0:3:0:0:
474,145,42328,1,2,0:3:0:0:
512,63,42647,1,2,0:3:0:0:
474,145,42966,1,2,0:3:0:0:
433,227,43286,6,0,P|388:268|313:280,1,100,8|8,0:3|0:3,0:0:0:0:
347,194,43605,2,0,P|346:142|306:98,1,100,8|8,0:3|0:3,0:0:0:0:
172,165,43924,2,0,P|211:178|300:158,1,100,8|8,0:3|0:3,0:0:0:0:
251,0,44243,2,0,L|228:101,1,100,8|8,0:3|0:3,0:0:0:0:
138,37,44562,6,0,P|114:49|72:37,3,50,10|0|0|0,0:3|0:0|0:0|0:0,0:0:0:0:
120,109,44881,2,0,P|104:131|78:145,3,50,10|0|0|0,0:1|0:0|0:0|0:0,0:0:0:0:
140,184,45200,6,0,P|133:208|123:231,3,50,8|0|0|0,0:3|0:0|0:0|0:0,0:0:0:0:
183,240,45520,2,0,P|198:272|202:306,3,50,10|0|0|0,0:1|0:0|0:0|0:0,0:0:0:0:
259,250,45839,6,0,P|295:277|318:330,1,100,0|0,0:0|0:0,0:0:0:0:
411,241,46158,2,0,P|434:200|422:137,1,100,0|0,0:0|0:0,0:0:0:0:
346,183,46477,6,0,L|297:206,2,50,0|0|0,0:0|0:0|0:0,0:0:0:0:
270,120,46796,2,0,L|223:102,2,50,8|0|0,0:0|0:0|0:0,0:0:0:0:
210,241,47115,6,0,L|79:296,1,120.000004577637,8|2,0:0|0:0,0:0:0:0:
0,306,47355,1,0,0:0:0:0:
0,306,47435,5,2,0:0:0:0:
17,200,47594,1,8,0:0:0:0:
64,189,47674,1,0,0:0:0:0:
103,161,47754,5,10,0:0:0:0:
134,70,47913,2,0,P|134:46|118:4,2,60.0000022888184,2|0|2,0:0|0:0|0:0,0:0:0:0:
216,142,48232,1,2,0:0:0:0:
263,151,48312,1,0,0:0:0:0:
310,142,48392,5,10,0:0:0:0:
402,63,48552,1,0,0:0:0:0:
400,110,48631,1,0,0:0:0:0:
423,151,48711,6,0,P|426:186|402:216,1,60.0000022888184,2|0,0:0|0:0,0:0:0:0:
325,227,48871,2,0,P|311:253|316:282,1,60.0000022888184,2|0,0:0|0:0,0:0:0:0:
246,355,49030,6,0,P|224:329|214:303,1,60.0000022888184,2|0,0:0|0:0,0:0:0:0:
157,229,49190,2,0,P|121:235|92:206,2,60.0000022888184,0|0|4,0:0|0:0|0:2,0:0:0:0:
240,201,49509,1,4,0:0:0:0:
303,146,49669,6,0,P|342:141|397:195,1,120.000004577637,8|8,0:0|0:0,0:0:0:0:
363,270,49988,2,0,P|405:243|494:253,1,120.000004577637,8|8,0:0|0:0,0:0:0:0:
435,318,50307,6,0,P|380:351|307:337,1,120.000004577637,8|0,0:0|0:0,0:0:0:0:
259,295,50626,2,0,P|213:270|138:275,1,120.000004577637,2|8,0:0|0:0,0:0:0:0:
68,303,50945,5,2,0:0:0:0:
61,273,51025,1,0,0:0:0:0:
73,245,51105,1,8,0:0:0:0:
94,224,51185,1,0,0:0:0:0:
119,208,51264,5,2,0:0:0:0:
143,190,51344,1,0,0:0:0:0:
161,165,51424,1,8,0:0:0:0:
171,136,51504,1,0,0:0:0:0:
168,106,51583,6,0,P|220:88|280:108,1,120.000004577637,2|0,0:0|0:0,0:0:0:0:
318,137,51903,1,8,0:0:0:0:
364,147,52062,1,0,0:0:0:0:
410,135,52222,5,8,0:0:0:0:
327,250,52381,2,0,P|288:260|250:252,2,80,8|4|0,0:0|0:0|0:0,0:0:0:0:
157,213,52860,6,0,P|145:258|181:320,1,80,8|8,0:0|0:0,0:0:0:0:
227,331,53179,1,10,0:0:0:0:
249,251,53339,1,2,0:0:0:0:
311,188,53498,5,4,0:0:0:0:
330,101,53658,1,0,0:0:0:0:
242,89,53818,1,8,0:0:0:0:
154,79,53977,2,0,L|130:181,1,80,8|2,0:0|0:0,0:0:0:0:
115,242,54296,5,0,0:0:0:0:
201,227,54456,1,2,0:0:0:0:
286,208,54615,1,2,0:0:0:0:
371,185,54775,6,0,L|421:282,3,80,8|2|8|2,0:0|0:2|0:0|0:2,0:0:0:0:
393,175,55413,6,0,L|354:91,3,80,8|8|2|2,0:0|0:0|0:0|0:0,0:0:0:0:
440,65,56052,5,8,0:0:0:0:
308,54,56291,1,8,0:0:0:0:
440,65,56530,1,14,0:0:0:0:
387,135,56690,5,8,0:0:0:0:
312,174,56929,1,8,0:0:0:0:
387,135,57169,1,14,0:0:0:0:
368,216,57328,6,0,L|260:282,1,120.000004577637,2|8,0:0|0:0,0:0:0:0:
177,323,57568,1,0,0:0:0:0:
177,323,57648,5,8,0:0:0:0:
153,229,57807,1,8,0:0:0:0:
190,198,57887,1,0,0:0:0:0:
197,150,57967,5,2,0:0:0:0:
197,54,58126,2,0,P|212:30|265:6,2,60.0000022888184,8|0|8,0:0|0:0|0:0,0:0:0:0:
283,96,58445,1,2,0:0:0:0:
330,103,58525,1,0,0:0:0:0:
375,87,58605,5,8,0:0:0:0:
458,182,58765,1,8,0:0:0:0:
410,188,58844,1,0,0:0:0:0:
367,209,58924,6,0,P|331:214|301:195,1,60.0000022888184,2|0,0:0|0:0,0:0:0:0:
245,254,59084,2,0,P|214:252|159:270,1,60.0000022888184,2|0,0:0|0:0,0:0:0:0:
197,163,59243,6,0,P|152:162|127:146,1,60.0000022888184,8|0,0:0|0:0,0:0:0:0:
73,94,59403,2,0,L|64:34,2,60.0000022888184,0|0|8,0:0|0:0|0:0,0:0:0:0:
89,227,59722,1,0,0:0:0:0:
148,328,59882,6,0,P|202:364|277:355,1,120.000004577637,8|8,0:0|0:0,0:0:0:0:
343,303,60200,2,0,P|402:304|450:338,1,120.000004577637,8|8,0:0|0:0,0:0:0:0:
376,225,60520,6,0,P|348:184|357:98,1,120.000004577637,8|8,0:0|0:0,0:0:0:0:
319,54,60839,2,0,P|307:105|236:152,1,120.000004577637,8|0,0:0|0:0,0:0:0:0:
165,196,61158,5,2,0:0:0:0:
148,178,61238,1,0,0:0:0:0:
140,155,61318,1,8,0:0:0:0:
145,131,61398,1,0,0:0:0:0:
160,113,61477,5,2,0:0:0:0:
175,94,61557,1,0,0:0:0:0:
180,70,61637,1,8,0:0:0:0:
174,46,61717,1,0,0:0:0:0:
159,27,61796,6,0,P|84:31|41:62,1,120.000004577637,2|0,0:0|0:0,0:0:0:0:
18,121,62116,1,8,0:0:0:0:
26,192,62275,1,0,0:0:0:0:
69,248,62435,5,8,0:0:0:0:
116,205,62594,2,0,P|147:189|210:216,2,80,0|8|2,0:0|0:0|0:0,0:0:0:0:
27,318,63073,6,0,P|65:322|123:311,1,80,8|0,0:0|0:0,0:0:0:0:
252,301,63392,1,8,0:0:0:0:
322,317,63552,1,2,0:0:0:0:
387,347,63711,5,8,0:0:0:0:
349,267,63871,1,8,0:0:0:0:
314,185,64031,1,8,0:0:0:0:
270,108,64190,2,0,L|181:129,1,80,8|8,0:0|0:0,0:0:0:0:
106,149,64509,5,8,0:0:0:0:
130,64,64669,1,4,0:0:0:0:
192,126,64828,1,4,0:0:0:0:
248,194,64988,6,0,L|308:288,3,80,8|0|8|0,0:0|0:0|0:0|0:0,0:0:0:0:
331,183,65626,6,0,L|282:103,3,80,8|2|8|8,0:0|0:0|0:0|0:0,0:0:0:0:
377,113,66265,5,2,0:0:0:0:
508,113,66504,1,8,0:0:0:0:
377,113,66743,1,14,0:0:0:0:
405,196,66903,5,10,0:0:0:0:
440,69,67142,1,8,0:0:0:0:
405,196,67382,1,14,0:0:0:0:
371,323,67541,6,0,P|327:273|257:274,1,120.000004577637,2|0,0:0|0:0,0:0:0:0:
182,303,67780,1,0,0:0:0:0:
136,273,67860,6,0,P|115:243|107:214,1,60.0000022888184,8|0,0:0|0:0,0:0:0:0:
138,148,68020,2,0,P|154:113|152:73,1,60.0000022888184,0|0,0:0|0:0,0:0:0:0:
146,8,68179,6,0,L|314:48,1,120.000004577637,0|0,0:0|0:0,0:0:0:0:
382,136,68498,2,0,L|249:105,1,120.000004577637,8|0,0:0|0:0,0:0:0:0:
216,195,68818,6,0,L|340:222,1,120.000004577637,2|0,0:0|0:0,0:0:0:0:
453,241,69057,1,0,0:0:0:0:
433,291,69137,6,0,P|406:321|347:323,1,60.0000022888184,8|0,0:0|0:0,0:0:0:0:
291,312,69297,2,0,P|261:318|235:332,1,60.0000022888184,0|0,0:0|0:0,0:0:0:0:
168,383,69456,6,0,P|125:324|123:244,1,120.000004577637,0|0,0:0|0:0,0:0:0:0:
16,183,69775,2,0,P|39:236|19:292,1,120.000004577637,8|0,0:0|0:0,0:0:0:0:
116,146,70094,6,0,P|160:117|237:140,1,120.000004577637,2|0,0:0|0:0,0:0:0:0:
181,202,70333,1,0,0:0:0:0:
244,261,70413,6,0,P|268:272|313:268,1,60.0000022888184,8|0,0:0|0:0,0:0:0:0:
374,214,70573,2,0,P|398:203|443:207,1,60.0000022888184,8|0,0:0|0:0,0:0:0:0:
512,228,70732,6,0,P|461:195|417:123,1,120.000004577637
416,37,71051,2,0,P|361:14|286:31,1,120.000004577637,8|0,0:0|0:0,0:0:0:0:
135,149,71371,6,0,P|192:167|257:157,1,120.000004577637,2|0,0:0|0:0,0:0:0:0:
333,132,71610,1,0,0:0:0:0:
326,185,71690,6,0,P|336:212|368:231,1,60.0000022888184,8|0,0:0|0:0,0:0:0:0:
444,263,71850,2,0,P|476:275|503:327,1,60.0000022888184
454,373,72009,6,0,L|298:379,1,120.000004577637
157,316,72328,2,0,L|302:312,1,120.000004577637,8|0,0:0|0:0,0:0:0:0:
222,244,72647,6,0,P|189:200|216:144,1,120.000004577637,2|0,0:0|0:0,0:0:0:0:
326,94,72886,1,0,0:0:0:0:
288,54,72966,6,0,P|247:51|202:62,1,60.0000022888184,8|0,0:0|0:0,0:0:0:0:
149,88,73126,2,0,P|125:102|91:105,1,60.0000022888184,0|0,0:0|0:0,0:0:0:0:
0,104,73285,6,0,L|34:269,1,120.000004577637,0|8,0:0|0:0,0:0:0:0:
128,193,73604,2,0,L|94:363,1,120.000004577637,0|0,0:0|0:0,0:0:0:0:
207,275,73924,6,0,L|252:146,1,120.000004577637,2|0,0:0|0:0,0:0:0:0:
288,54,74163,1,0,0:0:0:0:
342,54,74243,6,0,P|365:67|384:100,1,60.0000022888184,8|0,0:0|0:0,0:0:0:0:
410,175,74403,2,0,P|418:204|469:239,1,60.0000022888184
498,283,74562,6,0,P|470:334|407:330,1,120.000004577637
351,226,74881,2,0,L|206:197,1,120.000004577637,8|0,0:0|0:0,0:0:0:0:
141,260,75200,6,0,L|271:289,1,120.000004577637,2|0,0:0|0:0,0:0:0:0:
233,202,75439,1,0,0:0:0:0:
213,151,75519,6,0,P|184:131|172:106,1,60.0000022888184,8|0,0:0|0:0,0:0:0:0:
186,24,75679,2,0,P|152:13|76:22,1,60.0000022888184,0|0,0:0|0:0,0:0:0:0:
50,36,75838,6,0,L|0:144,1,120.000004577637,0|0,0:0|0:0,0:0:0:0:
56,254,76158,2,0,L|106:145,1,120.000004577637,8|0,0:0|0:0,0:0:0:0:
141,58,76477,5,8,0:0:0:0:
213,151,76716,1,8,0:0:0:0:
141,58,76956,1,14,0:0:0:0:
231,57,77115,5,8,0:0:0:0:
213,151,77355,1,8,0:0:0:0:
231,57,77594,1,14,0:0:0:0:
298,100,77754,5,0,0:0:0:0:
299,147,77913,1,0,0:0:0:0:
317,191,78073,1,0,0:0:0:0:
352,222,78232,1,0,0:0:0:0:
397,237,78392,6,0,L|417:316,4,60.0000022888184,0|0|0|0|2,0:0|0:0|0:0|0:0|0:0,0:0:0:0:
441,143,78871,1,2,0:0:0:0:
256,192,79349,12,0,82541,0:0:0:0:
