osu file format v14

[General]
AudioFilename: audio.mp3
AudioLeadIn: 0
PreviewTime: 81697
Countdown: 1
SampleSet: Normal
StackLeniency: 0.7
Mode: 0
LetterboxInBreaks: 0
WidescreenStoryboard: 0

[Editor]
DistanceSpacing: 1.1
BeatDivisor: 4
GridSize: 4
TimelineZoom: 1

[Metadata]
Title:Netoge Haijin Sprechchor
TitleUnicode:ネトゲ廃人シュプレヒコール
Artist:Satsuki Ga Tenkomori
ArtistUnicode:さつき が てんこもり
Creator:Battle
Version:z
Source:
Tags:
BeatmapID:1706725
BeatmapSetID:813821

[Difficulty]
HPDrainRate:6
CircleSize:4
OverallDifficulty:9
ApproachRate:9.6
SliderMultiplier:1.8
SliderTickRate:1

[Events]
//Background and Video events
0,0,"59495901_p0.jpg",0,0
//Break Periods
2,21297,170503
//Storyboard Layer 0 (Background)
//Storyboard Layer 1 (Fail)
//Storyboard Layer 2 (Pass)
//Storyboard Layer 3 (Foreground)
//Storyboard Sound Samples

[TimingPoints]
869,342.857142857143,4,1,1,80,1,0
2069,-200,4,2,1,5,0,0
2240,-76.9230769230769,4,1,1,80,0,0
3611,-66.6666666666667,4,1,1,80,0,0
36092,-200,4,1,1,80,0,0
49121,-100,4,1,1,80,0,0
60092,-200,4,1,1,80,0,0
78949,-100,4,1,1,80,0,0
81778,-100,4,1,1,80,0,1
103292,-200,4,1,1,80,0,1
105092,-100,4,1,1,80,0,0
127292,-200,4,1,1,80,0,0
146149,-100,4,1,1,80,0,0
148978,-100,4,1,1,80,0,1
170921,-100,4,1,1,80,0,0
172126,-100,4,1,1,5,0,0
172297,-55.5555555555556,4,1,1,80,0,0
194240,-66.6666666666667,4,1,1,80,0,1
216178,-100,4,1,1,80,0,0

[Colours]
Combo1 : 213,97,57
Combo2 : 33,116,184
Combo3 : 94,166,253
Combo4 : 255,138,21

[HitObjects]
256,192,11,12,0,2069,0:0:0:0:
363,259,2240,6,0,P|324:294|246:278,1,116.999994644165
295,219,2497,1,0,0:0:0:0:
430,295,2583,2,0,P|402:337|368:355,1,58.4999973220826
388,164,2754,5,0,0:0:0:0:
393,158,2840,1,0,0:0:0:0:
400,152,2926,2,0,L|326:146,1,58.4999973220826
186,37,3097,2,0,P|166:34|142:36,2,29.2499986610413
250,98,3269,1,0,0:0:0:0:
182,165,3354,1,0,0:0:0:0:
242,231,3440,2,0,P|226:262|224:285,1,58.4999973220826
91,371,3611,6,0,P|121:297|76:223,1,135.000005149842
24,152,3869,1,0,0:0:0:0:
25,136,3954,2,0,P|60:106|86:103,1,67.5000025749208
176,325,4126,2,0,P|143:316|121:291,1,67.5000025749208
287,195,4297,6,0,L|203:211,1,67.5000025749208
79,102,4469,2,0,L|163:118,1,67.5000025749208
271,10,4640,2,0,L|187:26,1,67.5000025749208
49,194,4811,6,0,P|114:242|116:310,1,135.000005149842
223,265,5069,1,0,0:0:0:0:
225,283,5154,2,0,P|217:335|203:358,1,67.5000025749208
134,95,5326,6,0,P|115:173|53:201,1,135.000005149842
136,282,5584,1,0,0:0:0:0:
120,291,5669,2,0,P|69:303|42:300,1,67.5000025749208
204,160,5840,5,0,0:0:0:0:
225,156,5926,1,0,0:0:0:0:
311,117,6011,2,0,P|263:168|265:256,1,135.000005149842
299,101,6354,6,0,P|259:137|249:162,1,67.5000025749208
409,209,6526,2,0,B|377:187|357:192|331:196,1,67.5000025749208
292,323,6697,2,0,L|375:312,1,67.5000025749208
108,209,6869,6,0,B|161:193|161:193|253:215,1,135.000005149842
78,308,7126,1,0,0:0:0:0:
94,304,7211,2,0,L|186:282,1,67.5000025749208
323,118,7383,2,0,B|270:134|270:134|178:112,1,135.000005149842
333,30,7640,1,0,0:0:0:0:
331,50,7726,6,0,L|322:124,1,67.5000025749208
469,218,7897,2,0,L|460:150,1,67.5000025749208
250,289,8069,2,0,B|314:263|314:263|395:295,1,135.000005149842
330,372,8326,1,0,0:0:0:0:
304,372,8411,1,0,0:0:0:0:
438,226,8583,6,0,L|353:190,1,67.5000025749208
424,4,8754,2,0,L|443:136,1,135.000005149842
275,159,9011,1,0,0:0:0:0:
293,142,9097,6,0,L|366:86,1,67.5000025749208
173,0,9269,2,0,L|226:40,1,67.5000025749208
172,235,9440,2,0,B|184:171|184:171|124:123,1,135.000005149842
262,365,9697,1,0,0:0:0:0:
266,348,9783,6,0,L|285:272,1,67.5000025749208
168,105,9954,2,0,L|184:170,1,67.5000025749208
436,167,10126,2,0,B|367:185|367:185|276:156,1,135.000005149842
200,5,10383,1,0,0:0:0:0:
225,10,10469,6,0,P|260:57|259:89,1,67.5000025749208
168,105,10640,2,0,P|156:136|131:158,1,67.5000025749208
51,345,10811,2,0,P|99:271|164:265,1,135.000005149842
226,308,11069,1,0,0:0:0:0:
241,325,11154,2,0,P|280:347|324:343,1,67.5000025749208
394,241,11326,5,0,0:0:0:0:
367,243,11411,1,0,0:0:0:0:
309,201,11497,2,0,L|457:194,1,135.000005149842
446,10,11840,5,0,0:0:0:0:
397,19,11925,1,0,0:0:0:0:
348,28,12011,1,0,0:0:0:0:
300,37,12097,1,0,0:0:0:0:
253,53,12183,5,0,0:0:0:0:
289,65,12268,1,0,0:0:0:0:
326,78,12354,1,0,0:0:0:0:
364,91,12440,1,0,0:0:0:0:
393,104,12525,5,0,0:0:0:0:
364,113,12610,1,0,0:0:0:0:
333,123,12696,1,0,0:0:0:0:
303,132,12782,1,0,0:0:0:0:
271,144,12869,5,0,0:0:0:0:
286,151,12954,1,0,0:0:0:0:
303,160,13040,1,0,0:0:0:0:
321,170,13126,1,0,0:0:0:0:
337,179,13211,6,0,L|321:267,1,67.5000025749208
466,109,13383,2,0,L|450:197,1,67.5000025749208
240,116,13554,6,0,L|224:204,1,67.5000025749208
368,8,13726,2,0,L|352:96,1,67.5000025749208
70,18,13897,5,0,0:0:0:0:
95,13,13983,2,0,P|143:81|127:131,1,135.000005149842
77,171,14240,1,0,0:0:0:0:
54,244,14326,1,0,0:0:0:0:
91,315,14411,1,0,0:0:0:0:
174,334,14497,1,0,0:0:0:0:
237,268,14583,6,0,B|296:248|296:248|382:275,1,135.000005149842
257,37,14926,2,0,L|240:179,1,135.000005149842
332,122,15183,1,0,0:0:0:0:
334,101,15269,2,0,P|376:90|424:106,1,67.5000025749208
237,198,15441,2,0,P|203:201|171:190,1,67.5000025749208
403,244,15611,2,0,P|348:287|346:371,1,135.000005149842
119,319,15869,1,0,0:0:0:0:
119,319,15954,6,0,P|184:294|263:323,2,135.000005149842
0,160,16469,2,0,P|65:185|144:156,1,135.000005149842
289,58,16811,1,0,0:0:0:0:
270,52,16896,1,0,0:0:0:0:
256,47,16983,2,0,P|220:50|191:66,1,67.5000025749208
363,149,17154,2,0,L|451:139,1,67.5000025749208
241,175,17326,6,0,P|288:261|273:317,1,135.000005149842
157,264,17583,1,0,0:0:0:0:
182,257,17669,1,0,0:0:0:0:
261,371,17840,1,0,0:0:0:0:
289,71,18011,6,0,P|284:168|243:209,1,135.000005149842
120,91,18268,1,0,0:0:0:0:
145,97,18354,2,0,L|232:119,1,67.5000025749208
70,226,18526,2,0,L|-17:248,1,67.5000025749208
275,308,18697,5,0,0:0:0:0:
196,218,18869,2,0,P|161:317|168:368,1,135.000005149842
45,18,19211,2,0,P|80:117|73:168,1,135.000005149842
273,122,19554,1,0,0:0:0:0:
226,120,19639,1,0,0:0:0:0:
189,92,19725,1,0,0:0:0:0:
262,29,19897,1,0,0:0:0:0:
144,174,20069,6,0,P|109:136|104:102,1,67.5000025749208
216,272,20240,2,0,L|197:367,1,67.5000025749208
197,89,20411,2,0,P|199:37|219:9,1,67.5000025749208
278,218,20582,2,0,L|197:271,1,67.5000025749208
429,80,20754,6,0,L|245:60,1,135.000005149842
353,160,21011,1,0,0:0:0:0:
379,163,21097,1,0,0:0:0:0:
256,192,171012,12,0,172126,0:0:0:0:
78,95,172297,6,0,B|86:135|125:157|125:157|79:175|70:224,1,161.999995056153
261,85,172554,1,0,0:0:0:0:
242,74,172640,2,0,P|168:71|150:86,1,80.9999975280763
246,198,172812,2,0,P|284:208|322:196,1,80.9999975280763
431,32,172983,6,0,B|395:94|395:94|423:185,1,161.999995056153
451,328,173240,1,0,0:0:0:0:
442,305,173326,2,0,P|378:263|334:268,1,80.9999975280763
289,284,173497,1,0,0:0:0:0:
248,204,173583,1,0,0:0:0:0:
325,159,173669,6,0,B|381:159|381:159|424:133|424:133|493:134,1,161.999995056153
259,91,173926,1,0,0:0:0:0:
271,77,174012,2,0,P|305:59|367:72,1,80.9999975280763
357,250,174183,6,0,B|301:250|301:250|258:224|258:224|189:225,1,161.999995056153
128,76,174526,1,0,0:0:0:0:
128,76,174612,1,0,0:0:0:0:
128,76,174697,2,0,P|182:119|187:145,1,80.9999975280763
78,244,174869,2,0,P|24:201|19:175,1,80.9999975280763
96,164,175040,5,0,0:0:0:0:
170,213,175126,1,0,0:0:0:0:
242,265,175212,2,0,P|258:198|251:178,1,80.9999975280763
174,14,175383,2,0,P|158:81|165:101,1,80.9999975280763
245,60,175554,1,0,0:0:0:0:
319,109,175640,1,0,0:0:0:0:
306,197,175726,5,0,0:0:0:0:
226,238,175812,1,0,0:0:0:0:
148,195,175897,1,0,0:0:0:0:
81,254,175983,1,0,0:0:0:0:
101,341,176069,2,0,B|194:339,1,80.9999975280763
231,177,176240,2,0,B|138:175,1,80.9999975280763
96,360,176412,5,0,0:0:0:0:
214,357,176583,1,0,0:0:0:0:
321,261,176754,5,0,0:0:0:0:
156,262,176926,2,0,B|173:214|132:186|132:186|181:154|181:154|128:113|158:31,1,242.999992584229
299,44,177269,6,0,P|245:83|217:76,1,80.9999975280763
69,226,177440,2,0,P|108:218|132:187,1,80.9999975280763
362,316,177612,2,0,P|322:308|298:277,1,80.9999975280763
66,369,177783,6,0,B|115:358|132:322|132:322|148:360|229:367,1,161.999995056153
262,196,178040,1,0,0:0:0:0:
243,206,178126,2,0,P|206:279|217:307,1,80.9999975280763
79,68,178297,2,0,P|116:141|105:169,1,80.9999975280763
6,152,178469,1,0,0:0:0:0:
219,36,178640,1,0,0:0:0:0:
219,36,178726,1,0,0:0:0:0:
219,36,178812,1,0,0:0:0:0:
51,219,178983,6,0,B|118:255|163:221|163:221|232:167|290:217,1,242.999992584229
263,344,179326,2,0,P|228:276|236:240,1,80.9999975280763
346,131,179497,2,0,P|381:199|373:235,1,80.9999975280763
209,371,179669,2,0,P|207:294|230:265,1,80.9999975280763
392,84,179840,6,0,P|393:160|370:189,1,80.9999975280763
311,122,180012,1,0,0:0:0:0:
226,95,180097,1,0,0:0:0:0:
141,65,180183,2,0,P|191:15|220:11,1,80.9999975280763
98,153,180354,2,0,P|52:106|47:72,1,80.9999975280763
124,261,180526,5,0,0:0:0:0:
124,261,180612,1,0,0:0:0:0:
124,261,180697,2,0,P|106:341|103:361,1,80.9999975280763
357,109,180869,5,0,0:0:0:0:
357,109,180955,1,0,0:0:0:0:
357,109,181040,2,0,P|339:29|336:9,1,80.9999975280763
447,348,181212,6,0,P|408:327|328:336,1,80.9999975280763
222,204,181383,2,0,P|274:195|311:172,1,80.9999975280763
440,161,181554,2,0,P|415:217|407:254,1,80.9999975280763
275,383,181726,2,0,P|268:339|243:280,1,80.9999975280763
72,333,181897,5,0,0:0:0:0:
317,134,182069,2,0,B|275:123|275:123|227:137,1,80.9999975280763
70,316,182240,5,0,0:0:0:0:
320,108,182412,2,0,B|278:97|278:97|230:111,1,80.9999975280763
69,297,182583,6,0,B|105:307|105:307|147:296,1,80.9999975280763
323,80,182754,2,0,B|281:69|281:69|233:83,1,80.9999975280763
46,199,182926,6,0,B|108:220|108:220|209:170|209:170|273:189,1,242.999992584229
393,384,183269,6,0,P|352:360|280:363,1,80.9999975280763
107,328,183440,2,0,P|146:320|180:299,1,80.9999975280763
338,166,183612,1,0,0:0:0:0:
338,166,183697,1,0,0:0:0:0:
338,166,183783,2,0,P|319:252|318:283,1,80.9999975280763
102,40,183954,6,0,P|213:110|230:172,1,161.999995056153
21,209,184212,1,0,0:0:0:0:
32,187,184297,2,0,P|83:139|158:139,1,80.9999975280763
155,200,184469,1,0,0:0:0:0:
211,267,184554,1,0,0:0:0:0:
276,327,184640,6,0,B|329:330|329:330|385:298|385:298|481:307,1,161.999995056153
428,210,184897,1,0,0:0:0:0:
407,197,184983,2,0,P|327:214|314:253,1,80.9999975280763
174,150,185154,6,0,B|214:138|244:154|244:154|275:92|364:104,1,161.999995056153
180,325,185497,1,0,0:0:0:0:
180,325,185583,1,0,0:0:0:0:
180,325,185669,2,0,P|200:255|221:222,1,80.9999975280763
62,95,185840,2,0,P|77:132|85:171,1,80.9999975280763
256,127,186012,6,0,P|176:105|149:77,1,80.9999975280763
61,278,186183,1,0,0:0:0:0:
61,278,186269,1,0,0:0:0:0:
61,278,186354,2,0,P|97:261|137:258,1,80.9999975280763
212,309,186526,1,0,0:0:0:0:
297,284,186612,1,0,0:0:0:0:
316,197,186697,5,0,0:0:0:0:
248,137,186783,1,0,0:0:0:0:
165,172,186869,1,0,0:0:0:0:
107,104,186954,1,0,0:0:0:0:
153,27,187040,2,0,P|191:9|249:21,1,80.9999975280763
236,212,187212,2,0,P|195:214|159:196,1,80.9999975280763
376,114,187383,5,0,0:0:0:0:
215,116,187554,1,0,0:0:0:0:
111,286,187726,5,0,0:0:0:0:
272,284,187897,2,0,B|283:274|298:220|298:220|289:295|326:403,1,242.999992584229
387,194,188240,6,0,P|368:158|334:137,1,80.9999975280763
296,36,188412,2,0,P|245:85|242:116,1,80.9999975280763
186,198,188583,2,0,P|135:149|132:118,1,80.9999975280763
78,8,188754,6,0,P|22:73|20:166,1,161.999995056153
41,269,189012,1,0,0:0:0:0:
41,269,189097,2,0,P|133:257|176:252,1,80.9999975280763
242,104,189269,2,0,P|201:98|161:93,1,80.9999975280763
270,264,189440,1,0,0:0:0:0:
199,22,189612,1,0,0:0:0:0:
199,22,189697,1,0,0:0:0:0:
199,22,189783,1,0,0:0:0:0:
369,115,189954,6,0,P|342:182|334:212,1,80.9999975280763
457,272,190126,2,0,P|424:231|409:215,1,40.4999987640381
312,341,190297,2,0,P|355:329|385:321,1,40.4999987640381
243,257,190469,2,0,P|211:360|207:381,1,80.9999975280763
113,132,190640,2,0,P|127:169|138:208,1,80.9999975280763
284,26,190812,6,0,P|269:63|258:102,1,80.9999975280763
341,136,190983,1,0,0:0:0:0:
428,155,191069,1,0,0:0:0:0:
511,185,191154,2,0,P|502:107|488:93,1,80.9999975280763
386,276,191326,2,0,P|420:348|433:366,1,80.9999975280763
291,98,191497,5,0,0:0:0:0:
298,106,191583,1,0,0:0:0:0:
298,106,191669,2,0,P|267:208|270:232,1,80.9999975280763
85,384,191840,5,0,0:0:0:0:
85,384,191926,1,0,0:0:0:0:
85,384,192012,2,0,P|74:344|55:309,1,80.9999975280763
314,295,192183,6,0,P|247:279|205:276,1,80.9999975280763
70,141,192354,2,0,P|109:134|148:123,1,80.9999975280763
308,94,192526,2,0,P|272:185|273:214,1,80.9999975280763
131,320,192697,2,0,P|118:281|97:247,1,80.9999975280763
377,170,192869,5,0,0:0:0:0:
190,59,193040,1,0,0:0:0:0:
190,59,193126,1,0,0:0:0:0:
190,59,193212,1,0,0:0:0:0:
453,293,193383,1,0,0:0:0:0:
334,107,193554,1,0,0:0:0:0:
246,267,193726,5,0,0:0:0:0:
230,266,193812,1,0,0:0:0:0:
174,318,193897,5,0,0:0:0:0:
158,319,193983,1,0,0:0:0:0:
111,254,194069,5,0,0:0:0:0:
95,253,194155,1,0,0:0:0:0:
22,330,194240,6,0,P|13:248|0:194,1,135.000005149842
