osu file format v14

[General]
AudioFilename: audio.mp3
AudioLeadIn: 0
PreviewTime: 71923
Countdown: 0
SampleSet: Soft
StackLeniency: 0.7
Mode: 0
LetterboxInBreaks: 0
WidescreenStoryboard: 1

[Editor]
Bookmarks: 203,6203,15015,16703,18203,27578,30203,33578,34703,36203,40516,42016,45204,54204,57391,63204,66204,69017,72017,78017,81017,82892,84017,90017,93017,96017,99017,102018,108955
DistanceSpacing: 0.9
BeatDivisor: 4
GridSize: 32
TimelineZoom: 1.9

[Metadata]
Title:Hyakka Ryouran Phantasm Aoi-chan ReMIX
TitleUnicode:百花繚乱ファンタズム 葵ちゃんReMIX
Artist:Satou Shizuku
ArtistUnicode:佐藤しずく
Creator:tomatas95
Version:Watashi no Kawaii Kanojo wa Tsundere na dakedenaku Neko?!
Source:鬼ごっこ!ファンディスク
Tags:eroge ALcot Onigokko! Fandisc FD Fan Disk galgame visual novel vn op opening japanese video game Elements Garden Masato jpop j-pop pop Nakayama Seima Iwahashi 浦部 葵 Urabe 南條愛乃 nanjou yoshino
BeatmapID:3622854
BeatmapSetID:1769793

[Difficulty]
HPDrainRate:5.5
CircleSize:4
OverallDifficulty:8.5
ApproachRate:9.2
SliderMultiplier:1.6
SliderTickRate:1

[Events]
//Background and Video events
Video,-950,"erogedaisukidesu.mp4"
0,0,"KurehaNeko.jpg",0,0
//Break Periods
//Storyboard Layer 0 (Background)
//Storyboard Layer 1 (Fail)
//Storyboard Layer 2 (Pass)
//Storyboard Layer 3 (Foreground)
//Storyboard Layer 4 (Overlay)
//Storyboard Sound Samples

[TimingPoints]
203,375.009375234381,4,2,1,50,1,0
203,-142.857142857143,4,2,1,50,0,0
578,-142.857142857143,4,2,1,45,0,0
953,-142.857142857143,4,2,1,50,0,0
1328,-142.857142857143,4,2,1,45,0,0
1515,-142.857142857143,4,2,1,50,0,0
1703,-142.857142857143,4,2,1,55,0,0
1890,-142.857142857143,4,2,1,50,0,0
2078,-142.857142857143,4,2,1,45,0,0
2265,-142.857142857143,4,2,1,50,0,0
2828,-142.857142857143,4,2,1,45,0,0
3015,-142.857142857143,4,2,1,50,0,0
3203,-142.857142857143,4,2,4,55,0,0
3390,-142.857142857143,4,2,1,50,0,0
3578,-142.857142857143,4,2,4,45,0,0
3765,-142.857142857143,4,2,1,50,0,0
3953,-142.857142857143,4,2,4,45,0,0
4140,-142.857142857143,4,2,1,50,0,0
4328,-142.857142857143,4,2,4,45,0,0
4515,-142.857142857143,4,2,4,50,0,0
4609,-142.857142857143,4,2,1,50,0,0
4890,-142.857142857143,4,2,4,55,0,0
6015,-142.857142857143,4,2,4,60,0,0
6203,-62.5,4,2,3,75,0,0
6390,-55.5555555555556,4,2,1,70,0,0
6578,-90.9090909090909,4,2,1,70,0,0
6765,-90.9090909090909,4,2,5,70,0,0
6953,-90.9090909090909,4,2,1,70,0,0
7140,-90.9090909090909,4,2,5,70,0,0
8828,-90.9090909090909,4,2,1,55,0,0
8921,-90.9090909090909,4,2,1,60,0,0
9015,-90.9090909090909,4,2,1,65,0,0
9109,-90.9090909090909,4,2,1,70,0,0
9203,-76.9230769230769,4,2,4,75,0,0
9390,-76.9230769230769,4,2,5,70,0,0
9578,-90.9090909090909,4,2,5,70,0,0
11640,-90.9090909090909,4,2,5,65,0,0
11828,-90.9090909090909,4,2,5,60,0,0
12015,-90.9090909090909,4,2,5,70,0,0
12203,-58.8235294117647,4,2,6,75,0,0
12390,-58.8235294117647,4,2,5,70,0,0
12578,-90.9090909090909,4,2,1,70,0,0
12765,-90.9090909090909,4,2,5,70,0,0
14640,-90.9090909090909,4,2,5,65,0,0
14828,-90.9090909090909,4,2,5,60,0,0
15015,-58.8235294117647,4,2,2,75,0,0
15390,-90.9090909090909,4,2,1,50,0,0
15578,-90.9090909090909,4,2,1,55,0,0
15765,-90.9090909090909,4,2,1,60,0,0
15953,-90.9090909090909,4,2,1,65,0,0
16140,-90.9090909090909,4,2,1,70,0,0
16328,-100,4,2,1,75,0,0
16515,-90.9090909090909,4,2,1,80,0,0
16703,-100,4,2,1,85,0,0
16797,-100,4,2,1,5,0,0
16890,-50,4,2,1,85,0,0
17172,-45.4545454545455,4,2,1,5,0,0
17265,-50,4,2,1,85,0,0
17547,-45.4545454545455,4,2,1,5,0,0
17640,-90.9090909090909,4,2,1,75,0,0
18203,-100,4,2,3,70,0,0
18578,-142.857142857143,4,2,1,5,0,0
18765,-142.857142857143,4,2,1,55,0,0
19328,-142.857142857143,4,2,1,50,0,0
19515,-142.857142857143,4,2,1,55,0,0
20828,-142.857142857143,4,2,1,50,0,0
21203,-142.857142857143,4,2,1,55,0,0
22703,-142.857142857143,4,2,1,50,0,0
23266,-142.857142857143,4,2,5,50,0,0
23453,-142.857142857143,4,2,1,50,0,0
23828,-142.857142857143,4,2,2,45,0,0
24016,-142.857142857143,4,2,5,45,0,0
24203,-111.111111111111,4,2,1,60,0,0
24578,-142.857142857143,4,2,1,55,0,0
25328,-142.857142857143,4,2,2,45,0,0
25703,-142.857142857143,4,2,1,55,0,0
26828,-142.857142857143,4,2,1,50,0,0
27203,-333.333333333334,4,2,1,45,0,0
27484,-45.4545454545455,4,2,1,5,0,0
27578,-52.6315789473684,4,2,3,70,0,0
27953,-333.333333333334,4,2,1,45,0,0
28234,-45.4545454545455,4,2,1,5,0,0
28328,-52.6315789473684,4,2,3,70,0,0
28703,-52.6315789473684,4,2,1,80,0,0
29078,-52.6315789473684,4,2,1,40,0,0
29453,-142.857142857143,4,2,5,50,0,0
29641,-142.857142857143,4,2,5,55,0,0
29828,-142.857142857143,4,2,5,60,0,0
29922,-45.4545454545455,4,2,1,5,0,0
30016,-142.857142857143,4,2,5,65,0,0
30109,-45.4545454545455,4,2,1,5,0,0
30203,-66.6666666666667,4,2,4,75,0,0
30578,-111.111111111111,4,2,5,65,0,0
30953,-99.9999999999999,4,2,5,65,0,0
33016,-99.9999999999999,4,2,5,60,0,0
33203,-333.333333333334,4,2,5,55,0,0
33485,-45.4545454545455,4,2,1,5,0,0
33578,-50,4,2,3,75,0,0
33953,-333.333333333334,4,2,5,55,0,0
34235,-45.4545454545455,4,2,1,5,0,0
34328,-50,4,2,3,75,0,0
34703,-52.6315789473684,4,2,4,80,0,0
35078,-100,4,2,5,65,0,0
35453,-76.9230769230769,4,2,5,65,0,0
35828,-83.3333333333333,4,2,3,75,0,0
36016,-83.3333333333333,4,2,5,65,0,0
36203,-66.6666666666667,4,2,4,80,0,0
36578,-111.111111111111,4,2,5,65,0,0
36953,-100,4,2,5,65,0,0
37328,-99.9999999999999,4,2,5,65,0,0
38078,-99.9999999999999,4,2,5,70,0,0
38828,-99.9999999999999,4,2,5,65,0,0
39016,-99.9999999999999,4,2,5,70,0,0
39203,-76.9230769230769,4,2,1,75,0,0
39578,-100,4,2,5,70,0,0
39953,-76.9230769230769,4,2,5,70,0,0
40516,-58.8235294117647,4,2,3,75,0,0
40891,-71.4285714285714,4,2,5,70,0,0
41079,-71.4285714285714,4,2,5,75,0,0
41829,-71.4285714285714,4,2,5,50,0,0
42016,-66.6666666666667,4,2,5,75,0,0
42391,-100,4,2,5,70,0,0
43516,-76.9230769230769,4,2,1,75,0,0
43891,-100,4,2,5,70,0,0
44454,-100,4,2,5,65,0,0
44829,-100,4,2,5,60,0,0
45204,-66.6666666666667,4,2,3,75,0,0
45579,-111.111111111111,4,2,1,60,0,0
46141,-166.666666666667,4,2,1,55,0,0
46422,-45.4545454545455,4,2,1,5,0,0
46516,-90.9090909090909,4,2,1,60,0,0
46891,-111.111111111111,4,2,1,60,0,0
47829,-166.666666666667,4,2,1,55,0,0
48110,-45.4545454545455,4,2,1,5,0,0
48204,-90.9090909090909,4,2,1,60,0,0
48579,-111.111111111111,4,2,1,60,0,0
48954,-90.9090909090909,4,2,1,60,0,0
49329,-111.111111111111,4,2,1,60,0,0
49516,-90.9090909090909,4,2,1,60,0,0
49891,-111.111111111111,4,2,1,60,0,0
50641,-111.111111111111,4,2,9,50,0,0
50829,-166.666666666667,4,2,9,50,0,0
51110,-45.4545454545455,4,2,1,5,0,0
51204,-90.9090909090909,4,2,1,60,0,0
51579,-111.111111111111,4,2,1,60,0,0
52141,-166.666666666667,4,2,1,55,0,0
52423,-45.4545454545455,4,2,1,5,0,0
52516,-90.9090909090909,4,2,1,60,0,0
52891,-111.111111111111,4,2,1,60,0,0
53829,-111.111111111111,4,2,1,60,0,0
54204,-66.6666666666667,4,2,3,75,0,0
54485,-45.4545454545455,4,2,1,5,0,0
54579,-76.9230769230769,4,2,5,65,0,0
54673,-45.4545454545455,4,2,1,5,0,0
54766,-58.8235294117647,4,2,3,75,0,0
55048,-45.4545454545455,4,2,1,5,0,0
55141,-76.9230769230769,4,2,5,65,0,0
55235,-45.4545454545455,4,2,1,5,0,0
55329,-76.9230769230769,4,2,5,65,0,0
55423,-45.4545454545455,4,2,1,5,0,0
55516,-55.5555555555556,4,2,4,80,0,0
55891,-100,4,2,5,70,0,0
56454,-66.6666666666667,4,2,5,70,0,0
56548,-45.4545454545455,4,2,1,5,0,0
56641,-76.9230769230769,4,2,5,65,0,0
56735,-45.4545454545455,4,2,1,5,0,0
56829,-90.9090909090909,4,2,5,60,0,0
56923,-45.4545454545455,4,2,1,5,0,0
57016,-111.111111111111,4,2,5,55,0,0
57110,-45.4545454545455,4,2,1,5,0,0
57204,-250.000000000001,4,2,5,50,0,0
57485,-45.4545454545455,4,2,1,5,0,0
57579,-55.5555555555556,4,2,3,80,0,0
57954,-76.9230769230769,4,2,3,80,0,0
58141,-250.000000000001,4,2,8,65,0,0
58423,-45.4545454545455,4,2,1,5,0,0
58516,-50,4,2,4,80,0,0
58798,-45.4545454545455,4,2,1,5,0,0
58891,-90.9090909090909,4,2,5,75,0,0
59829,-90.9090909090909,4,2,5,70,0,0
60016,-90.9090909090909,4,2,5,65,0,0
60204,-250.000000000001,4,2,5,60,0,0
60485,-45.4545454545455,4,2,1,5,0,0
60579,-55.5555555555556,4,2,3,80,0,0
60954,-100,4,2,3,80,0,0
61142,-250.000000000001,4,2,8,65,0,0
61423,-45.4545454545455,4,2,1,5,0,0
61517,-55.5555555555556,4,2,4,80,0,0
61798,-45.4545454545455,4,2,1,5,0,0
61892,-83.3333333333333,4,2,5,70,0,0
62267,-83.3333333333333,4,2,5,70,0,0
62829,-100,4,2,5,65,0,0
63017,-100,4,2,5,60,0,0
63204,-55.5555555555556,4,2,3,75,0,0
63579,-100,4,2,5,70,0,0
65829,-100,4,2,1,65,0,0
66204,-55.5555555555556,4,2,1,75,0,0
66485,-45.4545454545455,4,2,1,5,0,0
66579,-100,4,2,5,70,0,0
67704,-100,4,2,5,75,0,0
68454,-100,4,2,5,80,0,0
68642,-250,4,2,8,80,0,0
68923,-45.4545454545455,4,2,1,5,0,0
69017,-66.6666666666667,4,2,3,80,0,0
69298,-45.4545454545455,4,2,1,5,0,0
69392,-55.5555555555556,4,2,1,50,0,0
69579,-55.5555555555556,4,2,1,55,0,0
69767,-55.5555555555556,4,2,1,60,0,0
69954,-55.5555555555556,4,2,1,65,0,0
70142,-55.5555555555556,4,2,1,70,0,0
70329,-55.5555555555556,4,2,1,75,0,0
70517,-55.5555555555556,4,2,1,80,0,0
70704,-125,4,2,1,60,0,0
70892,-125,4,2,1,65,0,0
71079,-125,4,2,1,70,0,0
71267,-100,4,2,1,75,0,0
71454,-100,4,2,1,70,0,0
71642,-100,4,2,1,75,0,0
72017,-47.6190476190476,4,2,6,85,0,1
72392,-90.9090909090909,4,2,5,80,0,1
73517,-90.9090909090909,4,2,4,80,0,1
73704,-90.9090909090909,4,2,5,80,0,1
73892,-90.9090909090909,4,2,4,80,0,1
74079,-90.9090909090909,4,2,5,80,0,1
74267,-90.9090909090909,4,2,4,80,0,1
74454,-90.9090909090909,4,2,5,80,0,1
74642,-90.9090909090909,4,2,4,75,0,1
74829,-90.9090909090909,4,2,5,80,0,1
75017,-52.6315789473684,4,2,4,85,0,1
75392,-90.9090909090909,4,2,5,80,0,1
76517,-90.9090909090909,4,2,4,80,0,1
76704,-90.9090909090909,4,2,5,80,0,1
76892,-90.9090909090909,4,2,5,80,0,1
77267,-76.9230769230769,4,2,4,75,0,1
77454,-76.9230769230769,4,2,5,80,0,1
77642,-90.9090909090909,4,2,5,80,0,1
78017,-58.8235294117647,4,2,3,85,0,1
78392,-90.9090909090909,4,2,3,80,0,1
78579,-90.9090909090909,4,2,8,85,0,1
78767,-90.9090909090909,4,2,5,80,0,1
79329,-90.9090909090909,4,2,8,85,0,1
79517,-90.9090909090909,4,2,5,80,0,1
80079,-90.9090909090909,4,2,8,85,0,1
80267,-90.9090909090909,4,2,5,80,0,1
80455,-90.9090909090909,4,2,8,70,0,1
80642,-83.3333333333333,4,2,8,80,0,1
80830,-83.3333333333333,4,2,5,70,0,1
81017,-62.5,4,2,6,85,0,1
81392,-90.9090909090909,4,2,5,80,0,1
81767,-76.9230769230769,4,2,5,80,0,1
81955,-76.9230769230769,4,2,5,70,0,1
82142,-76.9230769230769,4,2,5,75,0,1
82330,-76.9230769230769,4,2,5,80,0,1
82517,-55.5555555555556,4,2,3,85,0,1
82798,-45.4545454545455,4,2,1,5,0,1
82892,-47.6190476190476,4,2,4,85,0,0
82986,-45.4545454545455,4,2,1,5,0,0
83080,-55.5555555555556,4,2,4,80,0,0
83173,-45.4545454545455,4,2,1,5,0,0
83267,-66.6666666666667,4,2,4,75,0,0
83361,-45.4545454545455,4,2,1,5,0,0
83455,-83.3333333333333,4,2,4,70,0,0
83548,-45.4545454545455,4,2,1,5,0,0
83642,-111.111111111111,4,2,4,65,0,0
83736,-45.4545454545455,4,2,1,5,0,0
83830,-166.666666666667,4,2,4,60,0,0
83923,-45.4545454545455,4,2,1,5,0,0
84017,-52.6315789473684,4,2,6,85,0,1
84392,-90.9090909090909,4,2,5,80,0,1
85517,-90.9090909090909,4,2,4,80,0,1
85704,-90.9090909090909,4,2,5,80,0,1
85892,-90.9090909090909,4,2,4,80,0,1
86079,-90.9090909090909,4,2,5,80,0,1
86267,-90.9090909090909,4,2,4,80,0,1
86454,-90.9090909090909,4,2,5,80,0,1
86642,-90.9090909090909,4,2,4,75,0,1
86830,-90.9090909090909,4,2,5,80,0,1
87017,-52.6315789473684,4,2,4,85,0,1
87392,-90.9090909090909,4,2,5,80,0,1
88517,-50,4,2,3,85,0,1
88798,-50,4,2,1,5,0,1
88892,-50,4,2,3,85,0,1
89080,-50,4,2,8,75,0,1
89173,-50,4,2,1,5,0,1
89267,-50,4,2,3,85,0,1
89548,-50,4,2,1,5,0,1
89642,-50,4,2,3,85,0,1
89830,-45.4545454545455,4,2,8,75,0,1
89923,-45.4545454545455,4,2,1,5,0,1
90017,-45.4545454545455,4,2,4,85,0,1
90299,-45.4545454545455,4,2,1,5,0,1
90392,-90.9090909090909,4,2,6,80,0,1
91424,-45.4545454545455,4,2,1,5,0,1
91517,-50,4,2,4,85,0,1
91892,-90.9090909090909,4,2,6,80,0,1
92924,-45.4545454545455,4,2,1,5,0,1
93017,-71.4285714285714,4,2,3,85,0,1
93392,-71.4285714285714,4,2,1,55,0,1
93580,-71.4285714285714,4,2,1,60,0,1
93767,-71.4285714285714,4,2,1,65,0,1
93955,-71.4285714285714,4,2,1,70,0,1
94142,-71.4285714285714,4,2,1,75,0,1
94330,-71.4285714285714,4,2,1,80,0,1
94424,-45.4545454545455,4,2,1,5,0,1
94517,-71.4285714285714,4,2,1,80,0,1
94611,-45.4545454545455,4,2,1,5,0,1
94705,-71.4285714285714,4,2,1,85,0,1
94892,-62.5,4,2,8,85,0,1
95080,-62.5,4,2,5,60,0,1
95267,-62.5,4,2,8,85,0,1
95642,-62.5,4,2,5,70,0,1
95830,-62.5,4,2,5,75,0,1
96017,-62.5,4,2,5,80,0,0
96299,-62.5,4,2,5,5,0,0
96392,-71.4285714285714,4,2,4,65,0,0
96486,-62.5,4,2,5,5,0,0
96580,-71.4285714285714,4,2,4,65,0,0
96674,-62.5,4,2,5,5,0,0
96767,-52.6315789473684,4,2,3,70,0,0
97049,-62.5,4,2,5,5,0,0
97142,-62.5,4,2,4,70,0,0
97236,-62.5,4,2,5,5,0,0
97330,-62.5,4,2,4,70,0,0
97424,-62.5,4,2,5,5,0,0
97517,-50,4,2,3,75,0,0
97799,-62.5,4,2,5,5,0,0
97892,-55.5555555555556,4,2,4,75,0,0
97986,-62.5,4,2,5,5,0,0
98080,-55.5555555555556,4,2,4,75,0,0
98174,-62.5,4,2,5,5,0,0
98267,-46.5116279069767,4,2,3,80,0,0
98642,-40,4,2,4,70,0,0
98736,-40,4,2,5,70,0,0
98830,-40,4,2,4,70,0,0
99017,-58.8235294117647,4,2,4,75,0,0
99392,-58.8235294117647,4,2,1,50,0,0
99580,-100,4,2,1,55,0,0
99767,-100,4,2,1,60,0,0
99955,-100,4,2,1,65,0,0
100142,-100,4,2,1,70,0,0
100330,-100,4,2,1,75,0,0
100517,-100,4,2,1,80,0,0
100705,-100,4,2,1,85,0,0
100893,-50,4,2,1,85,0,0
101174,-62.5,4,2,5,5,0,0
101268,-50,4,2,1,85,0,0
101549,-62.5,4,2,5,5,0,0
101643,-83.3333333333333,4,2,1,65,0,0
101736,-62.5,4,2,5,5,0,0
101830,-83.3333333333333,4,2,1,70,0,0
101924,-62.5,4,2,5,5,0,0
102018,-200,4,2,3,85,0,0
102205,-200,4,2,5,85,0,0
102580,-200,4,2,5,80,0,0
102955,-200,4,2,5,75,0,0
103330,-200,4,2,5,70,0,0
103705,-200,4,2,5,65,0,0
104080,-200,4,2,5,60,0,0
104455,-200,4,2,5,55,0,0
104830,-200,4,2,5,50,0,0
105205,-200,4,2,5,45,0,0
105580,-200,4,2,5,40,0,0
106330,-200,4,2,5,35,0,0
107080,-200,4,2,5,30,0,0
107455,-200,4,2,5,25,0,0
107830,-200,4,2,5,20,0,0
108205,-200,4,2,5,15,0,0
108580,-200,4,2,5,10,0,0
108955,-100,4,2,5,5,0,0

[Colours]
Combo1 : 250,231,156
Combo2 : 219,250,112
Combo3 : 252,160,252
Combo4 : 143,214,252

[HitObjects]
114,26,203,6,0,B|57:15|67:68|11:55,2,111.999996582031,2|10|2,3:2|0:0|3:2,0:0:0:0:
214,7,1140,1,0,3:0:0:0:
214,7,1328,2,0,L|290:-4,1,55.9999982910157,8|0,0:0|0:0,0:0:0:0:
247,95,1703,2,0,L|180:87,1,55.9999982910157,0|2,3:2|0:0,0:0:0:0:
15,153,2078,5,10,0:0:0:0:
93,124,2265,1,2,0:0:0:0:
103,267,2453,5,2,3:2:0:0:
25,238,2640,1,0,3:0:0:0:
24,380,2828,5,8,0:0:0:0:
109,352,3015,1,2,3:2:0:0:
109,352,3109,1,2,3:2:0:0:
109,352,3203,2,0,L|164:347,1,55.9999982910157,2|2,3:2|0:0,0:0:0:0:
279,384,3578,5,10,0:0:0:0:
253,297,3765,1,2,0:0:0:0:
404,251,3953,5,2,3:2:0:0:
341,317,4140,1,0,3:0:0:0:
227,210,4328,5,10,0:0:0:0:
316,230,4515,1,2,3:2:0:0:
316,230,4703,2,0,P|316:187|310:152,1,55.9999982910157,10|2,0:0|0:0,0:0:0:0:
313,14,5078,5,10,0:0:0:0:
181,75,5265,1,2,0:0:0:0:
233,14,5453,5,2,3:2:0:0:
375,65,5640,1,2,3:2:0:0:
267,110,5828,6,0,L|271:74,1,27.9999991455078,8|8,3:3|3:3,0:0:0:0:
428,128,6015,2,0,L|424:155,1,27.9999991455078,8|8,3:3|3:3,0:0:0:0:
492,342,6203,6,0,B|341:383|411:248|257:288,1,256,6|8,3:2|0:0,0:0:0:0:
110,384,6765,1,2,0:0:0:0:
111,369,6859,1,2,0:0:0:0:
112,354,6953,2,0,L|122:266,1,88.000002685547,0|2,3:2|0:0,0:0:0:0:
209,366,7328,5,10,0:0:0:0:
25,261,7515,1,2,0:0:0:0:
25,261,7609,1,2,0:0:0:0:
25,261,7703,1,2,3:2:0:0:
16,343,7890,5,2,0:0:0:0:
220,271,8078,1,8,0:0:0:0:
112,354,8265,1,2,0:0:0:0:
133,179,8453,2,0,L|122:266,1,88.000002685547,2|0,3:2|0:0,0:0:0:0:
29,50,8828,5,10,0:2:0:0:
56,34,8921,1,2,0:0:0:0:
89,34,9015,1,2,0:0:0:0:
117,50,9109,1,2,0:0:0:0:
131,79,9203,6,0,B|203:68|203:68|214:53|214:53|332:36,1,207.999990478516,6|8,3:2|0:0,0:0:0:0:
512,4,9765,1,2,0:0:0:0:
329,36,9953,1,2,3:2:0:0:
448,173,10140,1,2,0:0:0:0:
428,71,10328,1,8,0:0:0:0:
259,179,10515,1,2,0:0:0:0:
259,179,10609,1,2,0:0:0:0:
259,179,10703,2,0,L|245:77,1,88.000002685547,2|2,3:2|0:0,0:0:0:0:
104,210,11078,5,10,0:0:0:0:
175,158,11265,1,2,0:0:0:0:
176,345,11453,5,2,3:2:0:0:
104,293,11640,1,2,0:0:0:0:
259,179,11828,1,10,0:0:0:0:
464,273,12015,1,8,0:0:0:0:
464,273,12109,1,8,0:0:0:0:
464,273,12203,6,0,B|397:287|367:365|367:365|349:283|291:256,1,272.000005187988,6|8,3:2|0:0,0:0:0:0:
389,135,12765,1,2,0:0:0:0:
389,135,12859,1,2,0:0:0:0:
389,135,12953,2,0,L|378:238,1,88.000002685547,2|2,3:2|0:0,0:0:0:0:
473,381,13328,5,8,0:0:0:0:
261,360,13515,1,2,0:0:0:0:
261,360,13609,1,2,0:0:0:0:
261,360,13703,5,0,3:0:0:0:
368,366,13890,1,2,0:0:0:0:
297,190,14078,5,10,0:2:0:0:
206,195,14265,1,2,0:0:0:0:
130,349,14453,1,2,3:2:0:0:
30,212,14640,1,2,0:0:0:0:
103,61,14828,1,8,0:0:0:0:
256,285,15015,6,0,P|252:171|220:7,1,272.000005187988,6|2,3:2|0:0,0:0:0:0:
374,18,15578,5,2,0:0:0:0:
374,18,15672,1,2,0:0:0:0:
374,18,15765,2,0,L|363:84,1,44.0000013427735,2|0,0:0|0:0,0:0:0:0:
421,184,15953,5,2,0:0:0:0:
421,184,16047,1,2,0:0:0:0:
421,184,16140,2,0,L|369:141,1,44.0000013427735,2|0,0:0|0:0,0:0:0:0:
254,141,16328,5,2,0:0:0:0:
254,141,16422,1,2,0:0:0:0:
254,141,16515,2,0,L|316:117,1,44.0000013427735,2|0,0:0|0:0,0:0:0:0:
445,86,16703,5,10,3:1:0:0:
462,342,16890,2,0,B|389:375|348:307|354:302|361:296|328:221|248:252,1,240,10|0,3:1|0:0,0:0:0:0:
251,347,17265,2,0,B|322:380|363:312|357:307|350:301|383:226|463:257,1,240,10|0,3:1|0:0,0:0:0:0:
470,138,17640,5,10,3:1:0:0:
436,132,17734,1,8,0:0:0:0:
412,113,17828,1,8,0:0:0:0:
401,84,17922,1,8,0:0:0:0:
404,53,18015,1,8,0:0:0:0:
425,28,18109,1,8,0:0:0:0:
481,72,18203,6,0,P|411:89|318:133,1,160,6|0,3:2|0:0,0:0:0:0:
171,169,18765,1,2,0:0:0:0:
261,198,18953,2,0,L|244:74,1,111.999996582031,2|0,0:0|0:0,0:0:0:0:
145,40,19515,6,0,P|140:67|136:95,2,55.9999982910157,2|2|2,0:0|0:0|0:0,0:0:0:0:
32,43,20078,2,0,P|37:70|41:98,1,55.9999982910157,2|0,0:0|0:0,0:0:0:0:
81,188,20453,2,0,P|75:215|71:243,1,55.9999982910157,2|0,0:0|0:0,0:0:0:0:
52,374,20828,1,2,0:0:0:0:
52,374,21016,1,2,0:0:0:0:
133,362,21203,6,0,L|198:355,1,55.9999982910157,2|0,0:0|0:0,0:0:0:0:
286,247,21578,2,0,L|230:252,1,55.9999982910157,2|0,0:0|0:0,0:0:0:0:
152,228,21953,2,0,L|157:283,1,55.9999982910157,2|0,0:0|0:0,0:0:0:0:
266,380,22328,2,0,L|261:325,1,55.9999982910157,2|0,0:0|0:0,0:0:0:0:
104,160,22703,6,0,B|146:183|152:229|152:229|153:183|186:157,1,167.999994873047,2|2,0:0|0:0,0:0:0:0:
184,158,23453,1,2,0:0:0:0:
131,2,23828,1,2,0:0:0:0:
78,86,24016,1,2,0:0:0:0:
78,86,24109,1,2,0:0:0:0:
78,86,24203,6,0,L|227:68,1,143.999995605469,6|0,3:2|0:0,0:0:0:0:
381,49,24766,1,2,0:0:0:0:
315,0,24953,2,0,P|298:51|319:103,1,111.999996582031,2|2,0:0|0:0,0:0:0:0:
453,77,25516,6,0,P|469:76|485:79,2,27.9999991455078,2|2|2,0:0|0:0|3:2,0:0:0:0:
441,0,25891,1,2,3:2:0:0:
389,143,26078,2,0,P|395:171|399:204,1,55.9999982910157,2|0,0:0|0:0,0:0:0:0:
469,267,26453,2,0,P|472:239|478:211,1,55.9999982910157,2|0,0:0|0:0,0:0:0:0:
421,357,26828,5,2,0:0:0:0:
508,367,27016,1,2,0:0:0:0:
337,330,27203,6,0,L|298:337,1,35.9999989013672,2|0,0:2|0:0,0:0:0:0:
233,381,27578,2,0,B|223:333|223:333|230:302|230:302|213:209,1,151.999995941162,6|0,3:1|0:0,0:0:0:0:
0,328,27953,6,0,L|39:335,1,35.9999989013672,2|0,0:2|0:0,0:0:0:0:
104,377,28328,2,0,B|114:329|114:329|107:298|107:298|119:227,1,151.999995941162,6|0,3:1|0:0,0:0:0:0:
191,63,28703,5,8,0:2:0:0:
326,249,28891,1,8,0:2:0:0:
326,249,29453,5,2,0:0:0:0:
261,184,29641,2,0,P|252:168|242:155,3,18.6666660970052,2|2|2|8,0:0|0:0|0:0|0:0,0:0:0:0:
396,182,30016,2,0,P|403:170|411:159,1,27.9999991455078,2|0,0:0|0:0,0:0:0:0:
512,18,30203,6,0,B|489:163|489:163|487:111|436:79,1,240.000009155274,4|10,3:2|0:0,0:0:0:0:
287,60,30766,1,2,0:0:0:0:
364,94,30953,2,0,L|371:5,1,80,2|0,3:2|0:0,0:0:0:0:
201,12,31328,2,0,L|207:91,1,80,10|2,0:0|0:0,0:0:0:0:
209,103,31610,1,2,0:0:0:0:
210,114,31703,5,2,3:2:0:0:
126,217,31891,1,2,0:0:0:0:
9,147,32078,2,0,P|8:103|-2:63,1,80,10|0,0:0|0:0,0:0:0:0:
117,44,32453,2,0,P|108:82|107:122,1,80,2|0,3:2|0:0,0:0:0:0:
43,309,32828,5,10,0:0:0:0:
0,240,33016,1,2,0:0:0:0:
85,377,33203,6,0,L|125:370,1,35.9999989013672,2|0,3:2|0:0,0:0:0:0:
204,379,33578,2,0,B|186:309|186:309|219:225,1,160,6|0,3:1|0:0,0:0:0:0:
427,377,33953,6,0,L|386:370,1,35.9999989013672,2|0,3:2|0:0,0:0:0:0:
308,379,34328,2,0,B|326:309|326:309|293:225,1,160,6|0,3:1|0:0,0:0:0:0:
75,83,34703,6,0,B|189:69|141:149|198:184|252:162|279:145|293:107|269:69|219:69,1,303.999991882324,4|8,3:2|0:0,0:0:0:0:
163,14,35266,1,2,0:0:0:0:
94,160,35453,2,0,L|111:269,1,103.999995239258,2|0,3:2|0:0,0:0:0:0:
228,69,35828,5,6,3:1:0:0:
253,87,35922,1,8,0:0:0:0:
286,83,36016,1,8,0:0:0:0:
308,60,36110,1,8,0:0:0:0:
251,7,36203,6,0,P|271:92|289:254,1,240.000009155274,4|8,3:2|0:0,0:0:0:0:
444,347,36766,1,2,0:0:0:0:
353,362,36953,2,0,P|358:322|368:283,1,80,2|0,3:2|0:0,0:0:0:0:
373,272,37235,5,2,0:0:0:0:
378,260,37328,1,8,0:0:0:0:
467,248,37516,1,2,0:0:0:0:
495,91,37703,1,2,3:2:0:0:
406,79,37891,1,2,0:0:0:0:
289,227,38078,2,0,L|278:128,1,80,10|0,0:0|0:0,0:0:0:0:
152,26,38453,2,0,L|160:105,1,80,2|0,3:2|0:0,0:0:0:0:
70,57,38828,5,10,0:2:0:0:
235,40,39016,1,2,0:0:0:0:
191,184,39203,6,0,B|144:203|98:159|98:159|56:141|-10:189,1,207.999990478516,6|10,3:2|0:0,0:0:0:0:
77,381,39766,1,2,0:0:0:0:
24,324,39953,2,0,B|64:291|66:231|66:231|73:291|130:322,1,207.999990478516,2|8,3:2|0:0,0:0:0:0:
369,304,40516,6,0,B|330:294|296:318|323:319|286:367|260:382|218:389|187:352|187:352|206:317|188:283,1,272.000005187988,6|0,3:2|0:0,0:0:0:0:
110,134,41079,1,10,0:0:0:0:
193,297,41266,1,2,3:2:0:0:
356,211,41454,1,10,3:2:0:0:
272,48,41641,1,10,3:2:0:0:
232,172,41829,1,8,0:0:0:0:
484,32,42016,6,0,P|467:133|455:273,1,240.000009155274,6|2,3:2|0:0,0:0:0:0:
272,372,42579,2,0,P|269:332|265:292,1,80,10|0,0:2|0:0,0:0:0:0:
261,280,42860,1,2,0:0:0:0:
258,267,42954,1,2,0:0:0:0:
363,343,43141,1,0,3:0:0:0:
186,356,43329,1,10,0:0:0:0:
234,190,43516,6,0,B|190:191|163:243|163:243|107:282|32:226,1,207.999990478516,6|0,3:2|3:0,0:0:0:0:
56,26,44079,5,10,0:0:0:0:
83,115,44266,1,2,3:2:0:0:
234,190,44454,5,2,3:2:0:0:
258,101,44641,1,2,0:0:0:0:
466,48,44829,5,10,0:0:0:0:
438,133,45016,1,2,0:0:0:0:
470,379,45204,6,0,B|486:222|486:222|470:274|409:294,1,240.000009155274,6|0,3:2|0:0,0:0:0:0:
321,188,45766,1,2,3:2:0:0:
405,203,45954,1,2,0:0:0:0:
276,324,46141,2,0,L|266:253,1,71.9999978027344,2|0,0:0|0:0,0:0:0:0:
261,240,46516,6,0,B|220:227|190:275|190:275|153:304|106:278,1,176.000005371094,2|2,3:2|0:0,0:0:0:0:
16,269,47079,2,0,P|26:309|27:372,1,71.9999978027344,2|0,0:0|3:0,0:0:0:0:
106,278,47454,2,0,P|109:242|118:207,1,71.9999978027344,2|0,0:0|3:0,0:0:0:0:
28,27,47829,2,0,L|38:102,1,71.9999978027344,2|0,0:0|0:0,0:0:0:0:
38,111,48204,6,0,B|83:127|119:99|119:99|142:58|120:12,1,176.000005371094,2|0,3:2|0:0,0:0:0:0:
300,30,48766,1,2,3:2:0:0:
298,110,48954,2,0,B|251:122|218:90|218:90|199:48|224:4,1,176.000005371094,2|0,0:0|0:0,0:0:0:0:
172,157,49516,6,0,P|186:239|194:335,1,176.000005371094,2|2,3:2|0:0,0:0:0:0:
382,346,50079,2,0,P|384:307|393:261,1,71.9999978027344,2|0,0:0|3:0,0:0:0:0:
295,351,50454,5,2,0:0:0:0:
459,373,50641,1,8,0:0:0:0:
405,198,50829,2,0,B|439:187|439:187|481:208,1,71.9999978027344,8|0,0:0|0:0,0:0:0:0:
483,209,51204,6,0,B|491:154|468:115|468:115|470:67|511:40,1,176.000005371094,2|0,3:2|0:0,0:0:0:0:
310,0,51766,1,2,3:2:0:0:
388,33,51954,1,2,0:0:0:0:
238,104,52141,2,0,L|230:21,1,71.9999978027344,2|0,0:0|0:0,0:0:0:0:
232,19,52516,6,0,B|202:3|157:37|157:37|153:34|153:34|106:70|70:50,1,176.000005371094,2|2,3:2|3:2,0:0:0:0:
29,187,53079,2,0,P|28:142|21:109,1,71.9999978027344,2|0,0:0|3:0,0:0:0:0:
138,216,53454,2,0,P|110:239|79:257,1,71.9999978027344,2|0,0:0|3:0,0:0:0:0:
43,335,53829,2,0,P|81:356|114:367,1,71.9999978027344,2|0,0:0|3:0,0:0:0:0:
389,342,54204,6,0,B|391:297|331:269|299:317|299:317|324:329|329:358,1,180.000006866455,6|0,3:2|0:0,0:0:0:0:
258,384,54579,2,0,L|205:373,1,51.999997619629,2|0,3:2|0:0,0:0:0:0:
67,199,54766,6,0,B|62:147|132:115|169:170|169:170|140:185|135:218,1,204.000003890991,6|0,3:2|0:0,0:0:0:0:
212,232,55141,2,0,L|267:222,1,51.999997619629,2|0,3:2|0:0,0:0:0:0:
317,101,55329,2,0,L|262:91,1,51.999997619629,10|0,0:0|0:0,0:0:0:0:
487,219,55516,6,0,B|416:251|403:329|403:329|405:251|347:202,1,287.999991210938,4|2,3:2|0:0,0:0:0:0:
435,8,56079,1,8,0:0:0:0:
423,172,56266,1,8,0:0:0:0:
423,159,56360,1,8,0:0:0:0:
425,146,56454,6,0,P|423:119|433:80,1,60.0000022888184,2|0,3:2|0:0,0:0:0:0:
303,175,56641,2,0,P|323:191|346:202,1,51.999997619629,2|0,3:2|0:0,0:0:0:0:
347,288,56829,2,0,P|328:300|308:308,1,44.0000013427735,10|0,0:0|0:0,0:0:0:0:
425,355,57016,2,0,P|426:337|424:319,1,35.9999989013672,2|0,0:0|0:0,0:0:0:0:
336,96,57204,6,0,L|288:88,1,48,2|0,0:0|0:0,0:0:0:0:
166,167,57579,6,0,B|138:109|170:40|238:24|238:24|188:66|213:134,1,287.999991210938,6|0,3:2|0:0,0:0:0:0:
235,276,58141,2,0,L|175:267,1,48,6|0,3:2|0:0,0:0:0:0:
12,288,58516,6,0,B|82:316|115:241|109:235|102:230|142:162|214:196,1,240,4|0,3:2|0:0,0:0:0:0:
187,268,58891,1,2,0:0:0:0:
19,126,59079,2,0,P|31:168|36:211,1,88.000002685547,2|0,0:0|3:0,0:0:0:0:
188,25,59454,5,2,0:0:0:0:
103,57,59641,1,0,3:0:0:0:
205,192,59829,5,2,0:0:0:0:
290,160,60016,1,0,3:0:0:0:
404,355,60204,6,0,L|413:295,1,48,2|0,0:0|0:0,0:0:0:0:
225,287,60579,6,0,B|290:335|335:277|335:277|342:242|397:195|449:217|471:258,1,287.999991210938,6|0,3:2|0:0,0:0:0:0:
391,0,61142,2,0,L|383:47,1,48,6|0,3:2|0:0,0:0:0:0:
436,133,61517,6,0,B|393:113|383:46|383:46|352:106|302:113,1,215.999993408203,4|0,3:2|0:0,0:0:0:0:
347,267,61892,2,0,L|366:159,1,95.9999970703126,2|0,3:2|0:0,0:0:0:0:
214,94,62267,2,0,L|198:190,1,95.9999970703126,2|0,3:2|0:0,0:0:0:0:
53,355,62642,5,2,3:2:0:0:
113,213,62829,1,2,0:0:0:0:
200,335,63017,1,2,3:2:0:0:
214,94,63204,6,0,B|206:22|102:-5|65:80|65:80|117:94|122:133,1,287.999991210938,6|0,3:2|0:0,0:0:0:0:
196,217,63767,1,0,3:0:0:0:
195,197,63860,1,0,3:0:0:0:
194,176,63954,1,10,0:0:0:0:
0,233,64142,1,2,0:0:0:0:
44,159,64329,1,2,0:0:0:0:
165,289,64517,1,2,3:2:0:0:
121,363,64704,5,2,3:2:0:0:
243,280,64892,2,0,L|330:272,1,80,2|0,0:0|0:0,0:0:0:0:
489,364,65267,5,2,3:2:0:0:
322,272,65454,1,10,0:0:0:0:
484,172,65642,1,2,0:0:0:0:
432,273,65829,1,0,3:3:0:0:
479,62,66017,1,0,3:3:0:0:
477,50,66110,1,0,3:3:0:0:
475,38,66204,6,0,B|429:18|378:65|378:65|372:62|372:62|322:107|276:88,1,215.999993408203,6|0,3:2|0:0,0:0:0:0:
131,114,66579,2,0,P|131:65|124:27,1,80,10|0,0:0|0:0,0:0:0:0:
90,256,66954,2,0,P|55:276|24:301,1,80,2|0,3:2|0:0,0:0:0:0:
212,133,67329,2,0,P|246:114|278:89,1,80,10|0,0:0|0:0,0:0:0:0:
73,173,67704,2,0,P|39:153|2:138,1,80,2|0,3:2|0:0,0:0:0:0:
228,217,68079,2,0,P|262:238|300:253,1,80,10|0,0:0|0:0,0:0:0:0:
385,342,68454,5,10,0:0:0:0:
473,62,68642,1,10,0:0:0:0:
482,208,69017,6,0,B|406:189|406:189|394:172|394:172|307:152,1,180.000006866455,6|0,3:2|0:0,0:0:0:0:
228,133,69392,1,2,0:0:0:0:
277,57,69579,1,2,0:0:0:0:
379,68,69767,1,2,0:0:0:0:
413,182,69954,1,2,0:0:0:0:
353,306,70142,1,2,0:0:0:0:
207,367,70329,1,2,0:0:0:0:
88,276,70517,1,2,0:0:0:0:
145,89,70704,5,2,3:2:0:0:
145,108,70798,1,2,0:0:0:0:
147,127,70892,1,2,0:0:0:0:
149,147,70986,1,2,0:0:0:0:
151,168,71079,2,0,L|142:221,1,32,2|2,0:0|0:0,0:0:0:0:
138,349,71267,5,6,3:2:0:0:
149,317,71361,1,0,3:0:0:0:
174,296,71454,1,10,0:0:0:0:
205,288,71548,1,2,3:2:0:0:
235,296,71642,1,10,0:0:0:0:
261,317,71736,1,10,0:0:0:0:
274,346,71829,2,0,L|329:337,1,40,10|10,0:0|0:0,0:0:0:0:
459,180,72017,6,0,B|473:97|365:31|295:116|295:116|354:144|342:194,1,335.999989746094,6|2,3:2|0:0,0:0:0:0:
446,370,72579,5,10,0:0:0:0:
464,284,72767,1,2,0:0:0:0:
265,190,72954,5,2,3:2:0:0:
283,276,73142,1,2,0:0:0:0:
68,379,73329,5,8,0:0:0:0:
59,205,73517,2,0,L|46:322,1,88.000002685547,2|0,0:0|3:0,0:0:0:0:
86,75,73892,2,0,L|-8:5,1,88.000002685547,2|8,0:0|0:0,0:0:0:0:
185,163,74267,2,0,L|292:115,1,88.000002685547,2|0,0:0|3:0,0:0:0:0:
183,29,74642,5,2,0:0:0:0:
112,148,74829,1,8,0:0:0:0:
271,369,75017,6,0,B|196:320|193:226|283:142|363:234|312:283,1,303.999991882324,6|2,3:2|0:0,0:0:0:0:
439,365,75579,5,10,0:0:0:0:
409,283,75767,1,2,0:0:0:0:
426,147,75954,5,2,3:2:0:0:
396,65,76142,1,2,0:0:0:0:
464,224,76329,1,10,0:0:0:0:
462,23,76517,6,0,L|286:33,1,176.000005371094,2|2,0:0|0:0,0:0:0:0:
99,33,77079,1,10,0:0:0:0:
180,208,77267,2,0,P|184:104|195:1,1,207.999990478516,2|2,0:0|0:0,0:0:0:0:
42,141,77829,1,10,0:0:0:0:
241,331,78017,6,0,B|173:381|117:312|122:304|127:296|66:237|1:291,1,272.000005187988,6|0,3:2|0:0,0:0:0:0:
57,349,78579,5,6,3:2:0:0:
189,265,78767,1,2,0:0:0:0:
332,187,78954,2,0,L|432:180,1,88.000002685547,2|0,3:2|0:0,0:0:0:0:
63,358,79329,5,6,3:2:0:0:
195,276,79517,1,2,0:0:0:0:
333,199,79704,2,0,L|433:201,1,88.000002685547,2|0,3:2|0:0,0:0:0:0:
71,367,80079,5,6,3:2:0:0:
200,287,80267,1,2,0:0:0:0:
331,210,80455,5,10,3:2:0:0:
80,374,80642,2,0,P|76:322|66:276,1,95.9999970703126,6|0,3:2|3:0,0:0:0:0:
25,88,81017,6,0,B|88:139|146:83|142:76|135:69|190:4|253:50,1,256,6|0,3:2|0:0,0:0:0:0:
73,26,81580,1,10,0:0:0:0:
191,220,81767,2,0,P|197:168|209:118,1,103.999995239258,2|0,0:0|3:0,0:0:0:0:
427,38,82142,5,2,0:0:0:0:
427,38,82330,1,10,0:0:0:0:
494,250,82517,6,0,B|471:205|415:190|372:224|372:224|419:216|450:262,1,215.999993408203,6|0,3:2|0:0,0:0:0:0:
364,380,82892,6,0,L|384:291,1,83.9999974365235,2|0,3:2|0:0,0:0:0:0:
323,77,83080,6,0,L|306:147,1,71.9999978027344,10|0,3:2|0:0,0:0:0:0:
226,356,83267,6,0,L|242:287,1,60.0000022888184,2|0,3:2|0:0,0:0:0:0:
169,150,83455,6,0,L|157:196,1,47.9999985351563,10|0,3:2|0:0,0:0:0:0:
85,343,83642,6,0,L|98:285,1,35.9999989013672,2|0,3:2|0:0,0:0:0:0:
42,200,83830,6,0,L|31:243,1,23.9999992675781,10|0,3:2|0:0,0:0:0:0:
209,83,84017,6,0,B|212:7|108:-39|55:44|55:44|111:62|106:108,1,303.999991882324,6|2,3:2|0:0,0:0:0:0:
8,305,84580,5,10,0:0:0:0:
36,223,84767,1,2,0:0:0:0:
260,246,84955,5,0,3:0:0:0:
234,328,85142,1,2,0:0:0:0:
447,359,85330,5,8,0:0:0:0:
462,192,85517,2,0,P|468:235|472:279,1,88.000002685547,2|0,0:0|3:0,0:0:0:0:
418,47,85892,2,0,P|377:29|338:11,1,88.000002685547,2|10,0:0|0:0,0:0:0:0:
328,183,86267,2,0,P|364:158|399:132,1,88.000002685547,2|0,0:0|3:0,0:0:0:0:
482,106,86642,5,2,0:0:0:0:
256,26,86830,1,8,0:0:0:0:
75,189,87017,6,0,B|23:163|9:92|31:30|85:13|85:13|119:53|106:93,1,303.999991882324,4|2,3:2|0:0,0:0:0:0:
273,235,87580,1,10,0:0:0:0:
86,313,87767,1,2,0:2:0:0:
190,139,87955,1,2,3:2:0:0:
209,343,88142,1,2,0:0:0:0:
75,189,88330,1,8,0:0:0:0:
371,142,88517,6,0,B|299:172|263:98|269:92|275:87|233:21|164:55,1,240,6|0,3:1|0:0,0:0:0:0:
190,139,88892,2,0,B|260:169|296:95|290:89|284:84|326:18|395:52,1,240,2|0,3:1|0:0,0:0:0:0:
415,317,89267,6,0,B|343:347|307:273|313:267|319:262|277:196|208:230,1,240,6|0,3:1|0:0,0:0:0:0:
236,315,89642,2,0,B|306:345|342:271|336:265|330:260|372:194|441:228,1,240,2|0,3:1|0:0,0:0:0:0:
386,48,90017,6,0,B|303:67|303:67|286:95|286:95|141:129,1,264.000008056641,6|0,3:2|0:0,0:0:0:0:
46,205,90392,5,0,3:0:0:0:
24,110,90580,1,10,0:0:0:0:
165,223,90767,5,0,3:0:0:0:
143,128,90955,1,10,0:0:0:0:
41,351,91142,1,0,3:0:0:0:
41,351,91236,1,0,3:0:0:0:
41,351,91330,2,0,P|71:344|105:343,1,44.0000013427735,10|0,0:0|0:0,0:0:0:0:
303,237,91517,6,0,B|237:267|224:367|224:367|222:267|152:212,1,320,4|0,3:2|3:2,0:0:0:0:
242,81,92080,5,10,0:0:0:0:
235,176,92267,1,0,3:0:0:0:
394,33,92455,5,10,0:0:0:0:
385,127,92642,1,0,3:0:0:0:
385,127,92736,1,0,3:0:0:0:
385,127,92830,2,0,L|396:189,1,44.0000013427735,10|0,0:0|0:0,0:0:0:0:
508,366,93017,6,0,B|464:383|412:335|412:335|407:338|407:338|353:288|304:309,1,223.999993164063,6|2,3:2|0:0,0:0:0:0:
164,368,93580,1,2,0:0:0:0:
164,368,93674,1,2,0:0:0:0:
164,368,93767,1,2,0:0:0:0:
184,330,93861,1,2,0:0:0:0:
180,288,93955,1,2,0:0:0:0:
152,255,94049,1,2,0:0:0:0:
130,218,94142,1,2,0:0:0:0:
135,175,94236,1,2,0:0:0:0:
163,143,94330,6,0,B|183:130|183:130|220:134,1,55.9999982910157,2|0,3:2|0:0,0:0:0:0:
103,312,94517,2,0,B|76:314|76:314|46:297,1,55.9999982910157,2|0,3:2|0:0,0:0:0:0:
211,210,94705,5,10,3:2:0:0:
38,44,94892,2,0,P|47:120|48:198,1,128,14|0,3:2|0:0,0:0:0:0:
202,338,95267,2,0,P|204:274|212:210,1,128,4|0,3:2|0:0,0:0:0:0:
171,47,95642,5,0,3:2:0:0:
200,30,95736,1,0,3:2:0:0:
235,37,95830,1,0,3:2:0:0:
257,64,95924,1,0,3:2:0:0:
254,140,96017,6,0,B|300:151|333:89|333:89|382:51|431:80,1,192,6|0,3:2|0:0,0:0:0:0:
390,154,96392,2,0,P|396:183|402:232,1,55.9999982910157,2|0,0:0|0:0,0:0:0:0:
503,102,96580,2,0,P|507:70|513:47,1,55.9999982910157,10|0,0:0|0:0,0:0:0:0:
432,284,96767,6,0,B|384:309|329:251|329:251|264:224|218:269,1,227.999993911743,6|0,3:2|0:0,0:0:0:0:
275,384,97142,2,0,L|287:304,1,64,2|0,0:0|0:0,0:0:0:0:
138,256,97330,2,0,L|147:319,1,64,10|0,0:0|0:0,0:0:0:0:
45,136,97517,6,0,B|78:87|164:108|160:181|160:181|114:169|92:199,1,240,6|0,3:2|0:0,0:0:0:0:
88,377,97892,2,0,B|49:365|49:365|12:385,1,71.9999978027344,2|0,0:0|0:0,0:0:0:0:
208,381,98080,2,0,B|247:369|247:369|284:389,1,71.9999978027344,10|0,0:0|0:0,0:0:0:0:
447,317,98267,6,0,B|463:365|425:400|380:391|355:364|321:309|348:239|446:276|398:150,1,344.000005249024,6|2,3:2|0:0,0:0:0:0:
400,72,98736,1,2,0:0:0:0:
400,72,98830,1,8,0:0:0:0:
509,263,99017,6,0,P|436:236|237:213,1,272.000005187988,4|2,3:2|0:0,0:0:0:0:
36,289,99580,1,2,0:0:0:0:
36,289,99674,1,2,0:0:0:0:
36,289,99767,2,0,P|43:313|47:345,1,40,2|0,0:0|0:0,0:0:0:0:
129,200,99955,1,2,0:0:0:0:
129,200,100049,1,2,0:0:0:0:
129,200,100142,2,0,P|104:194|75:181,1,40,2|0,0:0|0:0,0:0:0:0:
159,325,100330,1,2,0:0:0:0:
159,325,100424,1,2,0:0:0:0:
159,325,100517,2,0,P|176:306|201:287,1,40,2|0,0:0|0:0,0:0:0:0:
367,198,100705,5,2,3:1:0:0:
182,142,100893,2,0,B|201:78|285:67|318:135|318:135|287:154|290:185,1,240,10|0,3:1|0:0,0:0:0:0:
238,368,101268,2,0,B|174:348|163:264|231:231|231:231|250:262|281:259,1,240,10|0,3:1|0:0,0:0:0:0:
356,275,101643,6,0,P|350:304|347:349,1,47.9999985351563,2|0,3:1|0:0,0:0:0:0:
451,311,101830,2,0,P|454:287|458:263,1,47.9999985351563,2|0,3:1|0:0,0:0:0:0:
508,39,102018,6,0,B|441:19|373:42|338:93|336:166|391:212|391:212|455:172|463:97|441:49|402:11|337:-6|277:22|248:75|248:75|220:47|154:36|115:69|115:69|134:116|186:137|236:124|236:124|244:175|211:217|211:217|208:246|226:271|226:271|222:344|130:383|56:345|31:255|80:205|80:205|115:206|121:200,1,1480,4|0,3:2|0:0,0:0:0:0:
