osu file format v14

[General]
AudioFilename: audio.mp3
AudioLeadIn: 0
PreviewTime: 71923
Countdown: 0
SampleSet: Soft
StackLeniency: 0.7
Mode: 0
LetterboxInBreaks: 0
WidescreenStoryboard: 1

[Editor]
Bookmarks: 203,6203,15015,16703,18203,27578,30203,33578,34703,36203,40516,42016,45204,54204,57391,63204,66204,69017,72017,78017,81017,82892,84017,90017,93017,96017,99017,102018,108955
DistanceSpacing: 0.9
BeatDivisor: 4
GridSize: 32
TimelineZoom: 1.2

[Metadata]
Title:Hyakka Ryouran Phantasm Aoi-chan ReMIX
TitleUnicode:百花繚乱ファンタズム 葵ちゃんReMIX
Artist:Satou Shizuku
ArtistUnicode:佐藤しずく
Creator:tomatas95
Version:Normal
Source:鬼ごっこ!ファンディスク
Tags:eroge ALcot Onigokko! Fandisc FD Fan Disk galgame visual novel vn op opening japanese video game Elements Garden Masato jpop j-pop pop Nakayama Seima Iwahashi 浦部 葵 Urabe 南條愛乃 nanjou yoshino
BeatmapID:3992132
BeatmapSetID:1769793

[Difficulty]
HPDrainRate:3
CircleSize:3
OverallDifficulty:4
ApproachRate:5
SliderMultiplier:1.1
SliderTickRate:1

[Events]
//Background and Video events
Video,-950,"erogedaisukidesu.mp4"
0,0,"SaionjiMizugi.jpg",0,0
//Break Periods
//Storyboard Layer 0 (Background)
//Storyboard Layer 1 (Fail)
//Storyboard Layer 2 (Pass)
//Storyboard Layer 3 (Foreground)
//Storyboard Layer 4 (Overlay)
//Storyboard Sound Samples

[TimingPoints]
203,375.009375234381,4,2,1,50,1,0
203,-111.111111111111,4,2,1,50,0,0
578,-111.111111111111,4,2,1,45,0,0
953,-111.111111111111,4,2,1,50,0,0
1328,-111.111111111111,4,2,1,45,0,0
1515,-111.111111111111,4,2,1,50,0,0
1703,-111.111111111111,4,2,1,55,0,0
1890,-111.111111111111,4,2,1,50,0,0
2078,-111.111111111111,4,2,1,45,0,0
2265,-111.111111111111,4,2,1,50,0,0
2828,-111.111111111111,4,2,1,45,0,0
3015,-111.111111111111,4,2,1,50,0,0
3203,-111.111111111111,4,2,4,55,0,0
3390,-111.111111111111,4,2,1,50,0,0
3578,-111.111111111111,4,2,4,45,0,0
3765,-111.111111111111,4,2,1,50,0,0
3953,-111.111111111111,4,2,4,45,0,0
4140,-111.111111111111,4,2,1,50,0,0
4328,-111.111111111111,4,2,4,45,0,0
4515,-111.111111111111,4,2,4,50,0,0
4609,-111.111111111111,4,2,1,50,0,0
4890,-111.111111111111,4,2,4,55,0,0
6015,-111.111111111111,4,2,4,60,0,0
6203,-100,4,2,3,75,0,0
6390,-100,4,2,1,70,0,0
6765,-100,4,2,5,70,0,0
6953,-100,4,2,1,70,0,0
7140,-100,4,2,5,70,0,0
8828,-100,4,2,1,55,0,0
8921,-100,4,2,1,60,0,0
9015,-100,4,2,1,65,0,0
9109,-100,4,2,1,70,0,0
9203,-100,4,2,4,75,0,0
9390,-100,4,2,5,70,0,0
11640,-100,4,2,5,65,0,0
11828,-100,4,2,5,60,0,0
12015,-100,4,2,5,70,0,0
12203,-100,4,2,6,75,0,0
12390,-100,4,2,5,70,0,0
12578,-100,4,2,1,70,0,0
12765,-100,4,2,5,70,0,0
14640,-100,4,2,5,65,0,0
14828,-100,4,2,5,60,0,0
15015,-100,4,2,2,75,0,0
15390,-100,4,2,1,50,0,0
15578,-100,4,2,1,55,0,0
15765,-100,4,2,1,60,0,0
15953,-100,4,2,1,65,0,0
16140,-100,4,2,1,70,0,0
16328,-100,4,2,1,75,0,0
16515,-100,4,2,1,80,0,0
16703,-100,4,2,1,85,0,0
17640,-100,4,2,1,75,0,0
18015,-100,4,2,1,5,0,0
18203,-111.111111111111,4,2,3,70,0,0
18578,-111.111111111111,4,2,1,55,0,0
19328,-111.111111111111,4,2,1,50,0,0
19515,-111.111111111111,4,2,1,55,0,0
20828,-111.111111111111,4,2,1,50,0,0
21203,-111.111111111111,4,2,1,55,0,0
22703,-111.111111111111,4,2,1,50,0,0
23266,-111.111111111111,4,2,5,50,0,0
23453,-111.111111111111,4,2,1,50,0,0
23828,-111.111111111111,4,2,2,45,0,0
24016,-111.111111111111,4,2,5,45,0,0
24203,-111.111111111111,4,2,1,60,0,0
24578,-111.111111111111,4,2,1,55,0,0
25328,-111.111111111111,4,2,2,45,0,0
25703,-111.111111111111,4,2,1,55,0,0
26828,-111.111111111111,4,2,1,50,0,0
27203,-111.111111111111,4,2,1,45,0,0
27578,-100,4,2,3,70,0,0
27953,-100,4,2,1,45,0,0
28328,-100,4,2,3,70,0,0
28703,-100,4,2,1,80,0,0
29078,-100,4,2,1,40,0,0
29453,-100,4,2,5,50,0,0
29641,-100,4,2,5,55,0,0
29828,-100,4,2,5,60,0,0
30016,-100,4,2,5,65,0,0
30203,-100,4,2,4,75,0,0
30578,-100,4,2,5,65,0,0
33016,-100,4,2,5,60,0,0
33203,-100,4,2,5,55,0,0
33578,-100,4,2,3,75,0,0
33953,-100,4,2,5,55,0,0
34328,-100,4,2,3,75,0,0
34703,-100,4,2,4,80,0,0
35078,-100,4,2,5,65,0,0
35828,-100,4,2,3,75,0,0
36016,-100,4,2,5,65,0,0
36203,-100,4,2,4,80,0,0
36578,-100,4,2,5,65,0,0
38078,-100,4,2,5,70,0,0
38828,-100,4,2,5,65,0,0
39016,-100,4,2,5,70,0,0
39203,-100,4,2,1,75,0,0
39578,-100,4,2,5,70,0,0
40516,-100,4,2,3,75,0,0
40891,-100,4,2,5,70,0,0
41079,-100,4,2,5,75,0,0
41829,-100,4,2,5,50,0,0
42016,-100,4,2,5,75,0,0
42391,-100,4,2,5,70,0,0
43516,-100,4,2,1,75,0,0
43891,-100,4,2,5,70,0,0
44454,-100,4,2,5,65,0,0
44829,-100,4,2,5,60,0,0
45204,-100,4,2,3,75,0,0
45579,-100,4,2,1,60,0,0
46141,-100,4,2,1,55,0,0
46516,-100,4,2,1,60,0,0
47829,-100,4,2,1,55,0,0
48204,-100,4,2,1,60,0,0
50641,-100,4,2,9,50,0,0
51204,-100,4,2,1,60,0,0
52141,-100,4,2,1,55,0,0
52516,-100,4,2,1,60,0,0
54204,-100,4,2,3,75,0,0
54579,-100,4,2,5,65,0,0
54766,-100,4,2,3,75,0,0
55141,-100,4,2,5,65,0,0
55516,-100,4,2,4,80,0,0
55891,-100,4,2,5,70,0,0
56641,-100,4,2,5,65,0,0
56829,-100,4,2,5,60,0,0
57016,-100,4,2,5,55,0,0
57204,-100,4,2,5,50,0,0
57391,-100,4,2,5,50,0,0
57579,-100,4,2,3,80,0,0
58141,-100,4,2,8,65,0,0
58516,-100,4,2,4,80,0,0
58891,-100,4,2,5,75,0,0
59829,-100,4,2,5,70,0,0
60016,-100,4,2,5,65,0,0
60204,-100,4,2,5,60,0,0
60579,-100,4,2,3,80,0,0
61141,-100,4,2,8,65,0,0
61516,-100,4,2,4,80,0,0
61892,-100,4,2,5,70,0,0
62829,-100,4,2,5,65,0,0
63017,-100,4,2,5,60,0,0
63204,-100,4,2,3,75,0,0
63579,-100,4,2,5,70,0,0
65829,-100,4,2,1,65,0,0
66204,-100,4,2,1,75,0,0
66579,-100,4,2,5,70,0,0
67704,-100,4,2,5,75,0,0
68454,-100,4,2,5,80,0,0
68642,-100,4,2,8,80,0,0
69017,-100,4,2,3,80,0,0
69392,-100,4,2,1,50,0,0
69579,-100,4,2,1,55,0,0
69767,-100,4,2,1,60,0,0
69954,-100,4,2,1,65,0,0
70142,-100,4,2,1,70,0,0
70329,-100,4,2,1,75,0,0
70517,-100,4,2,1,80,0,0
70704,-100,4,2,1,60,0,0
70892,-100,4,2,1,65,0,0
71079,-100,4,2,1,70,0,0
71267,-100,4,2,1,75,0,0
71454,-100,4,2,1,70,0,0
71642,-100,4,2,1,75,0,0
72017,-90.9090909090909,4,2,6,85,0,1
72392,-90.9090909090909,4,2,5,80,0,1
73517,-90.9090909090909,4,2,4,80,0,1
73704,-90.9090909090909,4,2,5,80,0,1
73892,-90.9090909090909,4,2,4,80,0,1
74079,-90.9090909090909,4,2,5,80,0,1
74267,-90.9090909090909,4,2,4,80,0,1
74454,-90.9090909090909,4,2,5,80,0,1
74642,-90.9090909090909,4,2,4,75,0,1
74829,-90.9090909090909,4,2,5,80,0,1
75017,-90.9090909090909,4,2,4,85,0,1
75392,-90.9090909090909,4,2,5,80,0,1
76517,-90.9090909090909,4,2,4,80,0,1
76704,-90.9090909090909,4,2,5,80,0,1
77267,-90.9090909090909,4,2,4,75,0,1
77454,-90.9090909090909,4,2,5,80,0,1
78017,-90.9090909090909,4,2,3,85,0,1
78392,-90.9090909090909,4,2,3,80,0,1
78579,-90.9090909090909,4,2,8,85,0,1
78767,-90.9090909090909,4,2,5,80,0,1
79329,-90.9090909090909,4,2,8,85,0,1
79517,-90.9090909090909,4,2,5,80,0,1
80079,-90.9090909090909,4,2,8,85,0,1
80267,-90.9090909090909,4,2,5,80,0,1
80455,-90.9090909090909,4,2,8,70,0,1
80642,-90.9090909090909,4,2,8,80,0,1
80830,-90.9090909090909,4,2,5,70,0,1
81017,-90.9090909090909,4,2,6,85,0,1
81392,-90.9090909090909,4,2,5,80,0,1
81955,-90.9090909090909,4,2,5,70,0,1
82142,-90.9090909090909,4,2,5,75,0,1
82330,-90.9090909090909,4,2,5,80,0,1
82517,-90.9090909090909,4,2,3,85,0,1
82892,-100,4,2,4,85,0,0
83080,-100,4,2,4,80,0,0
83267,-100,4,2,4,75,0,0
83455,-100,4,2,4,70,0,0
83642,-100,4,2,4,65,0,0
83830,-100,4,2,4,60,0,0
84017,-90.9090909090909,4,2,6,85,0,1
84392,-90.9090909090909,4,2,5,80,0,1
85517,-90.9090909090909,4,2,4,80,0,1
85704,-90.9090909090909,4,2,5,80,0,1
85892,-90.9090909090909,4,2,4,80,0,1
86079,-90.9090909090909,4,2,5,80,0,1
86267,-90.9090909090909,4,2,4,80,0,1
86454,-90.9090909090909,4,2,5,80,0,1
86642,-90.9090909090909,4,2,4,75,0,1
86830,-90.9090909090909,4,2,5,80,0,1
87017,-90.9090909090909,4,2,4,85,0,1
87392,-90.9090909090909,4,2,5,80,0,1
88517,-90.9090909090909,4,2,3,85,0,1
89080,-90.9090909090909,4,2,8,75,0,1
89267,-90.9090909090909,4,2,3,85,0,1
89830,-90.9090909090909,4,2,8,75,0,1
90017,-90.9090909090909,4,2,4,85,0,1
90392,-90.9090909090909,4,2,6,80,0,1
91517,-90.9090909090909,4,2,4,85,0,1
91892,-90.9090909090909,4,2,6,80,0,1
93017,-90.9090909090909,4,2,3,85,0,1
93392,-90.9090909090909,4,2,1,55,0,1
93580,-90.9090909090909,4,2,1,60,0,1
93767,-90.9090909090909,4,2,1,65,0,1
93955,-90.9090909090909,4,2,1,70,0,1
94142,-90.9090909090909,4,2,1,75,0,1
94330,-90.9090909090909,4,2,1,80,0,1
94705,-90.9090909090909,4,2,1,85,0,1
94892,-90.9090909090909,4,2,8,85,0,1
95080,-90.9090909090909,4,2,5,60,0,1
95267,-90.9090909090909,4,2,8,85,0,1
95642,-90.9090909090909,4,2,5,70,0,1
95830,-90.9090909090909,4,2,5,75,0,1
96017,-100,4,2,5,80,0,0
96392,-100,4,2,4,65,0,0
96767,-100,4,2,3,70,0,0
97142,-100,4,2,4,70,0,0
97517,-100,4,2,3,75,0,0
97892,-100,4,2,4,75,0,0
98267,-100,4,2,3,80,0,0
98642,-100,4,2,4,70,0,0
98736,-100,4,2,5,70,0,0
98830,-100,4,2,4,70,0,0
99017,-100,4,2,4,75,0,0
99392,-100,4,2,1,50,0,0
99580,-100,4,2,1,55,0,0
99767,-100,4,2,1,60,0,0
99955,-100,4,2,1,65,0,0
100142,-100,4,2,1,70,0,0
100330,-100,4,2,1,75,0,0
100517,-100,4,2,1,80,0,0
100705,-100,4,2,1,85,0,0
101643,-100,4,2,1,65,0,0
101830,-100,4,2,1,70,0,0
102018,-100,4,2,3,85,0,0
102205,-100,4,2,5,85,0,0
102580,-100,4,2,5,80,0,0
102955,-100,4,2,5,75,0,0
103330,-100,4,2,5,70,0,0
103705,-100,4,2,5,65,0,0
104080,-100,4,2,5,60,0,0
104455,-100,4,2,5,55,0,0
104830,-100,4,2,5,50,0,0
105205,-100,4,2,5,45,0,0
105580,-100,4,2,5,40,0,0
106330,-100,4,2,5,35,0,0
107080,-100,4,2,5,30,0,0
107455,-100,4,2,5,25,0,0
107830,-100,4,2,5,20,0,0
108205,-100,4,2,5,15,0,0
108580,-100,4,2,5,10,0,0
108955,-100,4,2,5,5,0,0

[Colours]
Combo1 : 250,231,156
Combo2 : 219,250,112
Combo3 : 252,160,252
Combo4 : 143,214,252

[HitObjects]
162,205,6203,6,0,B|201:201|201:201|224:185|224:185|275:185,1,110,6|8,3:2|0:0,0:0:0:0:
308,157,6765,2,0,P|312:108|296:42,1,110,2|2,0:0|0:0,0:0:0:0:
338,18,7328,1,10,0:0:0:0:
338,18,7515,2,0,P|378:45|443:65,1,110,2|2,0:0|0:0,0:0:0:0:
481,84,8078,1,8,0:0:0:0:
434,171,8453,1,2,3:2:0:0:
492,250,8828,1,10,0:2:0:0:
480,348,9203,6,0,P|428:331|363:351,1,110,6|8,3:2|0:0,0:0:0:0:
328,359,9765,2,0,P|316:305|266:259,1,110,2|2,0:0|0:0,0:0:0:0:
253,231,10328,1,8,0:0:0:0:
253,231,10515,2,0,L|268:101,1,110,2|2,0:0|0:0,0:0:0:0:
287,76,11078,1,10,0:0:0:0:
210,13,11453,2,0,L|155:6,1,55,2|2,3:2|0:0,0:0:0:0:
110,28,11828,2,0,L|55:21,1,55,10|8,0:0|0:0,0:0:0:0:
12,46,12203,6,0,P|20:93|23:170,1,110,6|8,3:2|0:0,0:0:0:0:
31,203,12765,2,0,P|23:250|20:327,1,110,2|2,0:0|0:0,0:0:0:0:
53,355,13328,1,8,0:0:0:0:
53,355,13515,1,2,0:0:0:0:
145,319,13890,2,0,L|151:375,2,55,2|10|2,0:0|0:2|0:0,0:0:0:0:
190,298,14453,2,0,L|241:320,2,55,2|2|8,3:2|0:0|0:0,0:0:0:0:
193,248,15015,6,0,B|229:253|266:211|260:216|260:216|288:186|295:146|285:111|285:111|269:41|349:-20|435:33|435:110|409:125,1,440,6|2,3:2|0:0,0:0:0:0:
422,170,16703,1,10,3:1:0:0:
422,170,16890,1,10,3:1:0:0:
491,240,17265,1,10,3:1:0:0:
465,335,17640,2,0,B|431:336|431:336|411:346|411:346|386:336|386:336|338:341,1,110,10|0,3:1|0:0,0:0:0:0:
316,349,18203,5,6,3:2:0:0:
187,369,18765,1,2,0:0:0:0:
187,369,18953,2,0,P|184:320|194:221,1,148.49999546814,2|2,0:0|0:0,0:0:0:0:
202,177,19703,2,0,L|254:183,2,49.4999984893799,2|2|2,0:0|0:0|0:0,0:0:0:0:
147,106,20453,1,2,0:0:0:0:
200,34,20828,6,0,L|252:40,2,49.4999984893799,2|2|2,0:0|0:0|0:0,0:0:0:0:
120,0,21578,1,2,0:0:0:0:
45,42,21953,1,2,0:0:0:0:
50,132,22328,1,2,0:0:0:0:
20,215,22703,2,0,B|51:228|90:209|90:209|120:252|104:297,1,148.49999546814,2|2,0:0|0:0,0:0:0:0:
94,323,23453,1,2,0:0:0:0:
168,371,23828,1,2,0:0:0:0:
245,327,24203,6,0,B|318:304|305:366|388:339,1,148.49999546814,6|2,3:2|0:0,0:0:0:0:
430,350,24953,1,2,0:0:0:0:
463,269,25328,1,2,0:0:0:0:
463,269,25516,2,0,L|533:260,2,49.4999984893799,2|2|2,0:0|3:2|3:2,0:0:0:0:
422,249,26078,1,2,0:0:0:0:
379,170,26453,1,2,0:0:0:0:
450,117,26828,2,0,L|520:126,2,49.4999984893799,2|2|2,0:0|0:0|0:2,0:0:0:0:
392,36,27578,6,0,B|340:49|340:49|269:20,1,110,6|2,3:1|0:2,0:0:0:0:
215,94,28328,2,0,B|252:132|252:132|262:208,1,110,6|8,3:1|0:2,0:0:0:0:
264,237,28891,1,8,0:2:0:0:
0,31,30203,6,0,B|40:31|40:31|60:15|60:15|119:16,1,110,4|10,3:2|0:0,0:0:0:0:
158,20,30766,1,2,0:0:0:0:
158,20,30953,2,0,P|150:71|144:139,1,110,2|10,3:2|0:0,0:0:0:0:
46,139,31703,2,0,P|49:165|53:199,1,55,2|2,3:2|0:0,0:0:0:0:
32,238,32078,1,10,0:0:0:0:
43,336,32453,1,2,3:2:0:0:
134,377,32828,2,0,P|136:349|140:322,1,55,10|2,0:0|0:0,0:0:0:0:
159,276,33203,1,2,3:2:0:0:
223,201,33578,6,0,B|277:183|277:183|340:211,1,110,6|2,3:1|3:2,0:0:0:0:
395,274,34328,1,6,3:1:0:0:
474,214,34703,2,0,B|483:174|483:174|479:149|479:149|490:100,1,110,4|8,3:2|0:0,0:0:0:0:
487,56,35266,1,2,0:0:0:0:
487,56,35453,1,2,3:2:0:0:
394,20,35828,2,0,L|329:12,1,55,6|8,3:1|0:0,0:0:0:0:
294,34,36203,6,0,L|179:19,1,110,4|8,3:2|0:0,0:0:0:0:
140,34,36766,1,2,0:0:0:0:
140,34,36953,1,2,3:2:0:0:
76,110,37328,1,8,0:0:0:0:
76,110,37516,2,0,L|18:102,2,55,2|2|2,0:0|3:2|0:0,0:0:0:0:
112,142,38078,6,0,L|221:155,1,110,10|2,0:0|3:2,0:0:0:0:
315,125,38828,2,0,P|322:159|323:198,1,55,10|2,0:2|0:0,0:0:0:0:
343,224,39203,2,0,P|330:286|328:357,1,110,6|10,3:2|0:0,0:0:0:0:
293,368,39766,1,2,0:0:0:0:
293,368,39953,2,0,P|245:325|184:288,1,110,2|8,3:2|0:0,0:0:0:0:
157,294,40516,1,6,3:2:0:0:
66,328,40891,1,0,0:0:0:0:
66,328,41079,2,0,L|76:386,2,55,10|2|10,0:0|3:2|3:2,0:0:0:0:
24,301,41641,2,0,L|14:246,1,55,10|8,3:2|0:0,0:0:0:0:
17,197,42016,6,0,P|56:214|124:192,1,110,6|2,3:2|0:0,0:0:0:0:
161,171,42579,1,10,0:2:0:0:
254,138,42954,1,2,0:0:0:0:
324,215,43329,1,10,0:0:0:0:
324,215,43516,2,0,L|312:331,1,110,6|0,3:2|3:0,0:0:0:0:
319,378,44079,1,10,0:0:0:0:
319,378,44266,1,2,3:2:0:0:
404,328,44641,2,0,L|409:273,2,55,2|10|2,0:0|0:0|0:0,0:0:0:0:
437,364,45204,5,6,3:2:0:0:
506,233,45766,2,0,L|511:178,1,55,2|2,3:2|0:0,0:0:0:0:
504,129,46141,1,2,0:0:0:0:
482,32,46516,2,0,P|431:51|371:24,1,110,2|2,3:2|0:0,0:0:0:0:
336,10,47079,1,2,0:0:0:0:
249,58,47454,1,2,0:0:0:0:
248,158,47829,1,2,0:0:0:0:
335,209,48204,6,0,P|327:253|322:333,1,110,2|0,3:2|0:0,0:0:0:0:
305,367,48766,1,2,3:2:0:0:
305,367,48954,2,0,P|270:338|204:293,1,110,2|0,0:0|0:0,0:0:0:0:
173,324,49516,1,2,3:2:0:0:
82,355,49891,1,2,0:0:0:0:
82,355,50079,2,0,L|67:241,1,110,2|2,0:0|0:0,0:0:0:0:
63,201,50641,1,8,0:0:0:0:
63,201,50829,1,8,0:0:0:0:
9,117,51204,6,0,B|59:95|59:95|131:128,1,110,2|0,3:2|0:0,0:0:0:0:
162,123,51766,1,2,3:2:0:0:
162,123,51954,2,0,L|168:57,1,55,2|2,0:0|0:0,0:0:0:0:
261,39,52516,2,0,L|249:164,1,110,2|2,3:2|3:2,0:0:0:0:
247,198,53079,1,2,0:0:0:0:
321,263,53454,1,2,0:0:0:0:
415,232,53829,1,2,0:0:0:0:
435,135,54204,6,0,P|427:88|458:30,1,110,6|2,3:2|3:2,0:0:0:0:
414,4,54766,2,0,P|377:34|311:36,1,110,6|2,3:2|3:2,0:0:0:0:
268,26,55329,1,10,0:0:0:0:
268,26,55516,2,0,L|141:13,1,110,4|2,3:2|0:0,0:0:0:0:
114,37,56079,1,8,0:0:0:0:
19,65,56454,2,0,L|12:1,2,55,2|2|10,3:2|3:2|0:0,0:0:0:0:
32,117,57016,1,2,0:0:0:0:
32,117,57204,1,2,0:0:0:0:
14,214,57579,6,0,P|20:252|25:336,1,110,6|0,3:2|0:0,0:0:0:0:
36,371,58141,1,6,3:2:0:0:
134,378,58516,2,0,P|163:353|234:307,1,110,4|2,3:2|0:0,0:0:0:0:
272,313,59079,2,0,L|259:197,1,110,2|2,0:0|0:0,0:0:0:0:
251,159,59641,1,0,3:0:0:0:
251,159,59829,1,2,0:0:0:0:
204,71,60204,1,2,0:0:0:0:
285,14,60579,6,0,B|323:13|323:13|346:24|346:24|399:14,1,110,6|0,3:2|0:0,0:0:0:0:
441,10,61142,1,6,3:2:0:0:
496,92,61517,2,0,P|486:142|478:208,1,110,4|2,3:2|3:2,0:0:0:0:
390,246,62267,2,0,P|383:191|372:137,1,110,2|2,3:2|3:2,0:0:0:0:
332,108,62829,2,0,L|272:100,1,55,2|2,0:0|3:2,0:0:0:0:
227,100,63204,6,0,B|202:134|213:172|213:172|240:215|222:265,1,165,6|0,3:2|3:0,0:0:0:0:
227,306,63954,1,10,0:0:0:0:
303,368,64329,2,0,L|360:360,1,55,2|2,0:0|3:2,0:0:0:0:
411,360,64704,1,2,3:2:0:0:
411,360,64892,1,2,0:0:0:0:
509,358,65267,1,2,3:2:0:0:
509,358,65454,1,10,0:0:0:0:
510,259,65829,2,0,L|455:251,1,55,0|0,3:3|3:3,0:0:0:0:
406,246,66204,6,0,B|408:204|408:204|404:182|404:182|413:126,1,110,6|10,3:2|0:0,0:0:0:0:
425,92,66767,1,2,0:0:0:0:
425,92,66954,1,2,3:2:0:0:
356,20,67329,1,10,0:0:0:0:
264,57,67704,2,0,L|148:45,1,110,2|10,3:2|0:0,0:0:0:0:
62,28,68454,1,10,0:0:0:0:
62,28,68642,1,14,0:0:0:0:
26,120,69017,6,0,P|40:157|48:236,1,110,6|2,3:2|0:0,0:0:0:0:
52,276,69579,2,0,P|21:275|-15:291,2,55,2|2|2,0:0|0:0|0:0,0:0:0:0:
81,316,70142,2,0,P|64:342|60:381,2,55,2|2|2,0:0|0:0|0:0,0:0:0:0:
127,300,70704,1,2,3:2:0:0:
277,329,71267,1,6,3:2:0:0:
277,329,71454,2,0,L|273:385,2,55,10|10|10,0:0|0:0|0:0,0:0:0:0:
309,285,72017,6,0,B|311:237|311:237|316:221|316:221|318:155,1,121.000003692627,6|2,3:2|0:0,0:0:0:0:
288,126,72579,1,10,0:0:0:0:
288,126,72767,2,0,P|250:129|225:121,2,60.5000018463135,2|2|2,0:0|3:2|0:0,0:0:0:0:
316,81,73329,1,8,0:0:0:0:
316,81,73517,1,2,0:0:0:0:
397,8,73892,1,2,0:0:0:0:
501,42,74267,1,2,0:0:0:0:
512,148,74642,2,0,P|504:188|501:217,1,60.5000018463135,2|8,0:0|0:0,0:0:0:0:
488,260,75017,5,6,3:2:0:0:
451,364,75392,1,2,0:0:0:0:
451,364,75579,2,0,L|518:372,2,60.5000018463135,10|2|2,0:0|0:0|3:2,0:0:0:0:
397,373,76142,2,0,L|336:365,1,60.5000018463135,2|8,0:0|0:0,0:0:0:0:
282,369,76517,2,0,P|269:318|296:249,1,121.000003692627,2|2,0:0|0:0,0:0:0:0:
310,207,77079,1,10,0:0:0:0:
310,207,77267,2,0,P|259:192|213:134,1,121.000003692627,2|2,0:0|0:0,0:0:0:0:
238,35,78017,6,0,B|194:37|194:37|170:23|170:23|107:23,1,121.000003692627,6|0,3:2|0:0,0:0:0:0:
72,11,78579,1,6,3:2:0:0:
72,11,78767,2,0,P|81:47|83:79,1,60.5000018463135,2|2,0:0|3:2,0:0:0:0:
16,156,79329,1,6,3:2:0:0:
16,156,79517,2,0,P|7:192|5:224,1,60.5000018463135,2|2,0:0|3:2,0:0:0:0:
74,306,80079,1,6,3:2:0:0:
74,306,80267,2,0,P|83:342|85:374,1,60.5000018463135,2|10,0:0|3:2,0:0:0:0:
137,379,80642,1,6,3:2:0:0:
200,290,81017,6,0,B|263:270|251:323|323:301,1,121.000003692627,6|0,3:2|0:0,0:0:0:0:
358,268,81580,1,10,0:0:0:0:
358,268,81767,2,0,L|339:144,1,121.000003692627,2|2,0:0|0:0,0:0:0:0:
319,103,82330,1,10,0:0:0:0:
319,103,82517,1,6,3:2:0:0:
372,19,82892,2,0,P|412:24|437:16,1,55,2|10,3:2|3:2,0:0:0:0:
468,46,83267,2,0,P|483:83|503:100,1,55,2|10,3:2|3:2,0:0:0:0:
509,140,83642,2,0,P|484:172|479:197,1,55,2|10,3:2|3:2,0:0:0:0:
476,239,84017,5,6,3:2:0:0:
438,338,84392,2,0,L|507:347,2,60.5000018463135,2|10|2,0:0|0:0|0:0,0:0:0:0:
391,365,84955,1,0,3:0:0:0:
391,365,85142,2,0,L|331:357,1,60.5000018463135,2|8,0:0|0:0,0:0:0:0:
276,361,85517,1,2,0:0:0:0:
306,256,85892,1,2,0:0:0:0:
231,178,86267,1,2,0:0:0:0:
124,199,86642,2,0,L|57:208,1,60.5000018463135,2|8,0:0|0:0,0:0:0:0:
9,208,87017,5,4,3:2:0:0:
60,304,87392,2,0,P|30:301|-6:316,2,60.5000018463135,2|10|2,0:0|0:0|0:0,0:0:0:0:
90,348,87955,2,0,P|62:360|38:391,2,60.5000018463135,2|2|8,3:2|0:0|0:0,0:0:0:0:
134,374,88517,1,6,3:1:0:0:
241,380,88892,1,2,3:1:0:0:
300,289,89267,1,6,3:1:0:0:
251,193,89642,2,0,L|259:132,1,60.5000018463135,2|8,3:1|0:0,0:0:0:0:
251,78,90017,6,0,B|194:99|194:99|128:64,1,121.000003692627,6|0,3:2|3:0,0:0:0:0:
106,36,90580,1,10,0:0:0:0:
106,36,90767,1,0,3:0:0:0:
5,77,91142,2,0,L|14:136,1,60.5000018463135,0|10,3:0|0:0,0:0:0:0:
17,191,91517,2,0,P|71:208|141:174,1,121.000003692627,4|0,3:2|3:2,0:0:0:0:
179,207,92080,2,0,P|191:262|255:305,1,121.000003692627,10|10,0:0|0:0,0:0:0:0:
272,344,92642,1,0,3:0:0:0:
379,363,93017,38,0,B|477:343|508:253|523:128|413:45|312:75|298:188|316:209,1,484.000014770508,6|2,3:2|3:2,0:0:0:0:
324,266,94705,1,10,3:2:0:0:
324,266,94892,1,14,3:2:0:0:
236,331,95267,1,4,3:2:0:0:
154,259,95642,2,0,L|162:188,1,60.5000018463135,0|0,3:2|3:2,0:0:0:0:
172,150,96017,6,0,P|174:111|157:21,1,110,6|2,3:2|0:0,0:0:0:0:
206,14,96580,1,10,0:0:0:0:
206,14,96767,2,0,P|238:35|325:65,1,110,6|2,3:2|0:0,0:0:0:0:
354,46,97330,1,10,0:0:0:0:
354,46,97517,1,6,3:2:0:0:
451,63,97892,2,0,L|446:126,1,55,2|10,0:0|0:0,0:0:0:0:
468,162,98267,2,0,L|458:285,1,110,6|2,3:2|0:0,0:0:0:0:
458,325,98830,1,8,0:0:0:0:
458,325,99017,6,0,B|310:414|180:298|180:298|251:230|321:259,1,440,4|2,3:2|0:0,0:0:0:0:
358,262,100705,1,10,3:1:0:0:
358,262,100893,1,10,3:1:0:0:
386,167,101268,1,2,3:1:0:0:
315,94,101643,2,0,L|256:87,1,55,2|2,3:1|3:1,0:0:0:0:
210,85,102018,1,4,3:2:0:0:
256,192,102205,12,0,108955,0:0:0:0:
