osu file format v14

[General]
AudioFilename: audio.mp3
AudioLeadIn: 0
PreviewTime: 71923
Countdown: 0
SampleSet: Soft
StackLeniency: 0.7
Mode: 0
LetterboxInBreaks: 0
WidescreenStoryboard: 1

[Editor]
Bookmarks: 203,6203,15015,16703,18203,27578,30203,33578,34703,36203,40516,42016,45204,54204,57391,63204,66204,69017,72017,78017,81017,82892,84017,90017,93017,96017,99017,102018,108955
DistanceSpacing: 0.9
BeatDivisor: 4
GridSize: 32
TimelineZoom: 1.2

[Metadata]
Title:Hyakka Ryouran Phantasm Aoi-chan ReMIX
TitleUnicode:百花繚乱ファンタズム 葵ちゃんReMIX
Artist:Satou Shizuku
ArtistUnicode:佐藤しずく
Creator:tomatas95
Version:Light Insane
Source:鬼ごっこ!ファンディスク
Tags:eroge ALcot Onigokko! Fandisc FD Fan Disk galgame visual novel vn op opening japanese video game Elements Garden Masato jpop j-pop pop Nakayama Seima Iwahashi 浦部 葵 Urabe 南條愛乃 nanjou yoshino
BeatmapID:3992131
BeatmapSetID:1769793

[Difficulty]
HPDrainRate:4.5
CircleSize:3.6
OverallDifficulty:7.5
ApproachRate:8.3
SliderMultiplier:1.4
SliderTickRate:1

[Events]
//Background and Video events
Video,-950,"erogedaisukidesu.mp4"
0,0,"KurehaDato.jpg",0,0
//Break Periods
//Storyboard Layer 0 (Background)
//Storyboard Layer 1 (Fail)
//Storyboard Layer 2 (Pass)
//Storyboard Layer 3 (Foreground)
//Storyboard Layer 4 (Overlay)
//Storyboard Sound Samples

[TimingPoints]
203,375.009375234381,4,2,1,50,1,0
203,-125,4,2,1,50,0,0
578,-125,4,2,1,45,0,0
953,-125,4,2,1,50,0,0
1328,-125,4,2,1,45,0,0
1515,-125,4,2,1,50,0,0
1703,-125,4,2,1,55,0,0
1890,-125,4,2,1,50,0,0
2078,-125,4,2,1,45,0,0
2265,-125,4,2,1,50,0,0
2828,-125,4,2,1,45,0,0
3015,-125,4,2,1,50,0,0
3203,-125,4,2,4,55,0,0
3390,-125,4,2,1,50,0,0
3578,-125,4,2,4,45,0,0
3765,-125,4,2,1,50,0,0
3953,-125,4,2,4,45,0,0
4140,-125,4,2,1,50,0,0
4328,-125,4,2,4,45,0,0
4515,-125,4,2,4,50,0,0
4609,-125,4,2,1,50,0,0
4890,-125,4,2,4,55,0,0
6015,-125,4,2,4,60,0,0
6203,-90.9090909090909,4,2,3,75,0,0
6390,-90.9090909090909,4,2,1,70,0,0
6578,-100,4,2,1,70,0,0
6765,-100,4,2,5,70,0,0
6953,-100,4,2,1,70,0,0
7140,-100,4,2,5,70,0,0
8828,-100,4,2,1,55,0,0
8921,-100,4,2,1,60,0,0
9015,-100,4,2,1,65,0,0
9109,-100,4,2,1,70,0,0
9203,-100,4,2,4,75,0,0
9390,-100,4,2,5,70,0,0
11640,-100,4,2,5,65,0,0
11828,-100,4,2,5,60,0,0
12015,-100,4,2,5,70,0,0
12203,-90.9090909090909,4,2,6,75,0,0
12390,-90.9090909090909,4,2,5,70,0,0
12578,-100,4,2,1,70,0,0
12765,-100,4,2,5,70,0,0
14640,-100,4,2,5,65,0,0
14828,-100,4,2,5,60,0,0
15015,-111.111111111111,4,2,2,75,0,0
15390,-111.111111111111,4,2,1,50,0,0
15578,-111.111111111111,4,2,1,55,0,0
15765,-111.111111111111,4,2,1,60,0,0
15953,-111.111111111111,4,2,1,65,0,0
16140,-111.111111111111,4,2,1,70,0,0
16328,-111.111111111111,4,2,1,75,0,0
16515,-111.111111111111,4,2,1,80,0,0
16703,-100,4,2,1,85,0,0
17640,-90.9090909090909,4,2,1,75,0,0
18109,-90.9090909090909,4,2,1,5,0,0
18203,-125,4,2,3,70,0,0
18578,-125,4,2,1,55,0,0
19328,-125,4,2,1,50,0,0
19515,-125,4,2,1,55,0,0
20828,-125,4,2,1,50,0,0
21203,-125,4,2,1,55,0,0
22703,-125,4,2,1,50,0,0
23266,-125,4,2,5,50,0,0
23453,-125,4,2,1,50,0,0
23828,-125,4,2,2,45,0,0
24016,-125,4,2,5,45,0,0
24203,-125,4,2,1,60,0,0
24578,-125,4,2,1,55,0,0
25328,-125,4,2,2,45,0,0
25703,-125,4,2,1,55,0,0
26828,-125,4,2,1,50,0,0
27203,-125,4,2,1,45,0,0
27484,-90.9090909090909,4,2,1,5,0,0
27578,-90.9090909090908,4,2,3,70,0,0
27953,-125,4,2,1,45,0,0
28234,-90.9090909090909,4,2,1,5,0,0
28328,-90.9090909090908,4,2,3,70,0,0
28703,-90.9090909090908,4,2,1,80,0,0
29078,-90.9090909090908,4,2,1,40,0,0
29453,-142.857142857143,4,2,5,50,0,0
29641,-142.857142857143,4,2,5,55,0,0
29828,-142.857142857143,4,2,5,60,0,0
30016,-142.857142857143,4,2,5,65,0,0
30203,-111.111111111111,4,2,4,75,0,0
30578,-111.111111111111,4,2,5,65,0,0
33016,-111.111111111111,4,2,5,60,0,0
33203,-125,4,2,5,55,0,0
33485,-90.9090909090909,4,2,1,5,0,0
33578,-90.9090909090909,4,2,3,75,0,0
33953,-125,4,2,5,55,0,0
34235,-90.9090909090909,4,2,1,5,0,0
34328,-90.9090909090909,4,2,3,75,0,0
34703,-90.9090909090909,4,2,4,80,0,0
35078,-100,4,2,5,65,0,0
35735,-90.9090909090909,4,2,1,5,0,0
35828,-100,4,2,3,75,0,0
36016,-100,4,2,5,65,0,0
36203,-90.9090909090909,4,2,4,80,0,0
36578,-100,4,2,5,65,0,0
38078,-100,4,2,5,70,0,0
38828,-100,4,2,5,65,0,0
39016,-100,4,2,5,70,0,0
39203,-100,4,2,1,75,0,0
39578,-100,4,2,5,70,0,0
40516,-90.9090909090909,4,2,3,75,0,0
40891,-100,4,2,5,70,0,0
41079,-100,4,2,5,75,0,0
41641,-125,4,2,5,75,0,0
41829,-125,4,2,5,50,0,0
42016,-100,4,2,5,75,0,0
42391,-100,4,2,5,70,0,0
43516,-90.9090909090909,4,2,1,75,0,0
43891,-100,4,2,5,70,0,0
44454,-100,4,2,5,65,0,0
44829,-100,4,2,5,60,0,0
45204,-111.111111111111,4,2,3,75,0,0
45579,-111.111111111111,4,2,1,60,0,0
46141,-111.111111111111,4,2,1,55,0,0
46422,-90.9090909090909,4,2,1,5,0,0
46516,-111.111111111111,4,2,1,60,0,0
47829,-111.111111111111,4,2,1,55,0,0
48110,-90.9090909090909,4,2,1,5,0,0
48204,-111.111111111111,4,2,1,60,0,0
50641,-111.111111111111,4,2,9,50,0,0
51110,-90.9090909090909,4,2,1,5,0,0
51204,-111.111111111111,4,2,1,60,0,0
52141,-111.111111111111,4,2,1,55,0,0
52423,-90.9090909090909,4,2,1,5,0,0
52516,-111.111111111111,4,2,1,60,0,0
54204,-90.9090909090909,4,2,3,75,0,0
54579,-100,4,2,5,65,0,0
54766,-90.9090909090909,4,2,3,75,0,0
55141,-100,4,2,5,65,0,0
55516,-90.9090909090909,4,2,4,80,0,0
55891,-100,4,2,5,70,0,0
56641,-100,4,2,5,65,0,0
56829,-100,4,2,5,60,0,0
57016,-100,4,2,5,55,0,0
57204,-100,4,2,5,50,0,0
57579,-90.9090909090909,4,2,3,80,0,0
57954,-100,4,2,3,80,0,0
58141,-100,4,2,8,65,0,0
58516,-90.9090909090909,4,2,4,80,0,0
58891,-100,4,2,5,75,0,0
59829,-100,4,2,5,70,0,0
60016,-100,4,2,5,65,0,0
60204,-100,4,2,5,60,0,0
60579,-90.9090909090909,4,2,3,80,0,0
60954,-100,4,2,3,80,0,0
61141,-100,4,2,8,65,0,0
61517,-90.9090909090909,4,2,4,80,0,0
61798,-90.9090909090909,4,2,1,5,0,0
61892,-100,4,2,5,70,0,0
62829,-100,4,2,5,65,0,0
63017,-100,4,2,5,60,0,0
63204,-90.9090909090908,4,2,3,75,0,0
63579,-100,4,2,5,70,0,0
65829,-100,4,2,1,65,0,0
66204,-100,4,2,1,75,0,0
66485,-90.9090909090909,4,2,1,5,0,0
66579,-100,4,2,5,70,0,0
67704,-100,4,2,5,75,0,0
68454,-100,4,2,5,80,0,0
68642,-100,4,2,8,80,0,0
69017,-100,4,2,3,80,0,0
69392,-100,4,2,1,50,0,0
69579,-100,4,2,1,55,0,0
69767,-100,4,2,1,60,0,0
69954,-100,4,2,1,65,0,0
70142,-100,4,2,1,70,0,0
70329,-100,4,2,1,75,0,0
70517,-100,4,2,1,80,0,0
70704,-125,4,2,1,60,0,0
70892,-125,4,2,1,65,0,0
71079,-125,4,2,1,70,0,0
71267,-125,4,2,1,75,0,0
71454,-125,4,2,1,70,0,0
71642,-100,4,2,1,75,0,0
72017,-83.3333333333333,4,2,6,85,0,1
72392,-90.9090909090909,4,2,5,80,0,1
73517,-90.9090909090909,4,2,4,80,0,1
73704,-90.9090909090909,4,2,5,80,0,1
73892,-90.9090909090909,4,2,4,80,0,1
74079,-90.9090909090909,4,2,5,80,0,1
74267,-90.9090909090909,4,2,4,80,0,1
74454,-90.9090909090909,4,2,5,80,0,1
74642,-90.9090909090909,4,2,4,75,0,1
74829,-90.9090909090909,4,2,5,80,0,1
75017,-90.9090909090909,4,2,4,85,0,1
75392,-90.9090909090909,4,2,5,80,0,1
76517,-90.9090909090909,4,2,4,80,0,1
76704,-90.9090909090909,4,2,5,80,0,1
77267,-90.9090909090909,4,2,4,75,0,1
77454,-90.9090909090909,4,2,5,80,0,1
78017,-83.3333333333333,4,2,3,85,0,1
78392,-90.9090909090909,4,2,3,80,0,1
78579,-90.9090909090909,4,2,8,85,0,1
78767,-90.9090909090909,4,2,5,80,0,1
79329,-90.9090909090909,4,2,8,85,0,1
79517,-90.9090909090909,4,2,5,80,0,1
80079,-90.9090909090909,4,2,8,85,0,1
80267,-90.9090909090909,4,2,5,80,0,1
80455,-90.9090909090909,4,2,8,70,0,1
80642,-83.3333333333333,4,2,8,80,0,1
80830,-83.3333333333333,4,2,5,70,0,1
81017,-83.3333333333333,4,2,6,85,0,1
81392,-90.9090909090909,4,2,5,80,0,1
81955,-90.9090909090909,4,2,5,70,0,1
82142,-90.9090909090909,4,2,5,75,0,1
82330,-90.9090909090909,4,2,5,80,0,1
82517,-90.9090909090909,4,2,3,85,0,1
82892,-100,4,2,4,85,0,0
83080,-100,4,2,4,80,0,0
83267,-100,4,2,4,75,0,0
83455,-100,4,2,4,70,0,0
83642,-100,4,2,4,65,0,0
83830,-100,4,2,4,60,0,0
84017,-83.3333333333333,4,2,6,85,0,1
84392,-90.9090909090909,4,2,5,80,0,1
85517,-90.9090909090909,4,2,4,80,0,1
85704,-90.9090909090909,4,2,5,80,0,1
85892,-90.9090909090909,4,2,4,80,0,1
86079,-90.9090909090909,4,2,5,80,0,1
86267,-90.9090909090909,4,2,4,80,0,1
86454,-90.9090909090909,4,2,5,80,0,1
86642,-90.9090909090909,4,2,4,75,0,1
86830,-90.9090909090909,4,2,5,80,0,1
87017,-83.3333333333333,4,2,4,85,0,1
87392,-90.9090909090909,4,2,5,80,0,1
88517,-90.9090909090909,4,2,3,85,0,1
89080,-90.9090909090909,4,2,8,75,0,1
89267,-90.9090909090909,4,2,3,85,0,1
89830,-90.9090909090909,4,2,8,75,0,1
90017,-83.3333333333333,4,2,4,85,0,1
90392,-90.9090909090909,4,2,6,80,0,1
91517,-90.9090909090909,4,2,4,85,0,1
91892,-90.9090909090909,4,2,6,80,0,1
92924,-90.9090909090909,4,2,6,5,0,1
93017,-111.111111111111,4,2,3,85,0,1
93392,-111.111111111111,4,2,1,55,0,1
93580,-111.111111111111,4,2,1,60,0,1
93767,-111.111111111111,4,2,1,65,0,1
93955,-111.111111111111,4,2,1,70,0,1
94142,-111.111111111111,4,2,1,75,0,1
94330,-111.111111111111,4,2,1,80,0,1
94424,-90.9090909090909,4,2,6,5,0,1
94517,-111.111111111111,4,2,1,80,0,1
94611,-90.9090909090909,4,2,6,5,0,1
94705,-111.111111111111,4,2,1,85,0,1
94892,-99.9999999999999,4,2,8,85,0,1
95080,-99.9999999999999,4,2,5,60,0,1
95267,-99.9999999999999,4,2,8,85,0,1
95642,-99.9999999999999,4,2,5,70,0,1
95830,-99.9999999999999,4,2,5,75,0,1
96017,-100,4,2,5,80,0,0
96392,-100,4,2,4,65,0,0
96767,-100,4,2,3,70,0,0
97142,-100,4,2,4,70,0,0
97517,-100,4,2,3,75,0,0
97892,-100,4,2,4,75,0,0
98267,-100,4,2,3,80,0,0
98642,-100,4,2,4,70,0,0
98736,-100,4,2,5,70,0,0
98830,-100,4,2,4,70,0,0
99017,-111.111111111111,4,2,4,75,0,0
99392,-111.111111111111,4,2,1,50,0,0
99580,-111.111111111111,4,2,1,55,0,0
99767,-111.111111111111,4,2,1,60,0,0
99955,-111.111111111111,4,2,1,65,0,0
100142,-111.111111111111,4,2,1,70,0,0
100330,-111.111111111111,4,2,1,75,0,0
100517,-111.111111111111,4,2,1,80,0,0
100705,-111.111111111111,4,2,1,85,0,0
101643,-111.111111111111,4,2,1,65,0,0
101830,-111.111111111111,4,2,1,70,0,0
102018,-100,4,2,3,85,0,0
102205,-100,4,2,5,85,0,0
102580,-100,4,2,5,80,0,0
102955,-100,4,2,5,75,0,0
103330,-100,4,2,5,70,0,0
103705,-100,4,2,5,65,0,0
104080,-100,4,2,5,60,0,0
104455,-100,4,2,5,55,0,0
104830,-100,4,2,5,50,0,0
105205,-100,4,2,5,45,0,0
105580,-100,4,2,5,40,0,0
106330,-100,4,2,5,35,0,0
107080,-100,4,2,5,30,0,0
107455,-100,4,2,5,25,0,0
107830,-100,4,2,5,20,0,0
108205,-100,4,2,5,15,0,0
108580,-100,4,2,5,10,0,0
108955,-100,4,2,5,5,0,0

[Colours]
Combo1 : 250,231,156
Combo2 : 219,250,112
Combo3 : 252,160,252
Combo4 : 143,214,252

[HitObjects]
105,50,203,6,0,P|58:42|-11:36,2,112,2|10|2,3:2|0:0|3:2,0:0:0:0:
199,18,1140,1,0,3:0:0:0:
199,18,1328,1,8,0:0:0:0:
274,77,1515,6,0,P|266:131|259:211,1,112,2|2,3:2|0:0,0:0:0:0:
168,186,2078,2,0,P|165:158|161:130,1,56,10|2,0:0|0:0,0:0:0:0:
80,193,2453,2,0,P|78:180|77:166,2,28,2|0|0,3:2|3:0|3:0,0:0:0:0:
128,272,2828,1,8,0:0:0:0:
128,272,3015,1,2,3:2:0:0:
37,279,3203,6,0,B|40:346|40:346|65:365|103:351,2,112,2|10|2,3:2|0:0|3:2,0:0:0:0:
128,272,4140,1,0,3:0:0:0:
177,357,4328,2,0,P|208:351|253:361,1,56,10|2,0:0|3:2,0:0:0:0:
394,361,4703,6,0,P|363:355|318:365,1,56,10|2,0:0|0:0,0:0:0:0:
206,257,5078,1,10,0:0:0:0:
206,257,5265,1,2,0:0:0:0:
374,255,5453,1,2,3:2:0:0:
374,255,5640,1,2,3:2:0:0:
289,295,5828,5,8,3:3:0:0:
288,276,5921,1,8,3:3:0:0:
287,258,6015,1,8,3:3:0:0:
286,239,6109,1,8,3:3:0:0:
285,221,6203,6,0,B|276:176|276:176|281:143|281:143|263:67,1,154.000004699707,6|8,3:2|0:0,0:0:0:0:
429,29,6765,1,2,0:0:0:0:
352,83,6953,2,0,P|347:48|339:14,1,70,2|0,3:2|0:0,0:0:0:0:
512,84,7328,1,10,0:0:0:0:
512,84,7515,1,2,0:0:0:0:
466,170,7703,6,0,P|462:212|459:325,1,140,2|8,3:2|0:0,0:0:0:0:
297,353,8265,1,2,0:0:0:0:
371,316,8453,2,0,B|382:346|382:346|379:383,1,70,2|0,3:2|0:0,0:0:0:0:
219,384,8828,2,0,B|212:347|212:347|221:315,1,70,10|2,0:2|0:0,0:0:0:0:
228,307,9109,1,2,0:0:0:0:
230,296,9203,6,0,L|218:144,1,140,6|8,3:2|0:0,0:0:0:0:
297,46,9765,2,0,B|260:54|230:27|230:27|196:14|147:35,1,140,2|2,0:0|0:0,0:0:0:0:
8,76,10328,1,8,0:0:0:0:
46,0,10515,6,0,P|88:50|63:141,1,140,2|2,0:0|0:0,0:0:0:0:
34,267,11078,1,10,0:0:0:0:
10,181,11265,1,2,0:0:0:0:
161,146,11453,1,2,3:2:0:0:
183,233,11640,1,2,0:0:0:0:
99,210,11828,1,10,0:0:0:0:
36,356,12015,1,8,0:0:0:0:
36,356,12109,1,8,0:0:0:0:
36,356,12203,6,0,B|86:353|86:353|109:371|109:371|183:355,1,154.000004699707,6|8,3:2|0:0,0:0:0:0:
363,325,12765,1,2,0:0:0:0:
265,305,12953,2,0,L|277:375,1,70,2|0,3:2|0:0,0:0:0:0:
332,244,13328,1,10,0:0:0:0:
332,244,13515,1,2,0:0:0:0:
468,375,13703,6,0,P|470:305|482:228,1,140,0|10,3:0|0:2,0:0:0:0:
457,55,14265,1,2,0:0:0:0:
387,179,14453,1,2,3:2:0:0:
442,48,14640,1,2,0:0:0:0:
372,172,14828,1,10,0:2:0:0:
349,20,15015,6,0,L|200:42,1,125.999996154785,6|2,3:2|0:0,0:0:0:0:
215,42,15484,1,2,0:0:0:0:
211,50,15578,2,0,L|220:95,3,31.4999990386963,2|2|2|2,0:0|0:0|0:0|0:0,0:0:0:0:
128,116,15953,2,0,L|121:85,3,31.4999990386963,2|2|2|2,0:0|0:0|0:0|0:0,0:0:0:0:
38,151,16328,1,2,0:0:0:0:
38,151,16422,1,2,0:0:0:0:
38,151,16515,2,0,L|31:120,1,31.4999990386963,0|2,0:0|0:0,0:0:0:0:
52,33,16703,5,2,3:1:0:0:
218,80,16890,1,10,3:1:0:0:
191,236,17265,1,10,3:1:0:0:
10,240,17640,6,0,B|58:205|94:254|94:254|60:310|87:362,1,192.500005874634,10|0,3:1|0:0,0:0:0:0:
80,345,18203,6,0,B|171:375|155:296|239:323,1,168,6|2,3:2|0:0,0:0:0:0:
317,374,18953,1,2,0:0:0:0:
495,358,19515,6,0,L|482:289,2,56,2|2|2,0:0|0:0|0:0,0:0:0:0:
408,372,20078,2,0,L|395:303,1,56,2|0,0:0|0:0,0:0:0:0:
430,234,20453,1,2,0:0:0:0:
397,24,20828,5,2,0:0:0:0:
397,24,21016,1,2,0:0:0:0:
329,78,21203,6,0,L|268:67,1,56,2|0,0:0|0:0,0:0:0:0:
178,137,21578,2,0,L|123:128,1,56,2|0,0:0|0:0,0:0:0:0:
251,206,21953,2,0,L|262:145,1,56,2|0,0:0|0:0,0:0:0:0:
191,55,22328,2,0,L|201:0,1,56,2|0,0:0|0:0,0:0:0:0:
60,0,22703,6,0,L|28:174,1,168,2|2,0:0|0:0,0:0:0:0:
16,257,23453,1,2,0:0:0:0:
157,296,23828,2,0,L|167:240,1,56,2|0,0:0|0:0,0:0:0:0:
38,346,24203,6,0,B|112:320|95:405|193:373,1,168,4|2,3:2|0:0,0:0:0:0:
241,303,24953,1,2,0:0:0:0:
153,157,25516,1,2,0:0:0:0:
153,157,25703,6,0,L|89:165,1,56,2|2,3:2|3:2,0:0:0:0:
60,77,26078,2,0,L|170:63,1,112,2|2,0:2|0:2,0:0:0:0:
314,35,26828,1,2,0:0:0:0:
314,35,27016,1,2,0:0:0:0:
407,79,27203,6,0,P|403:115|401:175,1,84,2|0,0:2|0:0,0:0:0:0:
401,174,27578,2,0,B|440:166|440:166|481:185,1,77.0000023498536,6|0,3:1|0:0,0:0:0:0:
389,353,27953,6,0,P|390:311|395:269,1,84,2|0,0:2|0:0,0:0:0:0:
395,257,28328,2,0,B|432:271|432:271|475:260,1,77.0000023498536,6|0,3:1|0:0,0:0:0:0:
325,205,28703,5,8,0:2:0:0:
493,97,28891,1,8,0:2:0:0:
493,97,29453,6,0,L|484:30,1,48.9999985046387,2|2,0:0|0:0,0:0:0:0:
484,41,29734,1,0,3:0:0:0:
482,33,29828,1,8,0:0:0:0:
323,67,30016,1,2,0:0:0:0:
370,0,30203,6,0,P|404:49|395:110,1,125.999996154785,4|10,3:2|0:0,0:0:0:0:
321,234,30766,1,2,0:0:0:0:
237,227,30953,2,0,P|264:171|321:149,1,125.999996154785,2|10,3:2|0:0,0:0:0:0:
376,299,31516,1,2,0:0:0:0:
487,204,31703,5,2,3:2:0:0:
459,283,31891,1,2,0:0:0:0:
409,157,32078,2,0,L|401:229,1,62.9999980773926,10|0,0:0|0:0,0:0:0:0:
452,345,32453,2,0,L|458:282,1,62.9999980773926,2|0,3:2|0:0,0:0:0:0:
267,330,32828,5,10,0:0:0:0:
267,330,33016,1,2,0:0:0:0:
175,373,33203,6,0,L|75:363,1,84,2|0,3:2|0:0,0:0:0:0:
79,364,33578,2,0,B|83:321|83:321|65:284,1,77.0000023498536,6|0,3:1|0:0,0:0:0:0:
126,157,33953,6,0,L|26:147,1,84,2|0,3:2|0:0,0:0:0:0:
31,146,34328,2,0,B|19:187|19:187|30:227,1,77.0000023498536,6|0,3:1|0:0,0:0:0:0:
9,45,34703,6,0,L|162:60,1,154.000004699707,4|8,3:2|0:0,0:0:0:0:
327,48,35266,1,2,0:0:0:0:
249,106,35453,2,0,L|242:36,1,70,2|0,3:2|0:0,0:0:0:0:
290,194,35828,1,6,3:1:0:0:
173,247,36016,1,8,0:0:0:0:
173,247,36110,1,8,0:0:0:0:
173,247,36203,6,0,B|242:223|226:302|317:272,1,154.000004699707,4|8,3:2|0:0,0:0:0:0:
488,255,36766,1,2,0:0:0:0:
415,371,36953,2,0,L|399:233,1,140,2|8,3:2|0:0,0:0:0:0:
490,74,37516,1,2,0:0:0:0:
363,86,37703,5,2,3:2:0:0:
433,143,37891,1,2,0:0:0:0:
420,17,38078,2,0,L|340:6,1,70,10|0,0:0|0:0,0:0:0:0:
433,143,38453,2,0,L|502:152,1,70,2|0,3:2|0:0,0:0:0:0:
278,118,38828,5,10,0:2:0:0:
349,176,39016,1,2,0:0:0:0:
267,28,39203,6,0,B|221:26|221:26|196:6|196:6|117:9,1,140,6|10,3:2|0:0,0:0:0:0:
50,12,39766,1,2,0:0:0:0:
78,220,39953,2,0,P|79:177|95:78,1,140,2|8,3:2|0:0,0:0:0:0:
2,288,40516,6,0,B|44:286|67:309|67:309|80:364|129:367,1,154.000004699707,6|0,3:2|0:0,0:0:0:0:
277,332,41079,1,10,0:2:0:0:
148,287,41266,1,2,3:2:0:0:
252,197,41454,1,10,0:0:0:0:
277,332,41641,2,0,L|332:334,1,56,10|8,3:2|0:0,0:0:0:0:
252,197,42016,6,0,B|241:108|241:108|272:50,1,140,6|2,3:2|0:0,0:0:0:0:
410,13,42579,2,0,B|375:20|375:20|337:7,1,70,10|0,0:2|0:0,0:0:0:0:
446,104,42954,2,0,B|481:97|481:97|516:113,1,70,2|0,0:0|3:0,0:0:0:0:
475,178,43329,1,10,0:0:0:0:
492,25,43516,6,0,L|471:206,1,154.000004699707,6|0,3:2|3:0,0:0:0:0:
431,357,44079,1,10,0:0:0:0:
407,235,44266,1,2,3:2:0:0:
309,381,44454,1,2,3:2:0:0:
285,259,44641,1,2,0:0:0:0:
431,357,44829,2,0,L|520:351,1,70,10|0,0:0|0:0,0:0:0:0:
358,308,45204,6,0,B|350:223|350:223|367:167,1,125.999996154785,6|0,3:2|0:0,0:0:0:0:
426,43,45766,1,2,3:2:0:0:
426,43,45954,1,2,0:0:0:0:
336,60,46141,2,0,L|229:52,1,94.499997116089,2|0,0:0|0:0,0:0:0:0:
232,54,46516,6,0,P|222:99|212:202,1,125.999996154785,2|2,3:2|0:0,0:0:0:0:
125,177,47079,2,0,P|121:145|115:114,1,62.9999980773926,2|0,0:0|3:0,0:0:0:0:
69,243,47454,2,0,P|40:230|10:220,1,62.9999980773926,2|0,0:0|3:0,0:0:0:0:
23,381,47829,2,0,P|68:341|110:316,1,94.499997116089,2|0,0:0|0:0,0:0:0:0:
106,321,48204,6,0,B|141:322|164:333|164:333|189:367|226:362,1,125.999996154785,2|0,3:2|0:0,0:0:0:0:
382,347,48766,1,2,3:2:0:0:
307,383,48954,2,0,P|298:344|349:269,1,125.999996154785,2|0,0:0|0:0,0:0:0:0:
457,384,49516,6,0,P|466:345|415:270,1,125.999996154785,2|2,3:2|0:0,0:0:0:0:
373,136,50079,2,0,L|382:206,1,62.9999980773926,2|0,0:0|3:0,0:0:0:0:
460,156,50454,1,2,0:0:0:0:
460,156,50641,1,8,0:0:0:0:
295,173,50829,2,0,L|282:79,1,94.499997116089,8|0,0:0|0:0,0:0:0:0:
281,69,51204,6,0,B|315:65|331:38|331:38|362:15|408:38,1,125.999996154785,2|0,3:2|0:0,0:0:0:0:
504,77,51766,1,2,3:2:0:0:
504,77,51954,1,2,0:0:0:0:
460,156,52141,2,0,P|468:205|473:271,1,94.499997116089,2|0,0:0|0:0,0:0:0:0:
474,258,52516,6,0,B|437:260|416:284|416:284|431:318|423:352,1,125.999996154785,2|2,3:2|3:2,0:0:0:0:
284,341,53079,2,0,L|347:327,1,62.9999980773926,2|0,0:0|3:0,0:0:0:0:
213,286,53454,2,0,L|193:347,1,62.9999980773926,2|0,0:0|3:0,0:0:0:0:
296,252,53829,2,0,L|252:204,1,62.9999980773926,2|0,0:0|3:0,0:0:0:0:
26,138,54204,6,0,B|62:149|91:128|91:128|126:157|119:216,1,154.000004699707,6|2,3:2|3:2,0:0:0:0:
35,367,54766,2,0,B|68:349|100:365|100:365|130:330|113:274,1,154.000004699707,6|2,3:2|3:2,0:0:0:0:
42,246,55329,1,10,0:0:0:0:
206,359,55516,6,0,B|212:318|212:318|205:284|205:284|218:207,1,154.000004699707,4|2,3:2|0:0,0:0:0:0:
126,20,56079,1,8,0:0:0:0:
185,121,56266,1,8,0:0:0:0:
184,111,56360,1,8,0:0:0:0:
184,101,56454,1,2,3:2:0:0:
126,182,56641,1,2,3:2:0:0:
30,151,56829,1,10,0:0:0:0:
30,50,57016,1,2,0:0:0:0:
101,100,57204,1,2,0:0:0:0:
101,100,57579,6,0,L|260:82,1,154.000004699707,6|0,3:2|0:0,0:0:0:0:
411,68,58141,2,0,L|341:75,1,70,6|0,3:2|0:0,0:0:0:0:
318,297,58516,6,0,P|320:248|299:134,1,154.000004699707,4|2,3:2|0:0,0:0:0:0:
490,106,59079,2,0,P|483:140|484:175,1,70,2|0,0:0|3:0,0:0:0:0:
406,301,59454,2,0,P|406:266|400:231,1,70,2|0,0:0|3:0,0:0:0:0:
488,287,59829,1,2,0:0:0:0:
318,297,60016,1,0,3:0:0:0:
395,149,60204,1,2,0:0:0:0:
395,149,60579,6,0,B|341:144|341:144|313:165|313:165|245:156,1,154.000004699707,6|0,3:2|0:0,0:0:0:0:
118,107,61142,2,0,B|149:95|149:95|196:116,1,70,6|0,3:2|0:0,0:0:0:0:
170,324,61517,6,0,L|180:207,1,115.50000352478,4|0,3:2|0:0,0:0:0:0:
179,198,61892,2,0,B|148:210|148:210|101:189,1,70,2|0,3:2|0:0,0:0:0:0:
58,254,62267,2,0,B|32:233|32:233|26:181,1,70,2|0,3:2|0:0,0:0:0:0:
85,337,62642,1,2,3:2:0:0:
58,254,62829,1,2,0:0:0:0:
4,373,63017,1,2,3:2:0:0:
170,323,63204,6,0,B|206:336|221:368|221:368|266:387|307:353,1,154.000004699707,6|0,3:2|0:0,0:0:0:0:
414,269,63767,1,0,3:0:0:0:
414,279,63860,1,0,3:0:0:0:
414,289,63954,1,10,0:0:0:0:
505,249,64142,5,2,0:0:0:0:
399,375,64329,1,2,0:0:0:0:
337,220,64517,2,0,P|300:214|251:215,1,70,2|2,3:2|3:2,0:0:0:0:
392,92,64892,2,0,P|404:124|421:155,1,70,2|0,0:0|0:0,0:0:0:0:
253,110,65267,2,0,P|276:80|300:38,1,70,2|10,3:2|0:0,0:0:0:0:
370,6,65642,1,2,0:0:0:0:
329,141,65829,1,0,3:3:0:0:
501,57,66017,1,0,3:3:0:0:
502,67,66110,1,0,3:3:0:0:
502,77,66204,6,0,B|497:119|497:119|504:140|504:140|494:208,1,105,6|0,3:2|0:0,0:0:0:0:
499,190,66579,2,0,P|488:228|480:280,1,70,10|0,0:0|0:0,0:0:0:0:
388,364,66954,2,0,P|354:375|321:383,1,70,2|0,3:2|0:0,0:0:0:0:
353,235,67329,2,0,P|378:261|404:284,1,70,10|0,0:0|0:0,0:0:0:0:
293,108,67704,6,0,L|283:198,1,70,2|0,3:2|0:0,0:0:0:0:
104,177,68079,2,0,L|96:107,1,70,10|0,0:0|0:0,0:0:0:0:
194,133,68454,5,10,0:0:0:0:
4,161,68642,1,14,0:0:0:0:
4,161,69017,6,0,P|13:210|24:316,1,140,6|2,3:2|0:0,0:0:0:0:
158,361,69579,5,2,0:0:0:0:
180,274,69767,1,2,0:0:0:0:
300,283,69954,5,2,0:0:0:0:
278,370,70142,1,2,0:0:0:0:
446,384,70329,5,2,0:0:0:0:
468,297,70517,1,2,0:0:0:0:
375,333,70704,6,0,L|365:386,5,28,2|0|2|2|0|0,3:2|0:0|0:0|0:0|0:0|0:0,0:0:0:0:
300,283,71267,2,0,P|295:270|289:258,1,28,6|0,3:2|3:0,0:0:0:0:
394,219,71454,2,0,P|387:231|382:244,1,28,10|2,0:0|3:2,0:0:0:0:
378,140,71642,5,8,0:0:0:0:
398,135,71735,1,8,0:0:0:0:
418,138,71829,1,8,0:0:0:0:
437,149,71923,1,8,0:0:0:0:
454,167,72017,6,0,B|464:113|464:113|456:73|456:73|470:-4,1,167.999994873047,6|2,3:2|0:0,0:0:0:0:
281,73,72579,1,10,0:0:0:0:
342,8,72767,1,2,0:0:0:0:
343,134,72954,1,2,3:2:0:0:
218,135,73142,1,2,0:0:0:0:
216,10,73329,1,8,0:0:0:0:
343,134,73517,6,0,P|332:178|328:221,1,77.0000023498536,2|0,0:0|3:0,0:0:0:0:
218,367,73892,2,0,P|222:328|232:291,1,77.0000023498536,2|8,0:0|0:0,0:0:0:0:
218,135,74267,2,0,P|228:179|232:222,1,77.0000023498536,2|0,0:0|3:0,0:0:0:0:
343,366,74642,2,0,P|338:327|328:290,1,77.0000023498536,2|8,0:0|0:0,0:0:0:0:
279,72,75017,6,0,P|205:51|134:96,1,154.000004699707,6|2,3:2|0:0,0:0:0:0:
18,226,75579,1,10,0:0:0:0:
47,101,75767,1,2,0:0:0:0:
86,301,75954,1,2,3:2:0:0:
115,176,76142,1,2,0:0:0:0:
115,176,76329,1,10,0:0:0:0:
174,372,76517,6,0,B|135:389|104:379|104:379|75:340|87:299,1,154.000004699707,2|2,0:0|0:0,0:0:0:0:
168,291,77079,1,10,0:0:0:0:
257,372,77267,2,0,B|295:389|326:379|326:379|355:340|343:299,1,154.000004699707,2|2,0:0|0:0,0:0:0:0:
263,291,77829,1,10,0:0:0:0:
434,370,78017,6,0,B|441:325|441:325|436:296|436:296|455:199,1,167.999994873047,6|0,3:2|0:0,0:0:0:0:
432,37,78579,5,6,3:2:0:0:
508,78,78767,1,2,0:0:0:0:
359,81,78954,2,0,L|272:63,1,77.0000023498536,2|0,3:2|0:0,0:0:0:0:
126,0,79329,5,6,3:2:0:0:
200,44,79517,1,2,0:0:0:0:
66,116,79704,2,0,L|50:40,1,77.0000023498536,2|0,3:2|0:0,0:0:0:0:
2,186,80079,5,6,3:2:0:0:
158,137,80267,1,2,0:0:0:0:
66,116,80455,1,10,3:2:0:0:
113,287,80642,2,0,P|104:244|85:181,1,83.9999974365235,6|0,3:2|3:0,0:0:0:0:
33,344,81017,6,0,L|232:323,1,167.999994873047,6|0,3:2|0:0,0:0:0:0:
373,330,81580,1,10,0:0:0:0:
307,381,81767,2,0,P|289:322|342:252,1,154.000004699707,2|2,0:0|0:0,0:0:0:0:
501,194,82330,1,10,0:0:0:0:
512,111,82517,6,0,P|451:124|417:205,1,154.000004699707,6|2,3:2|3:2,0:0:0:0:
462,355,83080,1,10,3:2:0:0:
340,252,83267,1,2,3:2:0:0:
501,194,83455,1,10,3:2:0:0:
455,336,83642,1,2,3:2:0:0:
497,212,83830,1,10,3:2:0:0:
336,270,84017,6,0,B|323:318|340:360|340:360|311:385|261:370,1,167.999994873047,6|2,3:2|0:0,0:0:0:0:
188,250,84580,1,10,0:0:0:0:
96,384,84767,1,2,0:0:0:0:
25,236,84955,1,2,3:2:0:0:
187,342,85142,1,2,0:0:0:0:
187,342,85330,1,10,0:0:0:0:
110,229,85517,6,0,P|105:266|104:305,1,77.0000023498536,2|0,0:0|3:0,0:0:0:0:
178,116,85892,2,0,P|181:77|182:39,1,77.0000023498536,2|10,0:0|0:0,0:0:0:0:
86,138,86267,2,0,P|47:134|9:133,1,77.0000023498536,2|0,0:0|3:0,0:0:0:0:
200,208,86642,2,0,P|238:211|276:212,1,77.0000023498536,2|8,0:0|0:0,0:0:0:0:
483,340,87017,6,0,B|437:355|397:337|397:337|383:292|397:250,1,167.999994873047,4|2,3:2|0:0,0:0:0:0:
495,120,87580,1,10,0:0:0:0:
359,183,87767,1,2,0:0:0:0:
369,32,87955,1,2,3:2:0:0:
411,113,88142,1,2,0:0:0:0:
411,113,88330,1,10,0:0:0:0:
239,140,88517,6,0,B|199:127|199:127|148:145,1,77.0000023498536,6|0,3:1|0:0,0:0:0:0:
238,276,88892,2,0,B|229:234|229:234|188:199,1,77.0000023498536,2|8,3:1|0:0,0:0:0:0:
119,343,89267,2,0,B|150:314|150:314|160:261,1,77.0000023498536,6|0,3:1|0:0,0:0:0:0:
1,273,89642,2,0,B|41:286|41:286|92:267,1,77.0000023498536,2|8,3:1|0:0,0:0:0:0:
16,37,90017,6,0,P|27:79|38:202,1,167.999994873047,6|0,3:2|3:0,0:0:0:0:
120,205,90580,1,10,0:0:0:0:
176,62,90767,2,0,P|167:99|166:138,1,77.0000023498536,0|10,3:0|0:0,0:0:0:0:
104,30,91142,1,0,3:0:0:0:
104,30,91236,1,0,3:0:0:0:
104,30,91330,1,10,0:0:0:0:
255,18,91517,6,0,B|306:16|306:16|335:41|335:41|407:31,1,154.000004699707,4|0,3:2|3:2,0:0:0:0:
503,23,92080,2,0,P|491:80|485:197,1,154.000004699707,10|10,0:0|0:0,0:0:0:0:
419,294,92642,1,0,3:0:0:0:
417,282,92736,1,0,3:0:0:0:
414,270,92830,2,0,P|412:250|409:231,1,38.5000011749268,10|0,0:0|0:0,0:0:0:0:
393,127,93017,6,0,L|246:136,1,125.999996154785,6|2,3:2|0:0,0:0:0:0:
176,181,93580,2,0,P|178:196|178:212,3,31.4999990386963,2|2|0|2,0:0|0:0|0:0|0:0,0:0:0:0:
238,121,93955,2,0,P|252:126|266:134,3,31.4999990386963,2|2|0|2,0:0|0:0|0:0|0:0,0:0:0:0:
154,99,94330,6,0,P|138:109|118:126,1,31.4999990386963,2|0,3:2|0:0,0:0:0:0:
16,106,94517,2,0,P|31:116|51:133,1,31.4999990386963,2|0,3:2|0:0,0:0:0:0:
90,49,94705,5,10,3:2:0:0:
22,206,94892,2,0,P|29:240|33:292,1,70,14|0,3:2|0:0,0:0:0:0:
100,380,95267,2,0,P|107:308|121:238,1,140,4|0,3:2|3:2,0:0:0:0:
17,353,95830,1,0,3:2:0:0:
189,379,96017,6,0,L|334:366,1,140,6|2,3:2|0:0,0:0:0:0:
505,343,96580,1,10,0:0:0:0:
397,246,96767,2,0,P|410:314|417:384,1,140,6|2,3:2|0:0,0:0:0:0:
491,251,97330,1,10,0:0:0:0:
315,290,97517,6,0,B|304:242|315:196|315:196|291:146,1,140,6|2,3:2|0:0,0:0:0:0:
123,135,98080,1,10,0:0:0:0:
199,276,98267,2,0,B|206:235|206:235|198:206|198:206|212:129,1,140,6|2,3:2|0:0,0:0:0:0:
300,0,98830,1,8,0:0:0:0:
196,62,99017,6,0,B|261:40|248:101|314:80,1,125.999996154785,4|2,3:2|0:0,0:0:0:0:
405,54,99580,2,0,L|399:97,3,31.4999990386963,2|2|2|2,0:0|0:0|0:0|0:0,0:0:0:0:
485,95,99955,2,0,L|489:63,3,31.4999990386963,2|2|2|2,0:0|0:0|0:0|0:0,0:0:0:0:
435,174,100330,1,2,0:0:0:0:
435,174,100424,1,2,0:0:0:0:
435,174,100518,2,0,L|430:205,1,31.4999990386963,2|2,0:0|0:0,0:0:0:0:
454,286,100705,5,10,3:1:0:0:
325,154,100893,1,10,3:1:0:0:
313,340,101268,1,2,3:1:0:0:
357,261,101643,5,2,3:1:0:0:
357,261,101830,1,2,3:1:0:0:
256,192,102018,1,4,3:2:0:0:
256,192,102205,12,0,108955,0:0:0:0:
