osu file format v14

[General]
AudioFilename: audio.mp3
AudioLeadIn: 0
PreviewTime: 71923
Countdown: 0
SampleSet: Soft
StackLeniency: 0.7
Mode: 0
LetterboxInBreaks: 0
WidescreenStoryboard: 1

[Editor]
Bookmarks: 203,6203,15015,16703,18203,27578,30203,33578,34703,36203,40516,42016,45204,54204,57391,63204,66204,69017,72017,78017,81017,82892,84017,90017,93017,96017,99017,102018,108955
DistanceSpacing: 0.3
BeatDivisor: 4
GridSize: 32
TimelineZoom: 1.2

[Metadata]
Title:Hyakka Ryouran Phantasm Aoi-chan ReMIX
TitleUnicode:百花繚乱ファンタズム 葵ちゃんReMIX
Artist:Satou Shizuku
ArtistUnicode:佐藤しずく
Creator:tomatas95
Version:Insane
Source:鬼ごっこ!ファンディスク
Tags:eroge ALcot Onigokko! Fandisc FD Fan Disk galgame visual novel vn op opening japanese video game Elements Garden Masato jpop j-pop pop Nakayama Seima Iwahashi 浦部 葵 Urabe 南條愛乃 nanjou yoshino
BeatmapID:3992130
BeatmapSetID:1769793

[Difficulty]
HPDrainRate:5
CircleSize:3.8
OverallDifficulty:8
ApproachRate:8.7
SliderMultiplier:1.6
SliderTickRate:1

[Events]
//Background and Video events
Video,-950,"erogedaisukidesu.mp4"
0,0,"AkariShoubu.jpg",0,0
//Break Periods
//Storyboard Layer 0 (Background)
//Storyboard Layer 1 (Fail)
//Storyboard Layer 2 (Pass)
//Storyboard Layer 3 (Foreground)
//Storyboard Layer 4 (Overlay)
//Storyboard Sound Samples

[TimingPoints]
203,375.009375234381,4,2,1,50,1,0
203,-125,4,2,1,50,0,0
578,-125,4,2,1,45,0,0
953,-125,4,2,1,50,0,0
1328,-125,4,2,1,45,0,0
1515,-125,4,2,1,50,0,0
1703,-125,4,2,1,55,0,0
1890,-125,4,2,1,50,0,0
2078,-125,4,2,1,45,0,0
2265,-125,4,2,1,50,0,0
2828,-125,4,2,1,45,0,0
3015,-125,4,2,1,50,0,0
3203,-125,4,2,4,55,0,0
3390,-125,4,2,1,50,0,0
3578,-125,4,2,4,45,0,0
3765,-125,4,2,1,50,0,0
3953,-125,4,2,4,45,0,0
4140,-125,4,2,1,50,0,0
4328,-125,4,2,4,45,0,0
4515,-125,4,2,4,50,0,0
4609,-125,4,2,1,50,0,0
4890,-125,4,2,4,55,0,0
6015,-125,4,2,4,60,0,0
6203,-83.3333333333333,4,2,3,75,0,0
6390,-83.3333333333333,4,2,1,70,0,0
6578,-100,4,2,1,70,0,0
6765,-100,4,2,5,70,0,0
6953,-100,4,2,1,70,0,0
7140,-100,4,2,5,70,0,0
8828,-100,4,2,1,55,0,0
8921,-100,4,2,1,60,0,0
9015,-100,4,2,1,65,0,0
9109,-100,4,2,1,70,0,0
9203,-100,4,2,4,75,0,0
9390,-100,4,2,5,70,0,0
11640,-100,4,2,5,65,0,0
11828,-100,4,2,5,60,0,0
12015,-100,4,2,5,70,0,0
12203,-83.3333333333333,4,2,6,75,0,0
12390,-83.3333333333333,4,2,5,70,0,0
12578,-100,4,2,1,70,0,0
12765,-100,4,2,5,70,0,0
14640,-100,4,2,5,65,0,0
14828,-100,4,2,5,60,0,0
15015,-90.9090909090908,4,2,2,75,0,0
15390,-90.9090909090908,4,2,1,50,0,0
15578,-90.9090909090908,4,2,1,55,0,0
15765,-90.9090909090908,4,2,1,60,0,0
15953,-90.9090909090908,4,2,1,65,0,0
16140,-90.9090909090908,4,2,1,70,0,0
16328,-100,4,2,1,75,0,0
16515,-100,4,2,1,80,0,0
16703,-100,4,2,1,85,0,0
17640,-90.9090909090909,4,2,1,75,0,0
18109,-90.9090909090909,4,2,1,5,0,0
18203,-125,4,2,3,70,0,0
18578,-125,4,2,1,5,0,0
18765,-125,4,2,1,55,0,0
19328,-125,4,2,1,50,0,0
19515,-125,4,2,1,55,0,0
20828,-125,4,2,1,50,0,0
21203,-125,4,2,1,55,0,0
22703,-125,4,2,1,50,0,0
23266,-125,4,2,5,50,0,0
23453,-125,4,2,1,50,0,0
23828,-125,4,2,2,45,0,0
24016,-125,4,2,5,45,0,0
24203,-125,4,2,1,60,0,0
24578,-125,4,2,1,55,0,0
25328,-125,4,2,2,45,0,0
25703,-125,4,2,1,55,0,0
26828,-125,4,2,1,50,0,0
27203,-142.857142857143,4,2,1,45,0,0
27484,-90.9090909090909,4,2,1,5,0,0
27578,-71.4285714285714,4,2,3,70,0,0
27953,-142.857142857143,4,2,1,45,0,0
28234,-90.9090909090909,4,2,1,5,0,0
28328,-71.4285714285714,4,2,3,70,0,0
28703,-71.4285714285714,4,2,1,80,0,0
29078,-71.4285714285714,4,2,1,40,0,0
29453,-142.857142857143,4,2,5,50,0,0
29641,-142.857142857143,4,2,5,55,0,0
29828,-142.857142857143,4,2,5,60,0,0
29922,-90.9090909090909,4,2,1,5,0,0
30016,-142.857142857143,4,2,5,65,0,0
30109,-90.9090909090909,4,2,1,5,0,0
30203,-100,4,2,4,75,0,0
30578,-111.111111111111,4,2,5,65,0,0
30953,-99.9999999999999,4,2,5,65,0,0
33016,-99.9999999999999,4,2,5,60,0,0
33203,-142.857142857143,4,2,5,55,0,0
33485,-90.9090909090909,4,2,1,5,0,0
33578,-71.4285714285714,4,2,3,75,0,0
33953,-142.857142857143,4,2,5,55,0,0
34235,-90.9090909090909,4,2,1,5,0,0
34328,-71.4285714285714,4,2,3,75,0,0
34703,-71.4285714285714,4,2,4,80,0,0
35078,-100,4,2,5,65,0,0
35828,-100,4,2,3,75,0,0
36016,-100,4,2,5,65,0,0
36203,-100,4,2,4,80,0,0
36578,-111.111111111111,4,2,5,65,0,0
36953,-100,4,2,5,65,0,0
37328,-111.111111111111,4,2,5,65,0,0
38078,-111.111111111111,4,2,5,70,0,0
38828,-111.111111111111,4,2,5,65,0,0
39016,-111.111111111111,4,2,5,70,0,0
39203,-100,4,2,1,75,0,0
39578,-100,4,2,5,70,0,0
40516,-71.4285714285714,4,2,3,75,0,0
40891,-100,4,2,5,70,0,0
41079,-100,4,2,5,75,0,0
41641,-125,4,2,5,75,0,0
41829,-125,4,2,5,50,0,0
42016,-83.3333333333333,4,2,5,75,0,0
42391,-100,4,2,5,70,0,0
43516,-90.9090909090909,4,2,1,75,0,0
43891,-100,4,2,5,70,0,0
44454,-100,4,2,5,65,0,0
44829,-100,4,2,5,60,0,0
45204,-111.111111111111,4,2,3,75,0,0
45579,-111.111111111111,4,2,1,60,0,0
46141,-111.111111111111,4,2,1,55,0,0
46422,-90.9090909090909,4,2,1,5,0,0
46516,-111.111111111111,4,2,1,60,0,0
47829,-111.111111111111,4,2,1,55,0,0
48110,-90.9090909090909,4,2,1,5,0,0
48204,-111.111111111111,4,2,1,60,0,0
50641,-111.111111111111,4,2,9,50,0,0
51110,-90.9090909090909,4,2,1,5,0,0
51204,-111.111111111111,4,2,1,60,0,0
52141,-111.111111111111,4,2,1,55,0,0
52423,-90.9090909090909,4,2,1,5,0,0
52516,-111.111111111111,4,2,1,60,0,0
53829,-125,4,2,1,60,0,0
54110,-90.9090909090909,4,2,1,5,0,0
54204,-90.9090909090909,4,2,3,75,0,0
54579,-100,4,2,5,65,0,0
54766,-83.3333333333333,4,2,3,75,0,0
55141,-100,4,2,5,65,0,0
55516,-76.9230769230769,4,2,4,80,0,0
55891,-100,4,2,5,70,0,0
56641,-100,4,2,5,65,0,0
56829,-100,4,2,5,60,0,0
57016,-100,4,2,5,55,0,0
57204,-166.666666666667,4,2,5,50,0,0
57485,-90.9090909090909,4,2,1,5,0,0
57579,-90.9090909090909,4,2,3,80,0,0
57954,-100,4,2,3,80,0,0
58141,-100,4,2,8,65,0,0
58516,-76.9230769230769,4,2,4,80,0,0
58891,-100,4,2,5,75,0,0
59829,-100,4,2,5,70,0,0
60016,-100,4,2,5,65,0,0
60204,-166.666666666667,4,2,5,60,0,0
60485,-90.9090909090909,4,2,1,5,0,0
60579,-90.9090909090909,4,2,3,80,0,0
60954,-100,4,2,3,80,0,0
61141,-100,4,2,8,65,0,0
61517,-76.9230769230769,4,2,4,80,0,0
61798,-90.9090909090909,4,2,1,5,0,0
61892,-100,4,2,5,70,0,0
62829,-100,4,2,5,65,0,0
63017,-100,4,2,5,60,0,0
63204,-90.9090909090908,4,2,3,75,0,0
63579,-100,4,2,5,70,0,0
65829,-100,4,2,1,65,0,0
66204,-83.3333333333333,4,2,1,75,0,0
66485,-90.9090909090909,4,2,1,5,0,0
66579,-100,4,2,5,70,0,0
67704,-100,4,2,5,75,0,0
68454,-100,4,2,5,80,0,0
68642,-100,4,2,8,80,0,0
69017,-125,4,2,3,80,0,0
69392,-125,4,2,1,50,0,0
69579,-125,4,2,1,55,0,0
69767,-125,4,2,1,60,0,0
69954,-125,4,2,1,65,0,0
70142,-125,4,2,1,70,0,0
70329,-125,4,2,1,75,0,0
70517,-125,4,2,1,80,0,0
70704,-125,4,2,1,60,0,0
70892,-125,4,2,1,65,0,0
71079,-125,4,2,1,70,0,0
71267,-125,4,2,1,75,0,0
71454,-125,4,2,1,70,0,0
71642,-100,4,2,1,75,0,0
72017,-76.9230769230769,4,2,6,85,0,1
72392,-90.9090909090909,4,2,5,80,0,1
73517,-90.9090909090909,4,2,4,80,0,1
73704,-90.9090909090909,4,2,5,80,0,1
73892,-90.9090909090909,4,2,4,80,0,1
74079,-90.9090909090909,4,2,5,80,0,1
74267,-90.9090909090909,4,2,4,80,0,1
74454,-90.9090909090909,4,2,5,80,0,1
74642,-90.9090909090909,4,2,4,75,0,1
74829,-90.9090909090909,4,2,5,80,0,1
75017,-90.9090909090909,4,2,4,85,0,1
75392,-90.9090909090909,4,2,5,80,0,1
76517,-90.9090909090909,4,2,4,80,0,1
76704,-90.9090909090909,4,2,5,80,0,1
77267,-90.9090909090909,4,2,4,75,0,1
77454,-90.9090909090909,4,2,5,80,0,1
78017,-76.9230769230769,4,2,3,85,0,1
78392,-90.9090909090909,4,2,3,80,0,1
78579,-90.9090909090909,4,2,8,85,0,1
78767,-90.9090909090909,4,2,5,80,0,1
79329,-90.9090909090909,4,2,8,85,0,1
79517,-90.9090909090909,4,2,5,80,0,1
80079,-90.9090909090909,4,2,8,85,0,1
80267,-90.9090909090909,4,2,5,80,0,1
80455,-90.9090909090909,4,2,8,70,0,1
80642,-83.3333333333333,4,2,8,80,0,1
80830,-83.3333333333333,4,2,5,70,0,1
81017,-76.9230769230769,4,2,6,85,0,1
81392,-90.9090909090909,4,2,5,80,0,1
81955,-90.9090909090909,4,2,5,70,0,1
82142,-90.9090909090909,4,2,5,75,0,1
82330,-90.9090909090909,4,2,5,80,0,1
82517,-90.9090909090909,4,2,3,85,0,1
82892,-100,4,2,4,85,0,0
83080,-100,4,2,4,80,0,0
83267,-100,4,2,4,75,0,0
83455,-100,4,2,4,70,0,0
83642,-100,4,2,4,65,0,0
83830,-100,4,2,4,60,0,0
84017,-76.9230769230769,4,2,6,85,0,1
84392,-90.9090909090909,4,2,5,80,0,1
85517,-90.9090909090909,4,2,4,80,0,1
85704,-90.9090909090909,4,2,5,80,0,1
85892,-90.9090909090909,4,2,4,80,0,1
86079,-90.9090909090909,4,2,5,80,0,1
86267,-90.9090909090909,4,2,4,80,0,1
86454,-90.9090909090909,4,2,5,80,0,1
86642,-90.9090909090909,4,2,4,75,0,1
86830,-90.9090909090909,4,2,5,80,0,1
87017,-76.9230769230769,4,2,4,85,0,1
87392,-90.9090909090909,4,2,5,80,0,1
88517,-90.9090909090909,4,2,3,85,0,1
89080,-90.9090909090909,4,2,8,75,0,1
89267,-90.9090909090909,4,2,3,85,0,1
89830,-90.9090909090909,4,2,8,75,0,1
90017,-76.9230769230769,4,2,4,85,0,1
90392,-90.9090909090909,4,2,6,80,0,1
91517,-76.9230769230769,4,2,4,85,0,1
91892,-90.9090909090909,4,2,6,80,0,1
93017,-99.9999999999999,4,2,3,85,0,1
93392,-99.9999999999999,4,2,1,55,0,1
93580,-99.9999999999999,4,2,1,60,0,1
93767,-99.9999999999999,4,2,1,65,0,1
93955,-99.9999999999999,4,2,1,70,0,1
94142,-99.9999999999999,4,2,1,75,0,1
94330,-99.9999999999999,4,2,1,80,0,1
94424,-99.9999999999999,4,2,1,5,0,1
94517,-99.9999999999999,4,2,1,80,0,1
94611,-99.9999999999999,4,2,1,5,0,1
94705,-99.9999999999999,4,2,1,85,0,1
94892,-99.9999999999999,4,2,8,85,0,1
95080,-99.9999999999999,4,2,5,60,0,1
95267,-99.9999999999999,4,2,8,85,0,1
95642,-99.9999999999999,4,2,5,70,0,1
95830,-99.9999999999999,4,2,5,75,0,1
96017,-90.9090909090909,4,2,5,80,0,0
96392,-90.9090909090909,4,2,4,65,0,0
96767,-83.3333333333333,4,2,3,70,0,0
97142,-83.3333333333333,4,2,4,70,0,0
97517,-76.9230769230769,4,2,3,75,0,0
97892,-76.9230769230769,4,2,4,75,0,0
98267,-71.4285714285714,4,2,3,80,0,0
98642,-71.4285714285714,4,2,4,70,0,0
98736,-71.4285714285714,4,2,5,70,0,0
98830,-71.4285714285714,4,2,4,70,0,0
99017,-99.9999999999999,4,2,4,75,0,0
99392,-99.9999999999999,4,2,1,50,0,0
99580,-99.9999999999999,4,2,1,55,0,0
99767,-99.9999999999999,4,2,1,60,0,0
99955,-99.9999999999999,4,2,1,65,0,0
100142,-99.9999999999999,4,2,1,70,0,0
100330,-99.9999999999999,4,2,1,75,0,0
100517,-99.9999999999999,4,2,1,80,0,0
100705,-99.9999999999999,4,2,1,85,0,0
101643,-99.9999999999999,4,2,1,65,0,0
101830,-99.9999999999999,4,2,1,70,0,0
102018,-100,4,2,3,85,0,0
102205,-100,4,2,5,85,0,0
102580,-100,4,2,5,80,0,0
102955,-100,4,2,5,75,0,0
103330,-100,4,2,5,70,0,0
103705,-100,4,2,5,65,0,0
104080,-100,4,2,5,60,0,0
104455,-100,4,2,5,55,0,0
104830,-100,4,2,5,50,0,0
105205,-100,4,2,5,45,0,0
105580,-100,4,2,5,40,0,0
106330,-100,4,2,5,35,0,0
107080,-100,4,2,5,30,0,0
107455,-100,4,2,5,25,0,0
107830,-100,4,2,5,20,0,0
108205,-100,4,2,5,15,0,0
108580,-100,4,2,5,10,0,0
108955,-100,4,2,5,5,0,0

[Colours]
Combo1 : 250,231,156
Combo2 : 219,250,112
Combo3 : 252,160,252
Combo4 : 143,214,252

[HitObjects]
33,331,203,6,0,P|27:277|11:196,2,128,2|10|2,3:2|0:0|3:2,0:0:0:0:
117,360,1140,1,0,3:0:0:0:
117,360,1328,2,0,L|190:350,1,64,8|0,0:0|3:2,0:0:0:0:
116,264,1703,6,0,P|122:210|138:129,2,128,0|10|2,3:2|0:0|3:2,0:0:0:0:
208,242,2640,1,0,3:0:0:0:
208,242,2828,2,0,P|211:215|219:174,1,64,8|2,0:0|3:2,0:0:0:0:
221,169,3109,1,0,3:0:0:0:
225,160,3203,6,0,L|237:79,1,64,2|2,3:2|0:0,0:0:0:0:
88,95,3578,2,0,L|78:158,1,64,10|2,0:0|0:0,0:0:0:0:
161,36,3953,2,0,L|165:4,2,32,2|0|0,3:2|3:0|3:0,0:0:0:0:
234,96,4328,2,0,L|297:86,1,64,10|2,0:0|3:2,0:0:0:0:
306,88,4609,1,0,3:0:0:0:
314,92,4703,6,0,B|310:26|310:26|333:3|375:6,1,128,10|10,0:0|0:0,0:0:0:0:
500,99,5265,1,2,0:0:0:0:
435,47,5453,1,2,3:2:0:0:
409,210,5640,1,2,3:2:0:0:
492,183,5828,1,8,3:0:0:0:
492,183,5921,1,8,3:0:0:0:
492,183,6015,6,0,L|499:233,1,32,8|8,3:3|3:3,0:0:0:0:
502,352,6203,6,0,B|454:367|417:331|417:331|367:308|306:347,1,191.999994140625,6|8,3:2|0:0,0:0:0:0:
184,286,6765,1,2,0:0:0:0:
184,286,6859,1,2,0:0:0:0:
184,286,6953,1,0,3:2:0:0:
191,377,7140,1,2,0:0:0:0:
178,192,7328,1,10,0:0:0:0:
276,278,7515,1,2,0:0:0:0:
92,290,7703,6,0,P|86:330|85:375,1,80,2|2,3:2|0:0,0:0:0:0:
27,227,8078,2,0,P|25:187|19:147,1,80,8|2,0:0|0:0,0:0:0:0:
16,135,8359,1,2,0:0:0:0:
16,122,8453,2,0,L|24:42,1,80,2|0,3:2|0:0,0:0:0:0:
117,199,8828,2,0,L|125:119,1,80,10|2,0:2|0:0,0:0:0:0:
126,107,9109,1,2,0:0:0:0:
128,95,9203,6,0,B|166:106|199:83|199:83|184:34|211:-9,1,160,6|8,3:2|0:0,0:0:0:0:
361,28,9765,1,2,0:0:0:0:
361,28,9859,1,2,0:0:0:0:
361,28,9953,1,2,3:2:0:0:
278,49,10140,1,2,0:0:0:0:
325,194,10328,1,8,0:0:0:0:
405,151,10515,1,2,0:0:0:0:
444,7,10703,6,0,L|460:95,1,80,2|2,3:2|0:0,0:0:0:0:
468,309,11078,1,10,0:0:0:0:
402,241,11265,1,2,0:0:0:0:
267,353,11453,1,2,3:2:0:0:
201,285,11640,1,2,0:0:0:0:
377,333,11828,1,10,0:0:0:0:
176,373,12015,1,8,0:0:0:0:
176,373,12109,1,8,0:0:0:0:
176,373,12203,6,0,B|128:361|91:385|91:385|32:370|35:304,1,191.999994140625,6|8,3:2|0:0,0:0:0:0:
61,121,12765,1,2,0:0:0:0:
61,121,12859,1,2,0:0:0:0:
61,121,12953,1,2,3:2:0:0:
104,215,13140,1,2,0:0:0:0:
0,205,13327,1,8,0:0:0:0:
164,131,13515,1,2,0:0:0:0:
124,292,13703,6,0,L|101:206,1,80,0|2,3:0|0:0,0:0:0:0:
0,60,14078,1,10,0:2:0:0:
151,47,14265,1,2,0:0:0:0:
164,131,14453,1,2,3:2:0:0:
72,9,14640,1,2,0:0:0:0:
78,96,14828,1,8,0:0:0:0:
251,14,15015,6,0,B|299:-1|329:29|329:29|293:77|327:141,1,176.000005371094,6|2,3:2|0:0,0:0:0:0:
432,89,15578,2,0,L|370:81,3,44.0000013427735,2|2|0|0,0:0|0:0|0:0|0:0,0:0:0:0:
426,180,15953,2,0,L|364:172,3,44.0000013427735,2|2|0|0,0:0|0:0|0:0|0:0,0:0:0:0:
501,249,16328,1,2,0:0:0:0:
501,249,16422,1,2,0:0:0:0:
501,249,16515,2,0,P|495:273|490:302,1,40,2|0,0:0|0:0,0:0:0:0:
371,368,16703,5,10,3:1:0:0:
255,188,16890,1,10,3:1:0:0:
133,364,17265,1,10,3:1:0:0:
255,384,17640,6,0,B|254:353|269:331|269:331|247:312|238:278|238:278|269:254|277:219|250:180,1,220.000006713867,10|0,3:1|0:0,0:0:0:0:
250,177,18203,6,0,B|215:167|186:176|186:176|184:140|171:116,1,128,6|0,3:2|0:0,0:0:0:0:
252,100,18765,2,0,P|248:68|245:29,1,64,2|2,0:0|0:0,0:0:0:0:
245,36,19515,6,0,L|315:32,2,64,2|2|2,0:0|0:0|0:0,0:0:0:0:
170,115,20078,2,0,L|106:118,1,64,2|0,0:0|0:0,0:0:0:0:
58,199,20453,1,2,0:0:0:0:
58,199,20828,5,2,0:0:0:0:
7,276,21016,1,2,0:0:0:0:
7,276,21203,6,0,L|90:285,1,64,2|0,0:0|0:0,0:0:0:0:
96,366,21578,2,0,L|32:359,1,64,2|0,0:0|0:0,0:0:0:0:
58,199,21953,2,0,L|141:208,1,64,2|0,0:0|0:0,0:0:0:0:
214,297,22328,2,0,L|150:290,1,64,2|0,0:0|0:0,0:0:0:0:
233,378,22703,6,0,P|297:311|260:226,1,192,2|2,0:0|0:0,0:0:0:0:
255,223,23359,1,2,0:0:0:0:
246,219,23453,1,2,0:0:0:0:
211,64,23828,1,2,0:0:0:0:
169,152,24016,1,2,0:0:0:0:
169,152,24109,1,2,0:0:0:0:
169,152,24203,6,0,P|227:142|300:131,1,128,6|0,3:2|0:0,0:0:0:0:
385,121,24766,1,2,0:0:0:0:
385,121,24953,1,2,0:0:0:0:
385,121,25516,2,0,L|372:75,2,32,2|2|2,0:0|0:0|3:2,0:0:0:0:
467,157,25891,1,2,3:2:0:0:
488,17,26078,2,0,P|468:54|452:87,1,64,2|0,0:0|0:0,0:0:0:0:
395,203,26453,1,2,0:0:0:0:
395,203,26828,5,2,0:0:0:0:
467,268,27016,1,2,0:0:0:0:
433,365,27203,6,0,L|339:352,1,83.9999974365235,2|0,0:2|0:0,0:0:0:0:
335,356,27578,2,0,B|341:299|341:299|313:240,1,111.999996582031,6|0,3:1|0:0,0:0:0:0:
79,365,27953,6,0,L|173:352,1,83.9999974365235,2|0,0:2|0:0,0:0:0:0:
177,356,28328,2,0,B|171:299|171:299|199:240,1,111.999996582031,6|0,3:1|0:0,0:0:0:0:
236,135,28703,5,8,0:2:0:0:
256,320,28891,1,8,0:2:0:0:
256,320,29453,5,2,0:0:0:0:
174,210,29641,1,2,0:0:0:0:
177,217,29734,1,0,3:0:0:0:
181,224,29828,2,0,P|193:246|199:272,1,27.9999991455078,8|0,0:0|0:0,0:0:0:0:
317,249,30016,2,0,P|322:236|329:224,1,27.9999991455078,2|0,0:0|0:0,0:0:0:0:
512,212,30203,6,0,B|471:232|435:219|435:219|407:174|426:138,1,160,4|10,3:2|0:0,0:0:0:0:
500,132,30766,1,2,0:0:0:0:
278,88,30953,6,0,B|319:108|355:95|355:95|383:50|364:14,1,160,2|10,3:2|0:0,0:0:0:0:
289,12,31516,1,2,0:0:0:0:
210,126,31703,1,2,3:2:0:0:
159,66,31891,1,2,0:0:0:0:
94,181,32078,2,0,P|96:143|88:98,1,80,10|0,0:0|0:0,0:0:0:0:
231,205,32453,2,0,P|226:240|227:285,1,80,2|0,3:2|0:0,0:0:0:0:
119,368,32828,5,10,0:0:0:0:
209,384,33016,1,2,0:0:0:0:
29,352,33203,6,0,P|30:318|22:256,1,83.9999974365235,2|0,3:2|0:0,0:0:0:0:
24,251,33578,2,0,L|142:240,1,111.999996582031,6|0,3:1|0:0,0:0:0:0:
7,40,33953,6,0,P|12:81|11:123,1,83.9999974365235,2|0,3:2|0:0,0:0:0:0:
12,140,34328,2,0,L|130:129,1,111.999996582031,6|0,3:1|0:0,0:0:0:0:
303,167,34703,6,0,B|232:200|195:167|195:167|219:104|169:55,1,223.999993164063,4|8,3:2|0:0,0:0:0:0:
95,49,35266,1,2,0:0:0:0:
252,19,35453,2,0,B|316:39|303:-20|373:2,1,120,2|0,3:2|0:0,0:0:0:0:
373,7,35828,6,0,L|378:61,1,40,6|8,3:1|0:0,0:0:0:0:
494,122,36016,1,8,0:0:0:0:
494,122,36110,1,8,0:0:0:0:
494,122,36203,6,0,B|449:109|418:129|418:129|441:173|425:214,1,160,4|8,3:2|0:0,0:0:0:0:
436,286,36766,1,2,0:0:0:0:
265,124,36953,6,0,B|310:111|341:131|341:131|318:175|334:216,1,160,2|8,3:2|0:0,0:0:0:0:
382,347,37516,1,2,0:0:0:0:
323,285,37703,5,2,3:2:0:0:
190,383,37891,1,2,0:0:0:0:
247,322,38078,2,0,L|230:236,1,71.9999978027344,10|0,0:0|0:0,0:0:0:0:
87,291,38453,2,0,L|101:362,1,71.9999978027344,2|0,3:2|0:0,0:0:0:0:
16,346,38828,1,10,0:2:0:0:
169,302,39016,1,2,0:0:0:0:
18,168,39203,6,0,B|58:163|83:196|83:196|130:212|168:158,1,160,6|10,3:2|0:0,0:0:0:0:
218,107,39766,1,2,0:0:0:0:
402,179,39953,2,0,B|362:174|337:207|337:207|290:223|252:169,1,160,2|8,3:2|0:0,0:0:0:0:
62,51,40516,6,0,B|120:67|155:24|155:24|220:-1|283:34,1,223.999993164063,6|0,3:2|0:0,0:0:0:0:
410,31,41079,1,10,0:0:0:0:
272,167,41266,1,2,3:2:0:0:
273,29,41454,1,10,3:2:0:0:
408,167,41641,1,10,3:2:0:0:
340,99,41829,1,8,0:0:0:0:
243,287,42016,6,0,B|290:270|323:289|323:289|363:347|440:312,1,191.999994140625,6|2,3:2|0:0,0:0:0:0:
408,167,42579,2,0,L|390:250,1,80,10|0,0:2|0:0,0:0:0:0:
492,379,42954,2,0,L|508:300,1,80,2|0,0:0|3:0,0:0:0:0:
481,99,43329,1,10,0:0:0:0:
491,181,43516,6,0,B|408:167|408:167|391:117|405:74,1,176.000005371094,6|0,3:2|3:0,0:0:0:0:
462,20,44079,1,10,0:0:0:0:
324,56,44266,5,2,3:2:0:0:
383,0,44454,1,2,3:2:0:0:
410,167,44641,5,2,0:0:0:0:
351,223,44829,1,10,0:0:0:0:
316,371,45016,1,2,0:0:0:0:
156,318,45204,6,0,B|166:270|166:270|158:235|158:235|174:167,1,143.999995605469,6|0,3:2|0:0,0:0:0:0:
218,58,45766,1,2,3:2:0:0:
254,141,45954,1,2,0:0:0:0:
135,94,46141,2,0,L|22:86,1,107.999996704102,2|0,0:0|0:0,0:0:0:0:
16,87,46516,6,0,P|16:44|12:4,1,71.9999978027344,2|0,3:2|0:0,0:0:0:0:
48,171,46891,1,2,0:0:0:0:
48,171,47079,2,0,P|45:206|45:242,1,71.9999978027344,2|0,0:0|3:0,0:0:0:0:
0,360,47454,2,0,P|32:344|63:326,1,71.9999978027344,2|0,0:0|3:0,0:0:0:0:
213,332,47829,2,0,P|165:292|114:263,1,107.999996704102,2|0,0:0|0:0,0:0:0:0:
127,258,48204,6,0,B|131:210|124:181|124:181|146:147|193:158,1,143.999995605469,2|0,3:2|0:0,0:0:0:0:
230,84,48766,1,2,3:2:0:0:
327,261,48954,2,0,B|323:213|330:184|330:184|308:150|261:161,1,143.999995605469,2|0,0:0|0:0,0:0:0:0:
218,368,49516,6,0,L|227:225,1,143.999995605469,2|2,3:2|0:0,0:0:0:0:
326,260,50079,2,0,L|322:332,1,71.9999978027344,2|0,0:0|3:0,0:0:0:0:
432,371,50454,5,2,0:0:0:0:
432,371,50641,1,8,0:0:0:0:
504,258,50829,2,0,B|449:272|449:272|402:238,1,107.999996704102,8|0,0:0|0:0,0:0:0:0:
404,231,51204,6,0,P|405:170|389:86,1,143.999995605469,2|0,3:2|0:0,0:0:0:0:
458,32,51766,1,2,3:2:0:0:
458,32,51954,1,2,0:2:0:0:
374,0,52141,2,0,L|258:10,1,107.999996704102,2|0,0:0|0:0,0:0:0:0:
263,20,52516,6,0,B|256:96|256:96|224:113|183:98,1,143.999995605469,2|2,3:2|3:2,0:0:0:0:
85,15,53079,2,0,B|122:4|122:4|169:22,1,71.9999978027344,2|0,0:0|3:0,0:0:0:0:
33,76,53454,2,0,B|4:49|4:49|-2:0,1,71.9999978027344,2|0,0:0|3:0,0:0:0:0:
115,84,53829,2,0,P|106:128|97:193,1,96,2|0,0:0|0:0,0:0:0:0:
98,191,54204,6,0,B|50:181|18:213|18:213|44:248|25:314,1,176.000005371094,6|2,3:2|3:2,0:0:0:0:
235,357,54766,2,0,B|188:341|149:364|149:364|113:318|137:264,1,191.999994140625,6|2,3:2|3:2,0:0:0:0:
201,214,55329,1,10,0:0:0:0:
313,384,55516,6,0,B|324:333|291:295|291:295|282:231|317:184,1,207.999990478516,4|2,3:2|0:0,0:0:0:0:
413,84,56079,1,8,0:0:0:0:
408,180,56266,1,8,0:0:0:0:
408,180,56360,1,8,0:0:0:0:
408,180,56454,1,2,3:2:0:0:
464,9,56642,1,2,3:2:0:0:
325,103,56829,1,10,0:0:0:0:
360,5,57017,1,2,0:0:0:0:
492,108,57204,6,0,P|496:145|501:199,1,71.9999978027344,2|0,0:0|0:0,0:0:0:0:
510,268,57579,6,0,B|466:258|429:291|429:291|427:345|359:364,1,176.000005371094,6|0,3:2|0:0,0:0:0:0:
337,204,58141,2,0,L|351:288,1,80,6|0,3:2|0:0,0:0:0:0:
112,355,58516,6,0,B|164:380|211:364|211:364|247:305|212:258,1,207.999990478516,4|2,3:2|0:0,0:0:0:0:
112,208,59079,2,0,P|134:253|140:286,1,80,2|0,0:0|3:0,0:0:0:0:
157,112,59454,2,0,P|165:73|184:37,1,80,2|0,0:0|3:0,0:0:0:0:
89,43,59829,1,2,0:0:0:0:
244,105,60016,1,0,3:0:0:0:
112,208,60204,2,0,B|76:198|76:198|41:210,1,71.9999978027344,2|0,0:0|0:0,0:0:0:0:
4,274,60579,6,0,B|31:311|29:355|29:355|74:374|119:348,1,176.000005371094,6|0,3:2|0:0,0:0:0:0:
204,197,61142,2,0,L|191:284,1,80,6|0,3:2|0:0,0:0:0:0:
336,377,61517,6,0,B|343:325|343:325|336:296|336:296|343:221,1,155.999992858887,4|0,3:2|0:0,0:0:0:0:
349,212,61892,2,0,B|387:225|387:225|428:212,1,80,2|0,3:2|0:0,0:0:0:0:
512,303,62267,2,0,B|474:290|474:290|433:303,1,80,2|0,3:2|0:0,0:0:0:0:
475,371,62642,5,2,3:2:0:0:
424,212,62829,1,2,0:0:0:0:
501,42,63017,1,2,3:2:0:0:
504,144,63204,6,0,P|432:126|329:110,1,176.000005371094,6|0,3:2|0:0,0:0:0:0:
175,111,63767,1,0,3:0:0:0:
173,100,63860,1,0,3:0:0:0:
168,88,63954,1,10,0:0:0:0:
203,191,64142,5,2,0:0:0:0:
141,9,64329,1,2,0:0:0:0:
262,68,64517,1,2,3:2:0:0:
80,130,64704,5,2,3:2:0:0:
203,191,64892,2,0,P|196:238|192:283,1,80,2|0,0:0|0:0,0:0:0:0:
63,366,65267,1,2,3:2:0:0:
192,270,65454,1,10,0:0:0:0:
35,273,65642,1,2,0:0:0:0:
185,372,65829,5,0,3:0:0:0:
206,374,65922,1,0,3:0:0:0:
230,377,66016,1,0,3:0:0:0:
252,379,66110,1,0,3:0:0:0:
274,381,66204,6,0,B|334:377|334:377|354:341|327:280,1,143.999995605469,6|0,3:2|0:0,0:0:0:0:
331,283,66579,2,0,B|371:272|371:272|420:292,1,80,10|0,0:0|0:0,0:0:0:0:
261,235,66954,2,0,B|271:194|271:194|313:162,1,80,2|0,3:2|0:0,0:0:0:0:
179,266,67329,2,0,B|149:236|149:236|142:184,1,80,10|0,0:0|0:0,0:0:0:0:
40,47,67704,6,0,P|50:91|45:148,1,80,2|0,3:2|0:0,0:0:0:0:
224,126,68079,2,0,P|223:86|233:47,1,80,10|0,0:0|0:0,0:0:0:0:
137,94,68454,5,10,0:0:0:0:
324,27,68642,1,14,0:0:0:0:
324,27,69017,6,0,B|377:30|377:30|395:40|395:40|450:39,1,128,6|2,3:2|0:0,0:0:0:0:
429,204,69579,5,2,0:0:0:0:
497,152,69767,1,2,0:0:0:0:
342,198,69954,5,2,0:0:0:0:
274,146,70142,1,2,0:0:0:0:
381,277,70329,5,2,0:0:0:0:
302,310,70517,1,2,0:0:0:0:
479,334,70704,5,2,3:2:0:0:
477,324,70798,1,2,0:0:0:0:
474,314,70892,2,0,L|466:267,1,32,2|2,0:0|0:0,0:0:0:0:
302,310,71079,2,0,L|307:341,1,32,2|2,0:0|0:0,0:0:0:0:
368,265,71267,5,6,3:2:0:0:
352,242,71360,1,0,3:0:0:0:
329,227,71454,1,10,0:0:0:0:
302,221,71548,1,2,3:2:0:0:
274,225,71642,1,10,0:0:0:0:
251,239,71735,1,10,0:0:0:0:
234,261,71829,2,0,L|194:268,1,40,10|10,0:0|0:0,0:0:0:0:
0,359,72017,6,0,B|55:342|99:371|99:371|87:306|128:254,1,207.999990478516,6|2,3:2|0:0,0:0:0:0:
1,198,72579,5,10,0:0:0:0:
26,278,72767,1,2,0:0:0:0:
70,146,72954,5,2,3:2:0:0:
45,66,73142,1,2,0:0:0:0:
110,10,73329,1,8,0:0:0:0:
143,189,73517,6,0,L|233:177,1,88.000002685547,2|0,0:0|3:0,0:0:0:0:
228,275,73892,2,0,L|142:287,1,88.000002685547,2|8,0:0|0:0,0:0:0:0:
143,89,74267,2,0,L|231:78,1,88.000002685547,2|0,0:0|3:0,0:0:0:0:
380,39,74642,1,2,0:0:0:0:
313,112,74829,1,8,0:0:0:0:
478,38,75017,6,0,B|469:98|469:98|478:127|478:127|458:220,1,176.000005371094,6|2,3:2|0:0,0:0:0:0:
429,380,75579,5,10,0:0:0:0:
506,330,75767,1,2,0:0:0:0:
376,172,75954,1,2,3:2:0:0:
299,222,76142,1,2,0:0:0:0:
460,210,76329,1,8,0:0:0:0:
340,369,76517,6,0,B|249:398|267:313|168:346,1,176.000005371094,2|2,0:0|0:0,0:0:0:0:
37,305,77079,1,10,0:0:0:0:
94,384,77267,2,0,L|67:210,1,176.000005371094,2|2,0:0|0:0,0:0:0:0:
25,47,77829,1,10,0:0:0:0:
14,130,78017,6,0,B|65:134|97:93|97:93|141:72|207:101,1,207.999990478516,6|0,3:2|0:0,0:0:0:0:
277,188,78579,5,4,3:2:0:0:
306,7,78767,1,2,0:0:0:0:
276,201,78954,2,0,L|264:304,1,88.000002685547,2|0,0:0|0:0,0:0:0:0:
206,100,79329,5,4,3:2:0:0:
391,91,79517,1,2,0:0:0:0:
194,98,79704,2,0,L|91:86,1,88.000002685547,2|0,0:0|0:0,0:0:0:0:
226,16,80079,5,4,3:2:0:0:
93,183,80267,1,2,0:0:0:0:
226,0,80455,5,8,0:0:0:0:
253,239,80642,2,0,B|207:222|207:222|161:242,1,95.9999970703126,6|0,3:2|3:0,0:0:0:0:
7,286,81017,6,0,B|118:248|97:350|206:315,1,207.999990478516,6|0,3:2|0:0,0:0:0:0:
51,357,81580,1,10,0:0:0:0:
163,240,81767,2,0,P|163:176|150:61,1,176.000005371094,2|2,0:0|0:0,0:0:0:0:
66,106,82330,1,10,0:0:0:0:
244,61,82517,6,0,B|290:63|322:33|322:33|370:16|417:38,1,176.000005371094,6|2,3:2|3:2,0:0:0:0:
507,211,83080,5,10,3:2:0:0:
277,196,83267,1,2,3:2:0:0:
458,289,83455,5,10,3:2:0:0:
310,282,83642,1,2,3:2:0:0:
379,351,83830,1,10,3:2:0:0:
397,143,84017,6,0,P|385:239|378:359,1,207.999990478516,6|2,3:2|0:0,0:0:0:0:
145,373,84580,5,10,0:0:0:0:
72,302,84767,1,2,0:0:0:0:
242,203,84955,5,0,3:0:0:0:
169,274,85142,1,2,0:0:0:0:
23,133,85330,1,8,0:0:0:0:
97,204,85517,6,0,L|113:109,1,88.000002685547,2|0,0:0|3:0,0:0:0:0:
256,116,85892,2,0,L|242:203,1,88.000002685547,2|10,0:0|0:0,0:0:0:0:
387,202,86267,2,0,L|403:107,1,88.000002685547,2|0,0:0|3:0,0:0:0:0:
347,31,86642,5,2,0:0:0:0:
500,150,86830,1,8,0:0:0:0:
313,249,87017,6,0,B|322:363|322:363|365:403|413:366,1,207.999990478516,4|2,3:2|0:0,0:0:0:0:
387,202,87580,5,10,0:0:0:0:
423,290,87767,1,2,0:0:0:0:
500,150,87955,5,2,3:2:0:0:
464,62,88142,1,2,0:0:0:0:
291,2,88330,1,8,0:0:0:0:
185,153,88517,6,0,B|226:142|226:142|279:165,1,88.000002685547,6|0,3:1|0:0,0:0:0:0:
122,103,88892,2,0,B|91:72|91:72|85:15,1,88.000002685547,2|8,3:1|0:0,0:0:0:0:
111,183,89267,2,0,B|100:224|100:224|53:258,1,88.000002685547,6|0,3:1|0:0,0:0:0:0:
38,142,89642,5,2,3:1:0:0:
184,231,89830,1,8,0:0:0:0:
0,372,90017,6,0,L|212:355,1,207.999990478516,6|0,3:2|3:0,0:0:0:0:
423,384,90580,1,10,0:0:0:0:
314,235,90767,1,0,3:0:0:0:
488,292,90955,1,10,0:0:0:0:
312,334,91142,1,0,3:0:0:0:
314,349,91236,1,0,3:0:0:0:
315,362,91330,1,10,0:0:0:0:
423,200,91517,6,0,B|434:149|406:104|406:104|408:44|486:12,1,207.999990478516,4|0,3:2|3:2,0:0:0:0:
303,98,92080,2,0,B|212:127|230:42|131:75,1,176.000005371094,10|10,0:0|0:0,0:0:0:0:
277,28,92643,1,0,3:0:0:0:
277,28,92736,1,0,3:0:0:0:
277,28,92830,1,10,0:0:0:0:
168,144,93017,6,0,B|160:191|160:191|170:219|170:219|154:305,1,160,6|2,3:2|0:0,0:0:0:0:
24,369,93580,1,2,0:0:0:0:
25,357,93674,1,2,0:0:0:0:
26,345,93767,2,0,P|27:318|21:293,1,40,2|2,0:0|0:0,0:0:0:0:
154,300,93955,1,2,0:0:0:0:
153,312,94049,1,2,0:0:0:0:
152,324,94142,2,0,P|150:350|157:376,1,40,2|2,0:0|0:0,0:0:0:0:
86,249,94330,6,0,L|67:201,1,40,2|0,3:2|0:0,0:0:0:0:
225,249,94517,2,0,L|244:201,1,40,2|0,3:2|0:0,0:0:0:0:
154,165,94705,5,10,3:2:0:0:
244,354,94892,2,0,B|283:344|283:344|341:368,1,80,14|0,3:2|0:0,0:0:0:0:
512,363,95267,2,0,B|474:349|474:349|414:368,1,80,4|0,3:2|0:0,0:0:0:0:
388,173,95642,1,0,3:2:0:0:
376,298,95830,2,0,L|380:257,1,40,0|0,3:2|3:2,0:0:0:0:
375,89,96017,6,0,B|356:123|387:173|387:173|426:187|470:162,1,176.000005371094,6|2,3:2|0:0,0:0:0:0:
454,80,96580,1,10,0:0:0:0:
200,106,96767,6,0,B|180:68|213:15|213:15|256:0|305:23,1,191.999994140625,6|2,3:2|0:0,0:0:0:0:
287,110,97330,1,10,0:0:0:0:
145,279,97517,6,0,B|191:302|240:284|240:284|278:223|236:181,1,207.999990478516,6|2,3:2|0:0,0:0:0:0:
153,195,98080,1,10,0:0:0:0:
44,384,98267,6,0,B|33:326|33:326|41:283|41:283|19:160,1,223.999993164063,6|2,3:2|0:0,0:0:0:0:
15,147,98736,1,2,0:0:0:0:
11,130,98830,1,8,0:0:0:0:
216,57,99017,6,0,B|145:24|145:24|69:61,1,160,4|2,3:2|0:0,0:0:0:0:
149,154,99580,2,0,L|144:104,3,40,2|2|2|2,0:0|0:0|0:0|0:0,0:0:0:0:
126,241,99955,2,0,L|85:270,3,40,2|2|2|2,0:0|0:0|0:0|0:0,0:0:0:0:
212,218,100330,1,2,0:0:0:0:
212,218,100424,1,2,0:0:0:0:
212,218,100518,2,0,L|257:238,1,40,2|0,0:0|3:0,0:0:0:0:
334,285,100705,5,2,3:1:0:0:
259,124,100893,1,2,3:1:0:0:
419,50,101268,1,2,3:1:0:0:
376,167,101643,5,2,3:1:0:0:
376,167,101830,1,2,3:1:0:0:
457,323,102018,1,4,3:2:0:0:
256,192,102205,12,0,108955,0:0:0:0:
