osu file format v14

[General]
AudioFilename: audio.mp3
AudioLeadIn: 0
PreviewTime: 71923
Countdown: 0
SampleSet: Soft
StackLeniency: 0.7
Mode: 0
LetterboxInBreaks: 0
WidescreenStoryboard: 1

[Editor]
Bookmarks: 203,6203,15015,16703,18203,27578,30203,33578,34703,36203,40516,42016,45204,54204,57391,63204,66204,69017,72017,78017,81017,82892,84017,90017,93017,96017,99017,102018,108955
DistanceSpacing: 0.3
BeatDivisor: 4
GridSize: 32
TimelineZoom: 1.2

[Metadata]
Title:Hyakka Ryouran Phantasm Aoi-chan ReMIX
TitleUnicode:百花繚乱ファンタズム 葵ちゃんReMIX
Artist:Satou Shizuku
ArtistUnicode:佐藤しずく
Creator:tomatas95
Version:Hard
Source:鬼ごっこ!ファンディスク
Tags:eroge ALcot Onigokko! Fandisc FD Fan Disk galgame visual novel vn op opening japanese video game Elements Garden Masato jpop j-pop pop Nakayama Seima Iwahashi 浦部 葵 Urabe 南條愛乃 nanjou yoshino
BeatmapID:3992129
BeatmapSetID:1769793

[Difficulty]
HPDrainRate:4
CircleSize:3.3
OverallDifficulty:6
ApproachRate:7.5
SliderMultiplier:1.3
SliderTickRate:1

[Events]
//Background and Video events
Video,-950,"erogedaisukidesu.mp4"
0,0,"AoiKissu.jpg",0,0
//Break Periods
//Storyboard Layer 0 (Background)
//Storyboard Layer 1 (Fail)
//Storyboard Layer 2 (Pass)
//Storyboard Layer 3 (Foreground)
//Storyboard Layer 4 (Overlay)
//Storyboard Sound Samples

[TimingPoints]
203,375.009375234381,4,2,1,50,1,0
203,-125,4,2,1,50,0,0
578,-125,4,2,1,45,0,0
953,-125,4,2,1,50,0,0
1328,-125,4,2,1,45,0,0
1515,-125,4,2,1,50,0,0
1703,-125,4,2,1,55,0,0
1890,-125,4,2,1,50,0,0
2078,-125,4,2,1,45,0,0
2265,-125,4,2,1,50,0,0
2828,-125,4,2,1,45,0,0
3015,-125,4,2,1,50,0,0
3203,-125,4,2,4,55,0,0
3390,-125,4,2,1,50,0,0
3578,-125,4,2,4,45,0,0
3765,-125,4,2,1,50,0,0
3953,-125,4,2,4,45,0,0
4140,-125,4,2,1,50,0,0
4328,-125,4,2,4,45,0,0
4515,-125,4,2,4,50,0,0
4609,-125,4,2,1,50,0,0
4890,-125,4,2,4,55,0,0
6015,-125,4,2,4,60,0,0
6203,-100,4,2,3,75,0,0
6390,-100,4,2,1,70,0,0
6765,-100,4,2,5,70,0,0
6953,-100,4,2,1,70,0,0
7140,-100,4,2,5,70,0,0
8828,-100,4,2,1,55,0,0
8921,-100,4,2,1,60,0,0
9015,-100,4,2,1,65,0,0
9109,-100,4,2,1,70,0,0
9203,-100,4,2,4,75,0,0
9390,-100,4,2,5,70,0,0
11640,-100,4,2,5,65,0,0
11828,-100,4,2,5,60,0,0
12015,-100,4,2,5,70,0,0
12203,-100,4,2,6,75,0,0
12390,-100,4,2,5,70,0,0
12578,-100,4,2,1,70,0,0
12765,-100,4,2,5,70,0,0
14640,-100,4,2,5,65,0,0
14828,-100,4,2,5,60,0,0
15015,-125,4,2,2,75,0,0
15390,-125,4,2,1,50,0,0
15578,-125,4,2,1,55,0,0
15765,-125,4,2,1,60,0,0
15953,-125,4,2,1,65,0,0
16140,-125,4,2,1,70,0,0
16328,-125,4,2,1,75,0,0
16515,-125,4,2,1,80,0,0
16703,-100,4,2,1,85,0,0
17640,-100,4,2,1,75,0,0
18015,-100,4,2,1,5,0,0
18203,-125,4,2,3,70,0,0
18578,-125,4,2,1,55,0,0
19328,-125,4,2,1,50,0,0
19515,-125,4,2,1,55,0,0
20828,-125,4,2,1,50,0,0
21203,-125,4,2,1,55,0,0
22703,-125,4,2,1,50,0,0
23266,-125,4,2,5,50,0,0
23453,-125,4,2,1,50,0,0
23828,-125,4,2,2,45,0,0
24016,-125,4,2,5,45,0,0
24203,-125,4,2,1,60,0,0
24578,-125,4,2,1,55,0,0
25328,-125,4,2,2,45,0,0
25703,-125,4,2,1,55,0,0
26828,-125,4,2,1,50,0,0
27203,-125,4,2,1,45,0,0
27578,-111.111111111111,4,2,3,70,0,0
27953,-111.111111111111,4,2,1,45,0,0
28328,-111.111111111111,4,2,3,70,0,0
28703,-111.111111111111,4,2,1,80,0,0
29078,-111.111111111111,4,2,1,40,0,0
29453,-111.111111111111,4,2,5,50,0,0
29641,-111.111111111111,4,2,5,55,0,0
29828,-111.111111111111,4,2,5,60,0,0
30016,-111.111111111111,4,2,5,65,0,0
30203,-111.111111111111,4,2,4,75,0,0
30578,-111.111111111111,4,2,5,65,0,0
33016,-111.111111111111,4,2,5,60,0,0
33203,-111.111111111111,4,2,5,55,0,0
33578,-100,4,2,3,75,0,0
33953,-100,4,2,5,55,0,0
34328,-100,4,2,3,75,0,0
34703,-100,4,2,4,80,0,0
35078,-100,4,2,5,65,0,0
35828,-100,4,2,3,75,0,0
36016,-100,4,2,5,65,0,0
36203,-100,4,2,4,80,0,0
36578,-100,4,2,5,65,0,0
38078,-100,4,2,5,70,0,0
38828,-100,4,2,5,65,0,0
39016,-100,4,2,5,70,0,0
39203,-100,4,2,1,75,0,0
39578,-100,4,2,5,70,0,0
40516,-100,4,2,3,75,0,0
40891,-100,4,2,5,70,0,0
41079,-100,4,2,5,75,0,0
41829,-100,4,2,5,50,0,0
42016,-100,4,2,5,75,0,0
42391,-100,4,2,5,70,0,0
43516,-100,4,2,1,75,0,0
43891,-100,4,2,5,70,0,0
44454,-100,4,2,5,65,0,0
44829,-100,4,2,5,60,0,0
45204,-111.111111111111,4,2,3,75,0,0
45579,-111.111111111111,4,2,1,60,0,0
46141,-111.111111111111,4,2,1,55,0,0
46516,-111.111111111111,4,2,1,60,0,0
47829,-111.111111111111,4,2,1,55,0,0
48204,-111.111111111111,4,2,1,60,0,0
50641,-111.111111111111,4,2,9,50,0,0
51204,-111.111111111111,4,2,1,60,0,0
52141,-111.111111111111,4,2,1,55,0,0
52516,-111.111111111111,4,2,1,60,0,0
54204,-100,4,2,3,75,0,0
54579,-100,4,2,5,65,0,0
54766,-100,4,2,3,75,0,0
55141,-100,4,2,5,65,0,0
55516,-100,4,2,4,80,0,0
55891,-100,4,2,5,70,0,0
56641,-100,4,2,5,65,0,0
56829,-100,4,2,5,60,0,0
57016,-100,4,2,5,55,0,0
57204,-100,4,2,5,50,0,0
57391,-100,4,2,5,50,0,0
57579,-100,4,2,3,80,0,0
58141,-100,4,2,8,65,0,0
58516,-100,4,2,4,80,0,0
58891,-100,4,2,5,75,0,0
59829,-100,4,2,5,70,0,0
60016,-100,4,2,5,65,0,0
60204,-100,4,2,5,60,0,0
60579,-100,4,2,3,80,0,0
61141,-100,4,2,8,65,0,0
61516,-100,4,2,4,80,0,0
61892,-100,4,2,5,70,0,0
62829,-100,4,2,5,65,0,0
63017,-100,4,2,5,60,0,0
63204,-111.111111111111,4,2,3,75,0,0
63579,-111.111111111111,4,2,5,70,0,0
65829,-111.111111111111,4,2,1,65,0,0
66204,-100,4,2,1,75,0,0
66579,-100,4,2,5,70,0,0
67704,-100,4,2,5,75,0,0
68454,-100,4,2,5,80,0,0
68642,-100,4,2,8,80,0,0
69017,-100,4,2,3,80,0,0
69392,-100,4,2,1,50,0,0
69579,-100,4,2,1,55,0,0
69767,-100,4,2,1,60,0,0
69954,-100,4,2,1,65,0,0
70142,-100,4,2,1,70,0,0
70329,-100,4,2,1,75,0,0
70517,-100,4,2,1,80,0,0
70704,-100,4,2,1,60,0,0
70892,-100,4,2,1,65,0,0
71079,-100,4,2,1,70,0,0
71267,-100,4,2,1,75,0,0
71454,-100,4,2,1,70,0,0
71642,-100,4,2,1,75,0,0
72017,-90.9090909090909,4,2,6,85,0,1
72392,-90.9090909090909,4,2,5,80,0,1
73517,-90.9090909090909,4,2,4,80,0,1
73704,-90.9090909090909,4,2,5,80,0,1
73892,-90.9090909090909,4,2,4,80,0,1
74079,-90.9090909090909,4,2,5,80,0,1
74267,-90.9090909090909,4,2,4,80,0,1
74454,-90.9090909090909,4,2,5,80,0,1
74642,-90.9090909090909,4,2,4,75,0,1
74829,-90.9090909090909,4,2,5,80,0,1
75017,-90.9090909090909,4,2,4,85,0,1
75392,-90.9090909090909,4,2,5,80,0,1
76517,-90.9090909090909,4,2,4,80,0,1
76704,-90.9090909090909,4,2,5,80,0,1
77267,-90.9090909090909,4,2,4,75,0,1
77454,-90.9090909090909,4,2,5,80,0,1
78017,-90.9090909090909,4,2,3,85,0,1
78392,-90.9090909090909,4,2,3,80,0,1
78579,-90.9090909090909,4,2,8,85,0,1
78767,-90.9090909090909,4,2,5,80,0,1
79329,-90.9090909090909,4,2,8,85,0,1
79517,-90.9090909090909,4,2,5,80,0,1
80079,-90.9090909090909,4,2,8,85,0,1
80267,-90.9090909090909,4,2,5,80,0,1
80455,-90.9090909090909,4,2,8,70,0,1
80642,-90.9090909090909,4,2,8,80,0,1
80830,-90.9090909090909,4,2,5,70,0,1
81017,-90.9090909090909,4,2,6,85,0,1
81392,-90.9090909090909,4,2,5,80,0,1
81955,-90.9090909090909,4,2,5,70,0,1
82142,-90.9090909090909,4,2,5,75,0,1
82330,-90.9090909090909,4,2,5,80,0,1
82517,-90.9090909090909,4,2,3,85,0,1
82892,-100,4,2,4,85,0,0
83080,-100,4,2,4,80,0,0
83267,-100,4,2,4,75,0,0
83455,-100,4,2,4,70,0,0
83642,-100,4,2,4,65,0,0
83830,-100,4,2,4,60,0,0
84017,-90.9090909090909,4,2,6,85,0,1
84392,-90.9090909090909,4,2,5,80,0,1
85517,-90.9090909090909,4,2,4,80,0,1
85704,-90.9090909090909,4,2,5,80,0,1
85892,-90.9090909090909,4,2,4,80,0,1
86079,-90.9090909090909,4,2,5,80,0,1
86267,-90.9090909090909,4,2,4,80,0,1
86454,-90.9090909090909,4,2,5,80,0,1
86642,-90.9090909090909,4,2,4,75,0,1
86830,-90.9090909090909,4,2,5,80,0,1
87017,-90.9090909090909,4,2,4,85,0,1
87392,-90.9090909090909,4,2,5,80,0,1
88517,-90.9090909090909,4,2,3,85,0,1
89080,-90.9090909090909,4,2,8,75,0,1
89267,-90.9090909090909,4,2,3,85,0,1
89830,-90.9090909090909,4,2,8,75,0,1
90017,-90.9090909090909,4,2,4,85,0,1
90392,-90.9090909090909,4,2,6,80,0,1
91517,-90.9090909090909,4,2,4,85,0,1
91892,-90.9090909090909,4,2,6,80,0,1
93017,-111.111111111111,4,2,3,85,0,1
93392,-111.111111111111,4,2,1,55,0,1
93580,-111.111111111111,4,2,1,60,0,1
93767,-111.111111111111,4,2,1,65,0,1
93955,-111.111111111111,4,2,1,70,0,1
94142,-111.111111111111,4,2,1,75,0,1
94330,-111.111111111111,4,2,1,80,0,1
94705,-111.111111111111,4,2,1,85,0,1
94892,-111.111111111111,4,2,8,85,0,1
95080,-111.111111111111,4,2,5,60,0,1
95267,-111.111111111111,4,2,8,85,0,1
95642,-111.111111111111,4,2,5,70,0,1
95830,-111.111111111111,4,2,5,75,0,1
96017,-100,4,2,5,80,0,0
96392,-100,4,2,4,65,0,0
96767,-100,4,2,3,70,0,0
97142,-100,4,2,4,70,0,0
97517,-100,4,2,3,75,0,0
97892,-100,4,2,4,75,0,0
98267,-100,4,2,3,80,0,0
98642,-100,4,2,4,70,0,0
98736,-100,4,2,5,70,0,0
98830,-100,4,2,4,70,0,0
99017,-125,4,2,4,75,0,0
99392,-125,4,2,1,50,0,0
99580,-125,4,2,1,55,0,0
99767,-125,4,2,1,60,0,0
99955,-125,4,2,1,65,0,0
100142,-125,4,2,1,70,0,0
100330,-125,4,2,1,75,0,0
100517,-125,4,2,1,80,0,0
100705,-125,4,2,1,85,0,0
101643,-125,4,2,1,65,0,0
101830,-125,4,2,1,70,0,0
102018,-100,4,2,3,85,0,0
102205,-100,4,2,5,85,0,0
102580,-100,4,2,5,80,0,0
102955,-100,4,2,5,75,0,0
103330,-100,4,2,5,70,0,0
103705,-100,4,2,5,65,0,0
104080,-100,4,2,5,60,0,0
104455,-100,4,2,5,55,0,0
104830,-100,4,2,5,50,0,0
105205,-100,4,2,5,45,0,0
105580,-100,4,2,5,40,0,0
106330,-100,4,2,5,35,0,0
107080,-100,4,2,5,30,0,0
107455,-100,4,2,5,25,0,0
107830,-100,4,2,5,20,0,0
108205,-100,4,2,5,15,0,0
108580,-100,4,2,5,10,0,0
108955,-100,4,2,5,5,0,0

[Colours]
Combo1 : 250,231,156
Combo2 : 219,250,112
Combo3 : 252,160,252
Combo4 : 143,214,252

[HitObjects]
408,31,203,6,0,L|512:42,2,104,2|10|2,3:2|0:0|3:2,0:0:0:0:
423,118,1140,2,0,L|474:123,1,52,0|8,3:0|0:0,0:0:0:0:
497,210,1515,2,0,L|393:199,1,104,2|2,3:2|0:0,0:0:0:0:
314,223,2078,1,10,0:0:0:0:
314,223,2265,2,0,P|310:190|319:165,1,52,2|2,0:0|3:2,0:0:0:0:
246,121,2640,2,0,P|250:88|241:63,1,52,0|8,3:0|0:0,0:0:0:0:
189,11,3015,6,0,B|132:-6|143:40|79:20,1,104,2|2,3:2|0:0,0:0:0:0:
12,56,3578,2,0,P|6:17|13:-7,2,52,10|2|2,0:0|0:0|3:2,0:0:0:0:
84,107,4140,2,0,P|86:132|80:157,1,52,0|10,3:0|0:0,0:0:0:0:
32,229,4515,6,0,P|66:213|134:235,1,104,2|2,3:2|0:0,0:0:0:0:
84,302,5078,1,10,0:0:0:0:
84,302,5265,2,0,L|76:358,2,52,2|2|2,0:0|3:2|3:2,0:0:0:0:
127,229,5828,1,8,3:3:0:0:
192,286,6015,1,8,3:3:0:0:
194,293,6109,1,8,3:3:0:0:
195,302,6203,6,0,B|206:372|206:372|241:383|271:371,1,130,6|8,3:2|0:0,0:0:0:0:
348,350,6765,2,0,B|417:328|404:385|472:363,1,130,2|2,0:0|0:0,0:0:0:0:
446,278,7328,1,10,0:0:0:0:
507,213,7515,6,0,B|515:116|515:116|487:79,1,130,2|2,0:0|0:0,0:0:0:0:
426,34,8078,1,8,0:0:0:0:
343,66,8265,1,2,0:0:0:0:
413,122,8453,2,0,L|404:199,1,65,2|0,3:2|0:0,0:0:0:0:
314,228,8828,2,0,L|321:163,1,65,10|2,0:2|0:0,0:0:0:0:
373,289,9203,6,0,P|318:315|249:284,1,130,6|8,3:2|0:0,0:0:0:0:
219,213,9765,2,0,L|234:79,1,130,2|2,0:0|0:0,0:0:0:0:
200,2,10328,1,8,0:0:0:0:
118,42,10515,6,0,B|81:39|56:18|56:18|27:44|-15:42,1,130,2|2,0:0|0:0,0:0:0:0:
60,116,11078,1,10,0:0:0:0:
60,116,11265,1,2,0:0:0:0:
13,196,11453,2,0,P|18:236|22:279,1,65,2|2,3:2|0:0,0:0:0:0:
25,349,11828,1,10,0:0:0:0:
116,357,12015,1,8,0:0:0:0:
117,347,12109,1,8,0:0:0:0:
117,337,12203,6,0,P|123:269|132:202,1,130,6|8,3:2|0:0,0:0:0:0:
175,127,12765,2,0,B|244:105|231:162|299:140,1,130,2|2,0:0|0:0,0:0:0:0:
370,85,13328,1,8,0:0:0:0:
450,143,13515,6,0,L|435:273,1,130,2|2,0:0|0:0,0:0:0:0:
482,353,14078,1,10,0:2:0:0:
389,354,14265,1,2,0:0:0:0:
342,273,14453,2,0,L|349:208,2,65,2|2|8,3:2|0:0|0:0,0:0:0:0:
277,348,15015,6,0,B|261:319|218:305|166:340|206:340|202:394|126:454|1:411|5:265|80:219|144:226|169:253,1,416,6|0,3:2|0:0,0:0:0:0:
164,249,16703,5,10,3:1:0:0:
248,199,16890,1,10,3:1:0:0:
191,12,17265,1,10,3:1:0:0:
58,155,17640,2,0,B|50:200|50:200|57:219|57:219|47:287,1,130,10|0,3:1|0:0,0:0:0:0:
0,349,18203,6,0,B|48:326|48:326|112:359,1,104,6|0,3:2|0:0,0:0:0:0:
178,323,18765,2,0,L|175:375,1,52,2|2,0:0|0:0,0:0:0:0:
346,364,19515,6,0,L|351:309,2,52,2|2|2,0:0|0:0|0:0,0:0:0:0:
261,370,20078,1,2,0:0:0:0:
433,377,20453,1,2,0:0:0:0:
354,224,20828,2,0,L|359:169,1,52,2|2,0:0|0:0,0:0:0:0:
295,112,21203,6,0,P|257:117|238:113,1,52,2|0,0:0|0:0,0:0:0:0:
337,42,21578,2,0,P|313:11|307:-6,1,52,2|0,0:0|0:0,0:0:0:0:
416,46,21953,2,0,P|430:10|443:-3,1,52,2|0,0:0|0:0,0:0:0:0:
432,129,22328,2,0,P|470:123|489:128,1,52,2|0,0:0|0:0,0:0:0:0:
466,206,22703,6,0,P|460:252|459:330,1,104,2|0,0:0|0:0,0:0:0:0:
367,334,23266,1,2,0:0:0:0:
367,334,23453,2,0,P|365:282|359:230,1,104,2|0,0:0|0:0,0:0:0:0:
289,89,24203,2,0,P|255:78|181:113,1,104,6|0,3:2|0:0,0:0:0:0:
250,159,24766,2,0,L|263:230,1,52,2|2,0:0|0:0,0:0:0:0:
252,364,25516,1,2,0:0:0:0:
252,364,25703,6,0,P|218:357|195:360,1,52,2|2,3:2|3:2,0:0:0:0:
113,384,26078,2,0,L|125:270,1,104,2|2,0:0|0:0,0:0:0:0:
34,150,26828,2,0,P|61:142|88:149,1,52,2|2,0:0|0:0,0:0:0:0:
65,226,27203,1,2,0:2:0:0:
111,68,27578,6,0,P|53:58|0:77,1,116.999996429443,6|2,3:1|0:2,0:0:0:0:
190,32,28328,2,0,P|221:24|250:32,1,58.4999982147217,6|0,3:1|0:0,0:0:0:0:
225,111,28703,5,8,0:2:0:0:
225,111,28891,1,8,0:2:0:0:
484,32,30203,6,0,B|417:31|417:31|397:54|410:86,1,116.999996429443,4|10,3:2|0:0,0:0:0:0:
487,136,30766,1,2,0:0:0:0:
487,136,30953,2,0,P|479:184|476:277,1,116.999996429443,2|10,3:2|0:0,0:0:0:0:
495,339,31516,1,2,0:0:0:0:
415,375,31703,6,0,L|358:366,1,58.4999982147217,2|2,3:2|0:0,0:0:0:0:
287,311,32078,2,0,L|296:254,1,58.4999982147217,10|0,0:0|0:0,0:0:0:0:
351,183,32453,2,0,L|408:192,1,58.4999982147217,2|0,3:2|0:0,0:0:0:0:
475,252,32828,1,10,0:0:0:0:
493,163,33016,1,2,0:0:0:0:
425,103,33203,1,2,3:2:0:0:
262,170,33578,6,0,B|258:124|258:124|263:102|263:102|253:36,1,130,6|2,3:1|3:2,0:0:0:0:
172,0,34141,1,0,0:0:0:0:
90,42,34328,2,0,P|51:50|20:39,1,65,6|0,3:1|0:0,0:0:0:0:
0,154,34703,6,0,P|53:130|127:166,1,130,4|8,3:2|0:0,0:0:0:0:
61,220,35266,1,2,0:0:0:0:
61,220,35453,2,0,L|48:380,1,130,2|6,3:2|3:1,0:0:0:0:
135,371,36016,1,8,0:0:0:0:
135,361,36110,1,8,0:0:0:0:
135,351,36203,6,0,B|171:343|200:356|200:356|225:326|210:284,1,130,4|8,3:2|0:0,0:0:0:0:
163,226,36766,1,2,0:0:0:0:
216,159,36953,2,0,L|345:169,1,130,2|8,3:2|0:0,0:0:0:0:
432,131,37516,1,2,0:0:0:0:
503,199,37703,6,0,P|498:239|497:268,1,65,2|2,3:2|0:0,0:0:0:0:
476,357,38078,2,0,P|450:337|423:319,1,65,10|0,0:0|0:0,0:0:0:0:
352,254,38453,2,0,P|382:241|410:226,1,65,2|0,3:2|0:0,0:0:0:0:
423,319,38828,1,10,0:2:0:0:
423,319,39016,1,2,0:0:0:0:
322,353,39203,6,0,B|253:331|266:388|198:366,1,130,6|10,3:2|0:0,0:0:0:0:
121,326,39766,1,2,0:0:0:0:
36,370,39953,2,0,P|34:324|17:238,1,130,2|8,3:2|0:0,0:0:0:0:
121,326,40516,6,0,P|125:261|138:197,1,130,6|0,3:2|0:0,0:0:0:0:
208,142,41079,1,10,0:0:0:0:
174,62,41267,1,2,3:2:0:0:
86,69,41454,1,10,3:2:0:0:
68,155,41641,2,0,L|0:148,1,65,10|8,3:2|0:0,0:0:0:0:
138,197,42016,6,0,P|199:202|281:221,1,130,6|2,3:2|0:0,0:0:0:0:
346,253,42579,2,0,P|352:212|339:176,1,65,10|0,0:2|0:0,0:0:0:0:
422,142,42954,2,0,P|389:116|351:109,1,65,2|0,0:0|3:0,0:0:0:0:
289,132,43329,1,10,0:0:0:0:
289,132,43516,6,0,P|289:68|280:-1,1,130,6|0,3:2|3:0,0:0:0:0:
369,16,44079,1,10,0:0:0:0:
369,16,44266,2,0,B|403:22|403:22|446:12,1,65,2|2,3:2|3:2,0:0:0:0:
510,62,44641,1,2,0:0:0:0:
493,148,44829,1,10,0:0:0:0:
493,148,45016,1,2,0:0:0:0:
416,183,45204,6,0,B|370:181|370:181|350:173|350:173|292:172,1,116.999996429443,6|0,3:2|0:0,0:0:0:0:
227,135,45766,2,0,P|220:174|227:201,1,58.4999982147217,2|2,3:2|0:0,0:0:0:0:
279,249,46141,1,2,0:0:0:0:
157,355,46516,6,0,P|106:340|41:362,1,116.999996429443,2|2,3:2|0:0,0:0:0:0:
22,273,47079,2,0,P|40:250|52:212,1,58.4999982147217,2|0,0:0|3:0,0:0:0:0:
147,219,47454,2,0,P|157:246|184:275,1,58.4999982147217,2|0,0:0|3:0,0:0:0:0:
157,355,47829,1,2,0:0:0:0:
337,370,48204,6,0,P|394:360|452:370,1,116.999996429443,2|0,3:2|0:0,0:0:0:0:
449,283,48766,1,2,3:2:0:0:
449,283,48954,2,0,P|391:273|330:284,1,116.999996429443,2|0,0:0|0:0,0:0:0:0:
250,361,49516,6,0,L|258:231,1,116.999996429443,2|2,3:2|0:0,0:0:0:0:
330,200,50079,2,0,L|338:70,1,116.999996429443,2|2,0:0|0:0,0:0:0:0:
420,27,50641,1,8,0:0:0:0:
420,27,50829,1,8,0:0:0:0:
256,25,51204,6,0,B|216:23|216:23|188:37|188:37|126:26,1,116.999996429443,2|0,3:2|0:0,0:0:0:0:
60,57,51766,1,2,3:2:0:0:
60,57,51954,2,0,P|56:28|63:0,1,58.4999982147217,0|2,0:2|0:0,0:0:0:0:
12,132,52516,6,0,P|21:179|22:263,1,116.999996429443,2|2,3:2|3:2,0:0:0:0:
10,335,53079,2,0,P|43:328|69:336,1,58.4999982147217,2|0,0:0|3:0,0:0:0:0:
178,384,53454,2,0,P|155:358|149:332,1,58.4999982147217,2|0,0:0|3:0,0:0:0:0:
137,215,53829,2,0,P|126:247|106:265,1,58.4999982147217,2|0,0:0|3:0,0:0:0:0:
204,167,54204,6,0,P|153:129|91:142,1,130,6|2,3:2|3:2,0:0:0:0:
6,62,54766,2,0,P|57:24|119:36,1,130,6|2,3:2|3:2,0:0:0:0:
203,2,55329,1,10,0:0:0:0:
263,95,55516,6,0,B|301:99|325:91|325:91|352:64|329:21,1,130,4|2,3:2|0:0,0:0:0:0:
417,0,56079,1,8,0:0:0:0:
483,77,56266,1,8,0:0:0:0:
483,77,56454,2,0,P|478:118|478:153,1,65,2|2,3:2|3:2,0:0:0:0:
497,228,56829,1,10,0:0:0:0:
410,248,57016,1,2,0:0:0:0:
390,161,57204,1,2,0:0:0:0:
472,313,57579,6,0,B|444:324|428:354|428:354|388:373|348:351,1,130,6|0,3:2|0:0,0:0:0:0:
282,320,58141,2,0,P|278:352|282:387,1,65,6|0,3:2|0:0,0:0:0:0:
185,384,58516,6,0,P|184:319|168:255,1,130,4|2,3:2|0:0,0:0:0:0:
213,181,59079,2,0,L|277:173,1,65,2|0,0:0|3:0,0:0:0:0:
138,136,59454,2,0,L|130:72,1,65,2|0,0:0|3:0,0:0:0:0:
92,210,59829,2,0,L|28:218,1,65,2|0,0:0|3:0,0:0:0:0:
166,256,60204,1,2,0:0:0:0:
1,359,60579,6,0,B|42:355|42:355|65:369|65:369|127:357,1,130,6|0,3:2|0:0,0:0:0:0:
217,384,61142,2,0,L|224:310,1,65,6|0,3:2|0:0,0:0:0:0:
324,252,61517,6,0,L|311:381,2,130,4|2|2,3:2|3:2|3:2,0:0:0:0:
401,208,62454,1,2,0:0:0:0:
401,208,62642,1,2,3:2:0:0:
324,163,62830,1,2,0:0:0:0:
324,163,63017,1,2,3:2:0:0:
228,209,63204,6,0,P|173:201|93:195,1,116.999996429443,6|0,3:2|0:0,0:0:0:0:
36,236,63767,2,0,L|42:265,2,29.2499991073609,0|0|10,3:0|3:0|0:0,0:0:0:0:
0,159,64142,1,2,0:0:0:0:
0,159,64329,1,2,0:0:0:0:
75,118,64517,6,0,P|75:85|65:48,1,58.4999982147217,2|2,3:2|3:2,0:0:0:0:
148,11,64892,2,0,P|176:27|213:37,1,58.4999982147217,2|0,0:0|0:0,0:0:0:0:
248,102,65267,2,0,P|282:56|277:0,1,116.999996429443,2|2,3:2|0:0,0:0:0:0:
200,35,65829,1,0,3:3:0:0:
163,112,66017,1,0,3:3:0:0:
165,120,66110,1,0,3:3:0:0:
167,129,66204,6,0,B|178:168|178:200|178:200|214:213|236:203,1,130,6|10,3:2|0:0,0:0:0:0:
330,212,66767,1,0,0:0:0:0:
330,212,66954,2,0,L|318:283,1,65,2|0,3:2|0:0,0:0:0:0:
368,349,67329,2,0,L|432:359,1,65,10|0,0:0|0:0,0:0:0:0:
502,311,67704,2,0,L|512:246,1,65,2|0,3:2|0:0,0:0:0:0:
466,174,68079,2,0,L|401:163,1,65,10|0,0:0|0:0,0:0:0:0:
415,261,68454,5,10,0:0:0:0:
415,261,68642,1,14,0:0:0:0:
511,89,69017,6,0,L|376:66,1,130,6|2,3:2|0:0,0:0:0:0:
313,11,69579,1,2,0:0:0:0:
313,11,69767,1,2,0:0:0:0:
257,80,69954,2,0,L|181:74,1,65,2|2,0:0|0:0,0:0:0:0:
326,136,70329,2,0,L|320:212,1,65,2|2,0:0|0:0,0:0:0:0:
382,67,70704,1,2,3:2:0:0:
238,165,71267,6,0,B|169:143|182:200|114:178,1,130,6|10,3:2|0:0,0:0:0:0:
104,176,71736,1,10,0:0:0:0:
94,173,71829,1,10,0:0:0:0:
7,216,72017,6,0,P|16:281|22:366,1,143.000004364014,6|2,3:2|0:0,0:0:0:0:
121,361,72579,2,0,P|123:325|128:289,1,71.5000021820069,10|2,0:0|0:0,0:0:0:0:
190,225,72954,1,2,3:2:0:0:
190,225,73142,1,2,0:0:0:0:
210,304,73329,1,8,0:0:0:0:
272,241,73516,6,0,P|309:234|351:248,1,71.5000021820069,2|0,0:0|3:0,0:0:0:0:
412,189,73892,2,0,P|387:160|378:117,1,71.5000021820069,2|8,0:0|0:0,0:0:0:0:
297,94,74267,2,0,P|284:129|251:158,1,71.5000021820069,2|0,0:0|3:0,0:0:0:0:
371,47,74642,1,2,0:0:0:0:
371,47,74829,1,8,0:0:0:0:
249,20,75017,6,0,B|204:19|204:19|171:33|171:33|110:17,1,143.000004364014,6|2,3:2|0:0,0:0:0:0:
20,15,75579,2,0,P|26:53|28:98,1,71.5000021820069,10|2,0:0|0:0,0:0:0:0:
6,169,75954,1,2,3:2:0:0:
6,169,76142,1,2,0:0:0:0:
89,190,76329,1,8,0:0:0:0:
110,107,76517,6,0,B|187:82|172:146|249:121,1,143.000004364014,2|2,0:0|0:0,0:0:0:0:
329,90,77079,1,10,0:0:0:0:
401,136,77267,2,0,P|414:81|352:8,1,143.000004364014,2|2,0:0|0:0,0:0:0:0:
473,2,77829,1,10,0:0:0:0:
504,96,78017,6,0,B|495:145|495:145|502:168|502:168|484:238,1,143.000004364014,6|0,3:2|0:0,0:0:0:0:
471,344,78579,2,0,B|453:313|453:313|411:298,1,71.5000021820069,6|2,3:2|0:0,0:0:0:0:
399,382,78954,2,0,L|315:371,1,71.5000021820069,2|0,3:2|0:0,0:0:0:0:
185,344,79329,2,0,B|203:313|203:313|244:298,1,71.5000021820069,6|2,3:2|0:0,0:0:0:0:
257,382,79704,6,0,L|341:371,1,71.5000021820069,2|0,3:2|0:0,0:0:0:0:
330,272,80079,1,6,3:2:0:0:
330,272,80267,1,2,0:0:0:0:
236,300,80455,1,10,3:2:0:0:
263,199,80642,2,0,L|251:96,1,71.5000021820069,6|0,3:2|3:0,0:0:0:0:
252,21,81017,6,0,B|173:-5|188:60|110:35,1,143.000004364014,6|0,3:2|0:0,0:0:0:0:
26,19,81580,1,10,0:0:0:0:
6,109,81767,2,0,P|13:163|21:267,1,143.000004364014,2|2,0:0|0:0,0:0:0:0:
72,332,82330,1,10,0:0:0:0:
141,270,82517,6,0,P|146:198|155:127,1,143.000004364014,6|2,3:2|3:2,0:0:0:0:
236,94,83080,1,10,3:2:0:0:
317,137,83267,2,0,P|320:93|331:50,2,65,0|10|2,3:2|3:2|3:2,0:0:0:0:
247,196,83830,1,10,0:0:0:0:
259,300,84017,6,0,B|304:299|327:311|327:311|357:347|396:340,1,143.000004364014,6|2,3:2|0:0,0:0:0:0:
481,384,84580,2,0,P|479:344|486:302,1,71.5000021820069,10|2,0:0|0:0,0:0:0:0:
505,231,84955,1,0,3:0:0:0:
505,231,85142,1,2,0:0:0:0:
445,171,85329,1,8,0:0:0:0:
364,193,85517,6,0,P|328:185|286:179,1,71.5000021820069,2|0,0:0|3:0,0:0:0:0:
239,107,85892,2,0,P|246:71|253:29,1,71.5000021820069,2|10,0:0|0:0,0:0:0:0:
335,3,86267,2,0,P|370:10|413:17,1,71.5000021820069,2|0,0:0|3:0,0:0:0:0:
349,102,86642,1,2,0:0:0:0:
349,102,86830,1,8,0:0:0:0:
252,36,87017,6,0,L|91:23,1,143.000004364014,4|2,3:2|0:0,0:0:0:0:
19,30,87580,2,0,P|24:70|27:105,1,71.5000021820069,10|2,0:0|0:0,0:0:0:0:
0,185,87955,1,2,3:2:0:0:
0,185,88142,1,2,0:0:0:0:
84,211,88330,1,8,0:0:0:0:
110,127,88517,6,0,B|141:117|141:117|183:131,1,71.5000021820069,6|0,3:1|0:0,0:0:0:0:
269,210,88892,2,0,B|238:200|238:200|196:214,1,71.5000021820069,2|8,3:1|0:0,0:0:0:0:
110,293,89267,2,0,B|141:283|141:283|183:297,1,71.5000021820069,6|0,3:1|0:0,0:0:0:0:
143,372,89642,1,2,3:1:0:0:
143,372,89830,1,8,0:0:0:0:
33,371,90017,6,0,B|24:330|24:330|26:294|26:294|14:226,1,143.000004364014,6|0,3:2|3:0,0:0:0:0:
0,142,90580,1,10,0:0:0:0:
84,174,90767,2,0,L|95:93,1,71.5000021820069,0|10,3:0|0:0,0:0:0:0:
29,42,91142,1,0,3:0:0:0:
31,31,91236,1,0,3:0:0:0:
34,20,91330,1,8,0:0:0:0:
132,21,91517,6,0,B|209:-3|194:60|271:35,1,143.000004364014,4|0,3:2|3:2,0:0:0:0:
385,109,92080,2,0,B|307:84|322:148|245:123,1,143.000004364014,10|10,0:0|0:0,0:0:0:0:
165,145,92642,1,0,3:0:0:0:
165,155,92736,1,0,3:0:0:0:
165,165,92830,1,10,0:0:0:0:
212,245,93017,6,0,B|323:256|393:382|393:382|411:238|508:189,1,467.999985717774,6|2,3:2|3:2,0:0:0:0:
436,113,94705,5,10,3:2:0:0:
491,28,94892,1,14,3:2:0:0:
506,191,95267,1,4,3:2:0:0:
340,124,95642,1,0,3:2:0:0:
403,212,95830,1,0,3:2:0:0:
403,220,95924,1,0,3:2:0:0:
404,229,96017,6,0,P|395:290|391:377,1,130,6|2,3:2|0:0,0:0:0:0:
305,316,96580,1,10,0:0:0:0:
221,358,96767,2,0,P|216:293|208:228,1,130,6|2,3:2|0:0,0:0:0:0:
155,154,97330,1,10,0:0:0:0:
63,168,97517,6,0,B|29:171|7:196|7:196|24:231|15:273,1,130,6|2,3:2|0:0,0:0:0:0:
0,354,98080,1,10,0:0:0:0:
97,344,98267,2,0,B|166:322|153:379|221:357,1,130,6|2,3:2|0:0,0:0:0:0:
230,356,98736,1,2,0:0:0:0:
239,355,98830,1,8,0:0:0:0:
363,333,99017,6,0,B|374:345|358:371|358:371|320:363|305:326|319:295|349:272|349:272|314:257|288:221|296:145|359:127|423:143|428:207,1,416,4|2,3:2|0:0,0:0:0:0:
426,194,100705,5,10,3:1:0:0:
489,101,100893,1,10,3:1:0:0:
491,295,101268,1,2,3:1:0:0:
321,199,101643,5,2,3:1:0:0:
426,194,101830,1,2,3:1:0:0:
370,106,102018,1,4,3:2:0:0:
256,192,102205,12,0,108955,0:0:0:0:
