osu file format v14

[General]
AudioFilename: audio.mp3
AudioLeadIn: 0
PreviewTime: 71923
Countdown: 0
SampleSet: Soft
StackLeniency: 0.7
Mode: 0
LetterboxInBreaks: 0
WidescreenStoryboard: 0

[Editor]
Bookmarks: 203,6203,15015,16703,18203,27578,30203,33578,34703,36203,40516,42016,45204,54204,57391,63204,66204,69017,72017,78017,81017,82892,84017,90017,93017,96017,99017,102018,108955
DistanceSpacing: 0.9
BeatDivisor: 4
GridSize: 32
TimelineZoom: 1.2

[Metadata]
Title:Hyakka Ryouran Phantasm Aoi-chan ReMIX
TitleUnicode:百花繚乱ファンタズム 葵ちゃんReMIX
Artist:Satou Shizuku
ArtistUnicode:佐藤しずく
Creator:tomatas95
Version:Easy
Source:鬼ごっこ!ファンディスク
Tags:eroge ALcot Onigokko! Fandisc FD Fan Disk galgame visual novel vn op opening japanese video game Elements Garden Masato jpop j-pop pop Nakayama Seima Iwahashi 浦部 葵 Urabe 南條愛乃 nanjou yoshino
BeatmapID:3992128
BeatmapSetID:1769793

[Difficulty]
HPDrainRate:2
CircleSize:2.5
OverallDifficulty:2
ApproachRate:3
SliderMultiplier:1
SliderTickRate:1

[Events]
//Background and Video events
Video,-950,"erogedaisukidesu.mp4"
0,0,"KanaPeko.jpg",0,0
//Break Periods
//Storyboard Layer 0 (Background)
//Storyboard Layer 1 (Fail)
//Storyboard Layer 2 (Pass)
//Storyboard Layer 3 (Foreground)
//Storyboard Layer 4 (Overlay)
//Storyboard Sound Samples

[TimingPoints]
203,375.009375234381,4,2,1,50,1,0
203,-100,4,2,1,50,0,0
578,-100,4,2,1,45,0,0
953,-100,4,2,1,50,0,0
1328,-100,4,2,1,45,0,0
1515,-100,4,2,1,50,0,0
1703,-100,4,2,1,55,0,0
1890,-100,4,2,1,50,0,0
2078,-100,4,2,1,45,0,0
2265,-100,4,2,1,50,0,0
2828,-100,4,2,1,45,0,0
3015,-100,4,2,1,50,0,0
3203,-100,4,2,4,55,0,0
3390,-100,4,2,1,50,0,0
3578,-100,4,2,4,45,0,0
3765,-100,4,2,1,50,0,0
3953,-100,4,2,4,45,0,0
4140,-100,4,2,1,50,0,0
4328,-100,4,2,4,45,0,0
4515,-100,4,2,4,50,0,0
4609,-100,4,2,1,50,0,0
4890,-100,4,2,4,55,0,0
6015,-100,4,2,4,60,0,0
6203,-100,4,2,3,75,0,0
6390,-100,4,2,1,70,0,0
6765,-100,4,2,5,70,0,0
6953,-100,4,2,1,70,0,0
7140,-100,4,2,5,70,0,0
8828,-100,4,2,1,55,0,0
8921,-100,4,2,1,60,0,0
9015,-100,4,2,1,65,0,0
9109,-100,4,2,1,70,0,0
9203,-100,4,2,4,75,0,0
9390,-100,4,2,5,70,0,0
11640,-100,4,2,5,65,0,0
11828,-100,4,2,5,60,0,0
12015,-100,4,2,5,70,0,0
12203,-100,4,2,6,75,0,0
12390,-100,4,2,5,70,0,0
12578,-100,4,2,1,70,0,0
12765,-100,4,2,5,70,0,0
14640,-100,4,2,5,65,0,0
14828,-100,4,2,5,60,0,0
15015,-100,4,2,2,75,0,0
15390,-100,4,2,1,50,0,0
15578,-100,4,2,1,55,0,0
15765,-100,4,2,1,60,0,0
15953,-100,4,2,1,65,0,0
16140,-100,4,2,1,70,0,0
16328,-100,4,2,1,75,0,0
16515,-100,4,2,1,80,0,0
16703,-100,4,2,1,85,0,0
17640,-100,4,2,1,75,0,0
18203,-100,4,2,3,70,0,0
18578,-100,4,2,1,55,0,0
19328,-100,4,2,1,50,0,0
19515,-100,4,2,1,55,0,0
20828,-100,4,2,1,50,0,0
21203,-100,4,2,1,55,0,0
22703,-100,4,2,1,50,0,0
23266,-100,4,2,5,50,0,0
23453,-100,4,2,1,50,0,0
23828,-100,4,2,2,45,0,0
24016,-100,4,2,5,45,0,0
24203,-100,4,2,1,60,0,0
24578,-100,4,2,1,55,0,0
25328,-100,4,2,2,45,0,0
25703,-100,4,2,1,55,0,0
26828,-100,4,2,1,50,0,0
27203,-100,4,2,1,45,0,0
27578,-100,4,2,3,70,0,0
27953,-100,4,2,1,45,0,0
28328,-100,4,2,3,70,0,0
28703,-100,4,2,1,80,0,0
29078,-100,4,2,1,40,0,0
29453,-100,4,2,5,50,0,0
29641,-100,4,2,5,55,0,0
29828,-100,4,2,5,60,0,0
30016,-100,4,2,5,65,0,0
30203,-100,4,2,4,75,0,0
30578,-100,4,2,5,65,0,0
33016,-100,4,2,5,60,0,0
33203,-100,4,2,5,55,0,0
33578,-100,4,2,3,75,0,0
33953,-100,4,2,5,55,0,0
34328,-100,4,2,3,75,0,0
34703,-100,4,2,4,80,0,0
35078,-100,4,2,5,65,0,0
35828,-100,4,2,3,75,0,0
36016,-100,4,2,5,65,0,0
36203,-100,4,2,4,80,0,0
36578,-100,4,2,5,65,0,0
38078,-100,4,2,5,70,0,0
38828,-100,4,2,5,65,0,0
39016,-100,4,2,5,70,0,0
39203,-100,4,2,1,75,0,0
39578,-100,4,2,5,70,0,0
40516,-100,4,2,3,75,0,0
40891,-100,4,2,5,70,0,0
41079,-100,4,2,5,75,0,0
41829,-100,4,2,5,50,0,0
42016,-100,4,2,5,75,0,0
42391,-100,4,2,5,70,0,0
43516,-100,4,2,1,75,0,0
43891,-100,4,2,5,70,0,0
44454,-100,4,2,5,65,0,0
44829,-100,4,2,5,60,0,0
45204,-100,4,2,3,75,0,0
45579,-100,4,2,1,60,0,0
46141,-100,4,2,1,55,0,0
46516,-100,4,2,1,60,0,0
47829,-100,4,2,1,55,0,0
48204,-100,4,2,1,60,0,0
50641,-100,4,2,9,50,0,0
51204,-100,4,2,1,60,0,0
52141,-100,4,2,1,55,0,0
52516,-100,4,2,1,60,0,0
54204,-100,4,2,3,75,0,0
54579,-100,4,2,5,65,0,0
54766,-100,4,2,3,75,0,0
55141,-100,4,2,5,65,0,0
55516,-100,4,2,4,80,0,0
55891,-100,4,2,5,70,0,0
56641,-100,4,2,5,65,0,0
56829,-100,4,2,5,60,0,0
57016,-100,4,2,5,55,0,0
57204,-100,4,2,5,50,0,0
57391,-100,4,2,5,50,0,0
57579,-100,4,2,3,80,0,0
58141,-100,4,2,8,65,0,0
58516,-100,4,2,4,80,0,0
58891,-100,4,2,5,75,0,0
59829,-100,4,2,5,70,0,0
60016,-100,4,2,5,65,0,0
60204,-100,4,2,5,60,0,0
60579,-100,4,2,3,80,0,0
61141,-100,4,2,8,65,0,0
61516,-100,4,2,4,80,0,0
61892,-100,4,2,5,70,0,0
62829,-100,4,2,5,65,0,0
63017,-100,4,2,5,60,0,0
63204,-100,4,2,3,75,0,0
63579,-100,4,2,5,70,0,0
65829,-100,4,2,1,65,0,0
66204,-100,4,2,1,75,0,0
66579,-100,4,2,5,70,0,0
67704,-100,4,2,5,75,0,0
68454,-100,4,2,5,80,0,0
68642,-100,4,2,8,80,0,0
69017,-100,4,2,3,80,0,0
69392,-100,4,2,1,50,0,0
69579,-100,4,2,1,55,0,0
69767,-100,4,2,1,60,0,0
69954,-100,4,2,1,65,0,0
70142,-100,4,2,1,70,0,0
70329,-100,4,2,1,75,0,0
70517,-100,4,2,1,80,0,0
70704,-100,4,2,1,60,0,0
70892,-100,4,2,1,65,0,0
71079,-100,4,2,1,70,0,0
71267,-100,4,2,1,75,0,0
71454,-100,4,2,1,70,0,0
71642,-100,4,2,1,75,0,0
72017,-100,4,2,6,85,0,1
72392,-100,4,2,5,80,0,1
73517,-100,4,2,4,80,0,1
73704,-100,4,2,5,80,0,1
73892,-100,4,2,4,80,0,1
74079,-100,4,2,5,80,0,1
74267,-100,4,2,4,80,0,1
74454,-100,4,2,5,80,0,1
74642,-100,4,2,4,75,0,1
74829,-100,4,2,5,80,0,1
75017,-100,4,2,4,85,0,1
75392,-100,4,2,5,80,0,1
76517,-100,4,2,4,80,0,1
76704,-100,4,2,5,80,0,1
77267,-100,4,2,4,75,0,1
77454,-100,4,2,5,80,0,1
78017,-100,4,2,3,85,0,1
78392,-100,4,2,3,80,0,1
78579,-100,4,2,8,85,0,1
78767,-100,4,2,5,80,0,1
79329,-100,4,2,8,85,0,1
79517,-100,4,2,5,80,0,1
80079,-100,4,2,8,85,0,1
80267,-100,4,2,5,80,0,1
80455,-100,4,2,8,70,0,1
80642,-100,4,2,8,80,0,1
80830,-100,4,2,5,70,0,1
81017,-100,4,2,6,85,0,1
81392,-100,4,2,5,80,0,1
81955,-100,4,2,5,70,0,1
82142,-100,4,2,5,75,0,1
82330,-100,4,2,5,80,0,1
82517,-100,4,2,3,85,0,1
82892,-100,4,2,4,85,0,0
83080,-100,4,2,4,80,0,0
83267,-100,4,2,4,75,0,0
83455,-100,4,2,4,70,0,0
83642,-100,4,2,4,65,0,0
83830,-100,4,2,4,60,0,0
84017,-100,4,2,6,85,0,1
84392,-100,4,2,5,80,0,1
85517,-100,4,2,4,80,0,1
85704,-100,4,2,5,80,0,1
85892,-100,4,2,4,80,0,1
86079,-100,4,2,5,80,0,1
86267,-100,4,2,4,80,0,1
86454,-100,4,2,5,80,0,1
86642,-100,4,2,4,75,0,1
86830,-100,4,2,5,80,0,1
87017,-100,4,2,4,85,0,1
87392,-100,4,2,5,80,0,1
88517,-100,4,2,3,85,0,1
89080,-100,4,2,8,75,0,1
89267,-100,4,2,3,85,0,1
89830,-100,4,2,8,75,0,1
90017,-100,4,2,4,85,0,1
90392,-100,4,2,6,80,0,1
91517,-100,4,2,4,85,0,1
91892,-100,4,2,6,80,0,1
93017,-100,4,2,3,85,0,1
93392,-100,4,2,1,55,0,1
93580,-100,4,2,1,60,0,1
93767,-100,4,2,1,65,0,1
93955,-100,4,2,1,70,0,1
94142,-100,4,2,1,75,0,1
94330,-100,4,2,1,80,0,1
94705,-100,4,2,1,85,0,1
94892,-100,4,2,8,85,0,1
95080,-100,4,2,5,60,0,1
95267,-100,4,2,8,85,0,1
95642,-100,4,2,5,70,0,1
95830,-100,4,2,5,75,0,1
96017,-100,4,2,5,80,0,0
96392,-100,4,2,4,65,0,0
96767,-100,4,2,3,70,0,0
97142,-100,4,2,4,70,0,0
97517,-100,4,2,3,75,0,0
97892,-100,4,2,4,75,0,0
98267,-100,4,2,3,80,0,0
98642,-100,4,2,4,70,0,0
98736,-100,4,2,5,70,0,0
98830,-100,4,2,4,70,0,0
99017,-100,4,2,4,75,0,0
99392,-100,4,2,1,50,0,0
99580,-100,4,2,1,55,0,0
99767,-100,4,2,1,60,0,0
99955,-100,4,2,1,65,0,0
100142,-100,4,2,1,70,0,0
100330,-100,4,2,1,75,0,0
100517,-100,4,2,1,80,0,0
100705,-100,4,2,1,85,0,0
101643,-100,4,2,1,65,0,0
101830,-100,4,2,1,70,0,0
102018,-100,4,2,3,85,0,0
102205,-100,4,2,5,85,0,0
102580,-100,4,2,5,80,0,0
102955,-100,4,2,5,75,0,0
103330,-100,4,2,5,70,0,0
103705,-100,4,2,5,65,0,0
104080,-100,4,2,5,60,0,0
104455,-100,4,2,5,55,0,0
104830,-100,4,2,5,50,0,0
105205,-100,4,2,5,45,0,0
105580,-100,4,2,5,40,0,0
106330,-100,4,2,5,35,0,0
107080,-100,4,2,5,30,0,0
107455,-100,4,2,5,25,0,0
107830,-100,4,2,5,20,0,0
108205,-100,4,2,5,15,0,0
108580,-100,4,2,5,10,0,0
108955,-100,4,2,5,5,0,0

[Colours]
Combo1 : 250,231,156
Combo2 : 219,250,112
Combo3 : 252,160,252
Combo4 : 143,214,252

[HitObjects]
474,72,6203,6,0,B|465:127|465:127|477:152|477:152|464:220,1,150,6|2,3:2|0:0,0:0:0:0:
486,305,7140,1,2,0:0:0:0:
411,355,7515,2,0,B|325:378|364:302|271:327,1,150,2|8,0:0|0:0,0:0:0:0:
195,372,8453,1,2,3:2:0:0:
124,315,8828,1,10,0:2:0:0:
166,235,9203,6,0,P|162:166|181:78,1,150,6|2,3:2|0:0,0:0:0:0:
107,30,10140,1,2,0:0:0:0:
34,83,10515,2,0,P|45:156|37:231,1,150,2|10,0:0|0:0,0:0:0:0:
4,315,11453,1,2,3:2:0:0:
80,361,11828,1,10,0:0:0:0:
150,304,12203,6,0,B|186:292|219:306|219:306|244:351|300:348,1,150,6|2,3:2|0:0,0:0:0:0:
300,259,13140,1,2,0:0:0:0:
248,185,13515,2,0,L|267:36,1,150,2|10,0:0|0:2,0:0:0:0:
353,8,14453,1,2,3:2:0:0:
480,53,15015,6,0,B|412:84|422:200|458:245|494:209|564:260|544:364|467:427|366:374|375:282,1,500,6|10,3:2|3:1,0:0:0:0:
335,203,17265,1,10,3:1:0:0:
297,121,17640,1,10,3:1:0:0:
194,32,18203,6,0,B|151:14|107:66|107:66|64:87|4:57,2,200,6|2|2,3:2|0:0|0:0,0:0:0:0:
182,121,20078,2,0,P|175:166|173:238,1,100,2|2,0:0|0:0,0:0:0:0:
208,301,20828,1,2,0:0:0:0:
138,357,21203,6,0,P|90:344|29:367,1,100,2|2,0:0|0:0,0:0:0:0:
2,276,21953,2,0,P|37:240|47:176,1,100,2|2,0:0|0:0,0:0:0:0:
23,106,22703,2,0,B|77:87|121:132|121:132|144:72|191:63,1,200,2|2,0:0|0:0,0:0:0:0:
360,66,24203,6,0,B|406:58|451:91|451:91|504:65|490:3,2,200,6|2|2,3:2|0:0|3:2,0:0:0:0:
336,153,26078,2,0,P|343:201|348:255,1,100,2|2,0:0|0:0,0:0:0:0:
427,296,26828,2,0,P|465:265|509:234,1,100,2|2,0:0|0:2,0:0:0:0:
473,151,27578,5,6,3:1:0:0:
317,64,28328,1,6,3:1:0:0:
244,117,28703,2,0,L|186:110,1,50,8|8,0:2|0:2,0:0:0:0:
20,334,30203,6,0,B|71:306|115:326|115:326|147:373|221:355,1,200,4|2,3:2|3:2,0:0:0:0:
187,269,31328,1,10,0:0:0:0:
268,230,31703,2,0,L|253:130,2,100,2|10|2,3:2|0:0|3:2,0:0:0:0:
349,267,32828,2,0,L|363:365,1,100,10|2,0:0|3:2,0:0:0:0:
453,368,33578,6,0,L|467:269,1,100,6|2,3:1|3:2,0:0:0:0:
412,197,34328,1,6,3:1:0:0:
496,165,34703,2,0,B|483:113|505:70|505:70|496:19|426:7,1,200,4|2,3:2|3:2,0:0:0:0:
340,5,35828,1,6,3:1:0:0:
274,66,36203,6,0,B|232:86|193:64|193:64|175:31|140:22|140:22|81:29,1,200,4|2,3:2|3:2,0:0:0:0:
5,40,37328,1,8,0:0:0:0:
20,128,37703,2,0,P|27:169|29:248,1,100,2|10,3:2|0:0,0:0:0:0:
1,312,38453,1,2,3:2:0:0:
66,373,38828,1,10,0:2:0:0:
144,329,39203,6,0,B|218:329|218:329|255:275|209:191,1,200,6|2,3:2|3:2,0:0:0:0:
200,74,40516,2,0,B|252:79|279:40|279:40|341:21|403:54,1,200,6|2,3:2|3:2,0:0:0:0:
472,22,41641,1,10,3:2:0:0:
499,107,42016,6,0,B|541:168|536:231|461:278|461:278|404:244|420:200,1,300,6|0,3:2|3:0,0:0:0:0:
343,151,43516,2,0,L|230:162,1,100,6|0,3:2|3:0,0:0:0:0:
168,206,44266,2,0,P|176:248|185:355,1,150,2|10,3:2|0:0,0:0:0:0:
272,376,45204,6,0,P|304:348|392:286,1,150,6|2,3:2|3:2,0:0:0:0:
476,317,46141,1,2,0:0:0:0:
503,231,46516,2,0,L|483:71,1,150,2|2,3:2|0:0,0:0:0:0:
432,12,47454,1,2,0:0:0:0:
343,28,47829,1,2,0:0:0:0:
313,114,48204,6,0,B|261:100|221:124|221:124|183:88|199:19,1,200,2|2,3:2|0:0,0:0:0:0:
63,16,49516,2,0,B|31:25|9:62|9:62|33:103|21:156,1,150,2|2,3:2|0:0,0:0:0:0:
2,223,50454,1,2,0:0:0:0:
66,285,50829,1,8,0:0:0:0:
151,260,51204,6,0,P|153:195|136:106,1,150,2|2,3:2|3:2,0:0:0:0:
167,26,52141,1,2,0:0:0:0:
253,50,52516,2,0,P|308:84|393:114,1,150,2|2,3:2|0:0,0:0:0:0:
469,74,53454,1,2,0:0:0:0:
508,154,53829,1,2,0:0:0:0:
465,233,54204,6,0,B|458:279|458:279|464:308|464:308|449:385,1,150,6|6,3:2|3:2,0:0:0:0:
369,339,55141,1,2,3:2:0:0:
286,374,55516,2,0,B|279:328|279:328|285:299|285:299|270:222,1,150,4|8,3:2|0:0,0:0:0:0:
222,150,56454,2,0,B|174:167|174:167|125:144,1,100,2|10,3:2|0:0,0:0:0:0:
50,102,57204,5,2,0:0:0:0:
2,178,57579,2,0,P|12:237|20:335,1,150,6|6,3:2|3:2,0:0:0:0:
107,348,58516,2,0,P|174:315|244:289,1,150,4|2,3:2|0:0,0:0:0:0:
210,205,59454,2,0,P|163:173|119:137,1,100,2|2,0:0|0:0,0:0:0:0:
50,102,60204,5,2,0:0:0:0:
110,35,60579,2,0,B|154:32|154:32|187:11|187:11|257:12,1,150,6|6,3:2|3:2,0:0:0:0:
346,22,61517,1,4,3:2:0:0:
382,108,61892,2,0,L|370:222,1,100,2|2,3:2|3:2,0:0:0:0:
356,296,62642,1,2,3:2:0:0:
477,353,63204,6,0,P|478:258|497:146,1,200,6|10,3:2|0:0,0:0:0:0:
484,65,64329,1,2,0:0:0:0:
403,24,64704,2,0,B|282:-8|334:93|219:62,1,200,2|10,3:2|0:0,0:0:0:0:
146,11,65829,1,0,3:3:0:0:
95,85,66204,6,0,B|47:69|47:69|-7:92,1,100,6|10,3:2|0:0,0:0:0:0:
5,180,66954,2,0,B|51:159|51:159|107:178,1,100,2|10,3:2|0:0,0:0:0:0:
105,266,67704,2,0,B|57:250|57:250|2:273,1,100,2|10,3:2|0:0,0:0:0:0:
61,343,68454,1,10,0:0:0:0:
195,324,69017,38,0,B|238:387|306:382|393:357|417:261|369:203|290:225|279:246,1,350,6|2,3:2|0:0,0:0:0:0:
193,226,70704,2,0,B|174:126|174:126|201:74,1,150,2|6,3:2|3:2,0:0:0:0:
375,70,72017,6,0,P|384:119|377:176,2,100,6|2|2,3:2|0:0|0:0,0:0:0:0:
444,13,73142,1,2,0:0:0:0:
507,76,73517,2,0,P|498:125|505:182,1,100,2|2,0:0|0:0,0:0:0:0:
503,264,74267,2,0,P|456:280|410:315,1,100,2|2,0:0|0:0,0:0:0:0:
331,341,75017,6,0,L|316:242,2,100,6|2|2,3:2|0:0|0:0,0:0:0:0:
248,378,76142,1,2,0:0:0:0:
215,294,76517,2,0,L|200:195,1,100,2|2,0:0|0:0,0:0:0:0:
231,110,77267,1,2,0:0:0:0:
77,16,78017,6,0,B|45:13|11:38|11:38|32:73|23:122,1,150,6|6,3:2|3:2,0:0:0:0:
75,188,78954,1,2,3:2:0:0:
12,254,79329,2,0,P|21:303|25:363,1,100,6|2,3:2|3:2,0:0:0:0:
113,369,80079,2,0,P|163:332|259:318,1,150,6|6,3:2|3:2,0:0:0:0:
322,367,81017,6,0,P|336:301|238:228,1,200,6|2,3:2|0:0,0:0:0:0:
163,272,82142,1,2,0:0:0:0:
95,212,82517,1,6,3:2:0:0:
149,140,82892,2,0,P|150:88|136:36,1,100,2|2,3:2|3:2,0:0:0:0:
221,7,83642,1,2,3:2:0:0:
300,49,84017,6,0,P|288:97|289:147,2,100,6|2|2,3:2|0:0|0:0,0:0:0:0:
378,4,85142,1,2,0:0:0:0:
459,41,85517,2,0,L|472:140,1,100,2|2,0:0|0:0,0:0:0:0:
442,225,86267,2,0,L|455:324,1,100,2|2,0:0|0:0,0:0:0:0:
372,359,87017,6,0,B|326:377|326:377|271:354,2,100,4|2|2,3:2|0:0|0:0,0:0:0:0:
329,279,88142,1,2,0:0:0:0:
283,201,88517,2,0,P|236:215|175:192,1,100,6|2,3:1|3:1,0:0:0:0:
111,154,89267,2,0,P|62:144|4:172,1,100,6|2,3:1|3:1,0:0:0:0:
66,235,90017,6,0,B|86:285|69:346|69:346|107:375|159:345,1,200,6|0,3:2|3:0,0:0:0:0:
236,377,91142,1,0,3:0:0:0:
294,308,91517,2,0,B|298:259|282:208|282:208|324:155,2,150,4|10|0,3:2|0:0|3:0,0:0:0:0:
383,310,93017,6,0,B|389:348|430:380|430:380|503:326|460:242|460:242|414:194|388:175|430:108,1,400,6|2,3:2|3:2,0:0:0:0:
436,17,94892,1,14,3:2:0:0:
348,31,95267,2,0,B|299:47|299:47|236:28,1,100,4|0,3:2|3:2,0:0:0:0:
175,79,96017,6,0,P|171:122|173:201,1,100,6|2,3:2|0:0,0:0:0:0:
106,241,96767,2,0,P|70:216|1:178,1,100,6|2,3:2|0:0,0:0:0:0:
0,100,97517,2,0,P|39:81|106:40,1,100,6|2,3:2|0:0,0:0:0:0:
173,81,98267,1,6,3:2:0:0:
249,34,98642,1,2,0:0:0:0:
327,77,99017,6,0,B|352:-19|493:-24|526:90|470:154|470:154|371:217|405:316,1,500,4|10,3:2|0:0,0:0:0:0:
325,356,101268,2,0,P|277:348|222:343,1,100,2|2,3:1|3:1,0:0:0:0:
137,361,102018,1,4,3:2:0:0:
256,192,102393,12,0,108955,0:0:0:0:
