osu file format v14

[General]
AudioFilename: audio.mp3
AudioLeadIn: 0
PreviewTime: 24686
Countdown: 1
SampleSet: Soft
StackLeniency: 0.4
Mode: 0
LetterboxInBreaks: 0
WidescreenStoryboard: 1

[Editor]
Bookmarks: 749,8751,16751,24751,28751,32751,40751
DistanceSpacing: 1.7
BeatDivisor: 4
GridSize: 32
TimelineZoom: 1.5

[Metadata]
Title:Reitou Container
TitleUnicode:冷凍コンテナ
Artist:Satou Hitomi
ArtistUnicode:佐藤仁美
Creator:Hobbes2
Version:pkhg's Insane
Source:ポケットモンスター ブラック
Tags:Pokémon Black Version White Cold Storage Twist Mountain Pokemon Ice Driftveil pkhg
BeatmapID:1445912
BeatmapSetID:679707

[Difficulty]
HPDrainRate:5
CircleSize:3.5
OverallDifficulty:8
ApproachRate:9
SliderMultiplier:1.5
SliderTickRate:1

[Events]
//Background and Video events
0,0,"kyuremPogChamp.jpg",0,0
//Break Periods
//Storyboard Layer 0 (Background)
//Storyboard Layer 1 (Fail)
//Storyboard Layer 2 (Pass)
//Storyboard Layer 3 (Foreground)
//Storyboard Sound Samples

[TimingPoints]
749,500,4,2,1,50,1,0
749,-100,4,2,2,50,0,0
5249,-100,4,2,1,40,0,0
6749,-100,4,2,2,50,0,0
7249,-100,4,2,2,40,0,0
7749,-100,4,2,1,40,0,0
8749,-100,4,2,2,50,0,0
9124,-100,4,2,1,40,0,0
9749,-100,4,2,1,50,0,0
9999,-100,4,2,1,40,0,0
10249,-100,4,2,1,50,0,0
10749,-100,4,2,2,50,0,0
11499,-100,4,2,2,55,0,0
12249,-100,4,2,2,60,0,0
12499,-100,4,2,2,65,0,0
12749,-200,4,2,2,50,0,0
12999,-200,4,2,1,50,0,0
13249,-200,4,2,1,45,0,0
13749,-200,4,2,1,40,0,0
14249,-200,4,2,1,35,0,0
14749,-100,4,2,2,50,0,0
15499,-100,4,2,2,55,0,0
16249,-100,4,2,2,60,0,0
16499,-100,4,2,2,65,0,0
16749,-100,4,2,2,70,0,0
17249,-100,4,2,2,55,0,0
21249,-100,4,2,2,45,0,0
23999,-100,4,2,2,65,0,0
24249,-100,4,2,2,45,0,0
24499,-100,4,2,2,55,0,0
24749,-83.3333333333333,4,2,2,70,0,0
25124,-83.3333333333333,4,2,2,60,0,0
25499,-66.6666666666667,4,2,2,80,0,0
25874,-66.6666666666667,4,2,2,70,0,0
26249,-100,4,2,2,60,0,0
26374,-100,4,2,2,5,0,0
26499,-100,4,2,2,50,0,0
26624,-100,4,2,2,5,0,0
26749,-100,4,2,2,40,0,0
27124,-100,4,2,2,60,0,0
27499,-55.5555555555556,4,2,2,70,0,0
28249,-86.9565217391304,4,2,2,60,0,0
28499,-86.9565217391304,4,2,2,70,0,0
28749,-83.3333333333333,4,2,2,70,0,0
29499,-83.3333333333333,4,2,2,90,0,0
29749,-83.3333333333333,4,2,2,80,0,0
29874,-83.3333333333333,4,2,2,70,0,0
30249,-83.3333333333333,4,2,2,60,0,0
30749,-83.3333333333333,4,2,2,55,0,0
30999,-83.3333333333333,4,2,2,60,0,0
31124,-83.3333333333333,4,2,2,70,0,0
31249,-83.3333333333333,4,2,2,80,0,0
31499,-83.3333333333333,4,2,2,90,0,0
31749,-83.3333333333333,4,2,2,80,0,0
31999,-83.3333333333333,4,2,2,70,0,0
32249,-83.3333333333333,4,2,2,60,0,0
32999,-83.3333333333333,4,2,2,40,0,0
33749,-83.3333333333333,4,2,2,35,0,0
34749,-83.3333333333333,4,2,2,30,0,0
35749,-83.3333333333333,4,2,2,25,0,0
40749,-83.3333333333333,4,2,2,50,0,0

[Colours]
Combo1 : 0,128,128
Combo2 : 0,255,255
Combo3 : 0,193,193

[HitObjects]
313,144,749,6,0,P|282:75|272:1,1,150.000005722046,10|0,0:2|0:0,0:0:0:0:
337,229,1499,2,0,P|347:154|378:86,1,150.000005722046,6|0,0:0|0:0,0:0:0:0:
311,312,2249,2,0,P|358:254|421:213,1,150.000005722046,10|0,0:2|0:0,0:0:0:0:
244,367,2999,2,0,P|315:343|389:341,1,150.000005722046,6|0,0:0|0:0,0:0:0:0:
146,330,3749,2,0,P|183:330|217:344,1,75.0000028610231,10|0,0:2|0:0,0:0:0:0:
51,362,4249,2,0,P|88:361|122:347,1,75.0000028610231,10|0,0:2|0:0,0:0:0:0:
207,241,4749,5,10,0:2:0:0:
207,241,5249,1,6,0:0:0:0:
249,228,5374,1,0,0:0:0:0:
249,183,5499,1,6,0:0:0:0:
207,169,5624,1,2,0:0:0:0:
180,205,5749,1,2,0:0:0:0:
180,205,5999,5,6,0:0:0:0:
207,169,6124,1,0,0:0:0:0:
249,183,6249,1,2,0:0:0:0:
249,183,6499,5,2,0:0:0:0:
249,228,6624,1,0,0:0:0:0:
207,241,6749,2,0,P|172:226|135:226,1,75.0000028610231,10|0,0:2|0:0,0:0:0:0:
135,226,7249,2,0,P|97:225|63:211,1,75.0000028610231,2|0,0:0|0:0,0:0:0:0:
145,74,7749,5,6,0:0:0:0:
152,117,7874,1,0,0:0:0:0:
112,137,7999,1,6,0:0:0:0:
80,107,8124,1,2,0:0:0:0:
100,65,8249,1,2,0:0:0:0:
100,65,8499,5,6,0:0:0:0:
80,107,8624,1,0,0:0:0:0:
112,137,8749,2,0,P|146:122|183:122,1,75.0000028610231,10|0,0:2|0:0,0:0:0:0:
183,122,9249,5,2,0:0:0:0:
198,166,9374,1,4,0:0:0:0:
242,162,9499,1,2,0:0:0:0:
254,122,9624,1,4,0:0:0:0:
222,97,9749,5,4,0:0:0:0:
269,92,9874,1,2,0:0:0:0:
277,49,9999,1,2,0:0:0:0:
241,27,10124,1,4,0:0:0:0:
208,51,10249,5,6,0:0:0:0:
222,97,10374,1,4,0:0:0:0:
183,122,10499,1,2,0:0:0:0:
182,122,10749,6,0,P|163:117|145:113,1,37.5000014305115,14|0,0:2|0:0,0:0:0:0:
56,127,10999,2,0,P|39:136|24:147,1,37.5000014305115,14|0,0:2|0:0,0:0:0:0:
277,209,11499,6,0,P|267:192|256:177,1,37.5000014305115,14|0,0:0|0:0,0:0:0:0:
183,122,11749,2,0,P|164:117|146:113,1,37.5000014305115,14|0,0:0|0:0,0:0:0:0:
282,337,12249,6,0,P|286:318|290:300,1,37.5000014305115,14|0,0:0|0:0,0:0:0:0:
277,209,12499,2,0,P|267:192|256:177,1,37.5000014305115,14|0,0:0|0:0,0:0:0:0:
146,113,12749,6,10,P|164:116|182:121,1,37.5000014305115,10|2,0:0|0:0,0:0:0:0:
256,177,13249,2,0,P|274:172|292:168,1,37.5000014305115,2|2,0:0|0:0,0:0:0:0:
378,188,13749,2,0,P|392:176|408:166,1,37.5000014305115,2|2,0:0|0:0,0:0:0:0:
493,149,14249,2,0,P|502:132|512:117,1,37.5000014305115,2|2,0:0|0:0,0:0:0:0:
349,297,14749,6,0,P|330:298|311:298,1,37.5000014305115,14|0,0:0|0:0,0:0:0:0:
225,265,15000,2,0,P|210:252|197:239,1,37.5000014305115,14|0,0:0|0:0,0:0:0:0:
459,234,15499,6,0,P|446:248|433:261,1,37.5000014305115,14|0,0:0|0:0,0:0:0:0:
349,297,15750,2,0,P|330:298|311:298,1,37.5000014305115,14|0,0:0|0:0,0:0:0:0:
491,111,16250,6,0,P|492:129|492:148,1,37.5000014305115,14|0,0:0|0:0,0:0:0:0:
459,233,16500,2,0,P|446:247|433:260,1,37.5000014305115,14|0,0:0|0:0,0:0:0:0:
349,297,16749,2,0,P|330:298|311:298,1,37.5000014305115,10|2,0:0|0:0,0:0:0:0:
311,298,17249,6,0,P|292:303|275:309,1,37.5000014305115,4|4,0:0|0:0,0:0:0:0:
217,200,17499,2,0,P|212:218|206:236,1,37.5000014305115,4|4,0:0|0:0,0:0:0:0:
324,186,17749,2,0,L|299:214,1,37.5,2|2,0:0|0:0,0:0:0:0:
393,109,17999,1,2,0:0:0:0:
380,123,18124,1,4,0:0:0:0:
380,123,18749,6,0,L|405:95,1,37.5,4|4,0:0|0:0,0:0:0:0:
287,145,18998,2,0,P|293:127|298:109,1,37.5000014305115,4|4,0:0|0:0,0:0:0:0:
357,219,19248,2,6,P|374:212|392:207,1,37.5000014305115
266,239,19499,1,2,0:0:0:0:
278,225,19624,1,4,0:0:0:0:
278,225,19999,5,4,0:0:0:0:
210,306,20249,1,2,0:0:0:0:
222,292,20374,1,2,0:0:0:0:
380,123,20749,5,10,0:0:0:0:
380,123,21249,2,0,P|362:115|345:109,1,37.5000014305115,12|4,0:0|0:0,0:0:0:0:
262,78,21499,2,0,P|243:80|224:83,1,37.5000014305115,8|0,0:0|0:0,0:0:0:0:
122,157,21749,2,0,P|137:145|152:134,1,37.5000014305115,6|6,0:0|0:0,0:0:0:0:
267,166,21999,1,12,0:0:0:0:
249,168,22124,1,2,0:0:0:0:
249,168,22749,5,8,0:0:0:0:
239,307,22999,2,0,P|240:287|240:269,1,37.5000014305115,12|4,0:0|0:0,0:0:0:0:
363,252,23249,2,0,P|347:241|332:229,1,37.5000014305115,12|4,0:0|0:0,0:0:0:0:
330,344,23499,1,2,0:0:0:0:
321,327,23624,1,12,0:0:0:0:
321,327,23999,5,10,0:0:0:0:
427,360,24249,1,8,0:0:0:0:
354,221,24499,1,10,0:0:0:0:
221,371,24749,6,0,P|155:355|88:349,1,134.999995880127,6|8,0:0|0:0,0:0:0:0:
88,349,25499,6,0,B|145:336|207:331|207:331|159:313,1,168.750006437302,2|8,0:0|0:0,0:0:0:0:
161,314,26249,6,0,P|152:297|146:279,1,37.5,10|2,0:0|0:0,0:0:0:0:
146,279,26499,2,0,P|140:261|131:244,1,37.5,12|4,0:0|0:0,0:0:0:0:
131,244,26749,6,0,B|116:216|88:211|88:211|111:196|116:164,1,112.5,8|14,0:0|0:0,0:0:0:0:
116,164,27499,6,0,P|220:185|131:244,1,269.999991760254,10|10,0:0|0:0,0:0:0:0:
131,244,28249,6,0,P|134:201|115:163,1,86.2500016450882,8|10,0:0|0:0,0:0:0:0:
312,353,28749,6,0,P|322:333|329:311,1,44.999998626709,4|8,0:0|0:0,0:0:0:0:
329,306,28999,1,4,0:0:0:0:
408,266,29124,6,0,P|401:245|391:225,1,44.999998626709,8|8,0:0|0:0,0:0:0:0:
388,219,29374,1,12,0:0:0:0:
414,137,29499,6,0,P|394:126|372:119,1,44.999998626709,10|2,0:0|0:0,0:0:0:0:
366,119,29749,1,2,0:0:0:0:
241,90,29874,6,0,P|262:83|284:79,2,44.999998626709,8|4|12,0:0|0:0|0:0,0:0:0:0:
118,124,30249,6,0,P|139:131|162:135,1,44.999998626709,4|0,0:0|0:0,0:0:0:0:
49,136,30499,2,0,P|70:129|92:125,1,44.999998626709,12|2,0:0|0:0,0:0:0:0:
217,179,30749,6,0,P|199:165|183:148,1,44.999998626709,4|8,0:0|0:0,0:0:0:0:
242,243,30999,2,0,P|236:221|227:200,1,44.999998626709,12|2,0:0|0:0,0:0:0:0:
335,243,31249,5,12,0:0:0:0:
364,238,31374,1,12,0:0:0:0:
302,171,31499,5,10,0:0:0:0:
353,161,31624,1,10,0:0:0:0:
266,102,31749,5,10,0:0:0:0:
358,83,31874,1,10,0:0:0:0:
302,171,31999,5,10,0:0:0:0:
353,161,32124,1,10,0:0:0:0:
335,243,32249,5,10,0:0:0:0:
364,238,32374,1,10,0:0:0:0:
413,300,32499,5,14,0:0:0:0:
381,370,32624,1,14,0:0:0:0:
321,320,32749,5,14,0:0:0:0:
237,365,32999,1,2,0:0:0:0:
207,281,33249,5,10,0:0:0:0:
141,294,33499,1,2,0:0:0:0:
127,227,33749,5,10,0:0:0:0:
81,212,33999,1,2,0:0:0:0:
83,158,34249,5,10,0:0:0:0:
64,136,34499,1,2,0:0:0:0:
68,101,34749,5,10,0:0:0:0:
65,86,34999,1,2,0:0:0:0:
79,61,35249,5,10,0:0:0:0:
81,53,35499,1,2,0:0:0:0:
95,40,35749,5,10,0:0:0:0:
95,40,35999,1,2,0:0:0:0:
115,32,36249,5,10,0:0:0:0:
115,32,36499,1,2,0:0:0:0:
157,10,36749,5,12,0:0:0:0:
157,10,37249,1,8,0:0:0:0:
157,10,37749,1,8,0:0:0:0:
157,10,38249,1,8,0:0:0:0:
157,10,38749,1,8,0:0:0:0:
157,10,39249,1,8,0:0:0:0:
157,10,39749,1,8,0:0:0:0:
157,10,40249,1,8,0:0:0:0:
133,96,40499,1,2,0:0:0:0:
86,269,40749,1,10,0:0:0:0:
