osu file format v14

[General]
AudioFilename: audio.mp3
AudioLeadIn: 0
PreviewTime: 24686
Countdown: 1
SampleSet: Soft
StackLeniency: 0.4
Mode: 0
LetterboxInBreaks: 0
WidescreenStoryboard: 0

[Editor]
Bookmarks: 8751,16751,24751,28751,32751,40751
DistanceSpacing: 1.7
BeatDivisor: 4
GridSize: 8
TimelineZoom: 1

[Metadata]
Title:Reitou Container
TitleUnicode:冷凍コンテナ
Artist:Satou Hitomi
ArtistUnicode:佐藤仁美
Creator:Hobbes2
Version:Frozen
Source:ポケットモンスター ブラック
Tags:Pokémon Black Version White Cold Storage Twist Mountain Pokemon Ice Driftveil pkhg
BeatmapID:1437360
BeatmapSetID:679707

[Difficulty]
HPDrainRate:5
CircleSize:2.8
OverallDifficulty:8
ApproachRate:9
SliderMultiplier:2.4
SliderTickRate:1

[Events]
//Background and Video events
0,0,"kyuremPogChamp.jpg",0,0
//Break Periods
//Storyboard Layer 0 (Background)
//Storyboard Layer 1 (Fail)
//Storyboard Layer 2 (Pass)
//Storyboard Layer 3 (Foreground)
//Storyboard Sound Samples

[TimingPoints]
749,500,4,2,0,41,1,0
9247,-166.666666666667,4,2,0,31,0,0
9747,-111.111111111111,4,2,0,41,0,0
10747,-71.4285714285714,4,2,0,41,0,0
12246,-62.5,4,2,0,41,0,0
12746,-100,4,2,0,41,0,0
13246,-166.666666666667,4,2,0,31,0,0
13746,-111.111111111111,4,2,0,41,0,0
14746,-71.4285714285714,4,2,0,41,0,0
16245,-62.5,4,2,0,41,0,0
16745,-83.3333333333333,4,2,0,41,0,0
20120,-100,4,2,0,41,0,0
20495,-125,4,2,0,41,0,0
20745,-83.3333333333333,4,2,0,41,0,0
23994,-71.4285714285714,4,2,0,41,0,0
24744,-133.333333333333,4,2,0,41,0,0
24994,-133.333333333333,4,2,0,5,0,0
25119,-200,4,2,0,41,0,0
25369,-133.333333333333,4,2,0,5,0,0
25494,-71.4285714285714,4,2,0,41,0,0
25744,-133.333333333333,4,2,0,5,0,0
25868,-200,4,2,0,41,0,0
26118,-133.333333333333,4,2,0,5,0,0
26243,-133.333333333333,4,2,0,41,0,0
26368,-133.333333333333,4,2,0,5,0,0
26493,-133.333333333333,4,2,0,41,0,0
26618,-133.333333333333,4,2,0,5,0,0
26743,-200,4,2,0,41,0,0
26993,-133.333333333333,4,2,0,5,0,0
27118,-100,4,2,0,41,0,0
27368,-133.333333333333,4,2,0,5,0,0
27493,-71.4285714285714,4,2,0,41,0,0
27868,-133.333333333333,4,2,0,5,0,0
27993,-133.333333333333,4,2,0,41,0,0
28118,-133.333333333333,4,2,0,5,0,0
28243,-133.333333333333,4,2,0,41,0,0
28368,-133.333333333333,4,2,0,5,0,0
28493,-133.333333333333,4,2,0,41,0,0
28749,-66.6666666666667,4,2,0,51,0,1
30243,-100,4,2,0,51,0,1
30867,-66.6666666666667,4,2,0,51,0,1
32242,-100,4,2,0,51,0,1
32749,-100,4,2,0,41,0,0
35249,-100,4,2,0,31,0,0
37249,-100,4,2,0,21,0,0
38749,-100,4,2,0,31,0,0
39249,-100,4,2,0,21,0,0
40749,-100,4,2,0,41,0,0

[Colours]
Combo1 : 0,128,128
Combo2 : 0,255,255
Combo3 : 0,193,193

[HitObjects]
216,264,749,6,0,B|238:85|238:85|202:132,1,240,4|0,0:0|0:0,0:0:0:0:
132,351,1499,2,0,B|214:368|214:368|284:354|284:354|366:373,1,240,4|0,0:0|0:0,0:0:0:0:
427,216,2249,2,0,P|343:263|360:168,1,240,4|0,0:0|0:0,0:0:0:0:
415,368,2999,2,0,B|276:391|319:308|184:341,1,240,4|0,0:0|0:0,0:0:0:0:
163,157,3749,2,0,P|130:208|115:265,1,120,4|0,0:0|0:0,0:0:0:0:
23,12,4249,2,0,P|47:65|60:123,1,120,4|0,0:0|0:0,0:0:0:0:
173,336,4749,6,0,L|163:155,1,180,4|0,0:0|0:0,0:0:0:0:
170,146,5249,5,0,0:0:0:0:
194,127,5374,1,0,0:0:0:0:
237,106,5499,1,0,0:0:0:0:
302,100,5624,1,0,0:0:0:0:
378,136,5749,1,2,0:0:0:0:
378,136,5999,5,0,0:0:0:0:
302,100,6124,1,0,0:0:0:0:
402,118,6249,1,2,0:0:0:0:
402,118,6499,5,0,0:0:0:0:
378,136,6624,1,0,0:0:0:0:
438,216,6749,6,0,L|428:35,1,180,4|0,0:0|0:0,0:0:0:0:
438,29,7249,1,0,0:0:0:0:
308,183,7499,1,0,0:0:0:0:
338,282,7749,5,2,0:0:0:0:
302,288,7874,1,0,0:0:0:0:
250,271,7999,1,0,0:0:0:0:
209,210,8124,1,0,0:0:0:0:
225,122,8249,1,2,0:0:0:0:
225,122,8499,5,0,0:0:0:0:
232,157,8624,1,0,0:0:0:0:
310,83,8749,6,0,L|129:92,1,180,4|0,0:0|0:0,0:0:0:0:
116,89,9249,6,0,P|118:106|119:124,1,35.9999989013672,2|0,0:0|0:0,0:0:0:0:
98,211,9499,2,0,P|86:225|72:236,1,35.9999989013672,2|0,0:0|0:0,0:0:0:0:
169,330,9749,6,0,P|164:302|170:275,1,53.9999983520508,2|0,0:3|0:0,0:0:0:0:
223,200,9999,2,0,P|240:179|264:167,1,53.9999983520508,2|0,0:3|0:0,0:0:0:0:
356,156,10249,2,0,P|382:157|407:167,1,53.9999983520508,2|0,0:3|0:0,0:0:0:0:
475,231,10499,5,2,0:0:0:0:
182,171,10749,6,0,P|200:209|232:237,1,83.9999974365235,2|0,0:1|0:0,0:0:0:0:
98,112,10999,2,0,P|79:147|83:203,1,83.9999974365235,2|0,0:1|0:0,0:0:0:0:
321,280,11249,1,0,0:0:0:0:
370,110,11499,6,0,P|377:147|365:194,1,83.9999974365235,2|0,0:1|0:0,0:0:0:0:
401,17,11749,2,0,P|436:31|469:83,1,83.9999974365235,2|0,0:1|0:0,0:0:0:0:
321,280,11999,1,0,0:0:0:0:
139,317,12249,6,0,L|233:335,1,96,2|0,0:1|0:0,0:0:0:0:
487,202,12499,2,0,L|423:273,1,96,2|0,0:1|0:0,0:0:0:0:
264,109,12749,6,0,L|319:279,1,180,4|0,0:0|0:0,0:0:0:0:
326,296,13249,6,0,P|351:274|360:243,1,35.9999989013672,2|0,0:0|0:0,0:0:0:0:
404,198,13499,2,0,P|407:180|404:162,1,35.9999989013672,2|0,0:0|0:0,0:0:0:0:
268,47,13749,6,0,P|250:67|239:91,1,53.9999983520508,2|0,0:3|0:0,0:0:0:0:
239,186,13999,2,0,P|242:212|254:236,1,53.9999983520508,2|0,0:3|0:0,0:0:0:0:
326,296,14249,2,0,P|348:310|375:315,1,53.9999983520508,2|0,0:3|0:0,0:0:0:0:
466,302,14499,5,2,0:0:0:0:
239,186,14749,6,0,L|160:155,1,83.9999974365235,2|0,0:1|0:0,0:0:0:0:
110,258,14999,2,0,L|57:192,1,83.9999974365235,2|0,0:1|0:0,0:0:0:0:
231,70,15249,5,0,0:0:0:0:
270,344,15499,6,0,L|217:278,1,83.9999974365235,2|0,0:1|0:0,0:0:0:0:
122,341,15749,2,0,L|109:257,1,83.9999974365235,2|0,0:1|0:0,0:0:0:0:
321,239,15999,5,0,0:0:0:0:
0,250,16249,2,0,P|12:205|44:169,1,96,2|0,0:1|0:0,0:0:0:0:
321,239,16499,2,0,P|274:251|228:241,1,96,2|0,0:1|0:0,0:0:0:0:
151,18,16749,6,0,P|162:89|155:161,1,143.999995605469,4|2,0:0|0:0,0:0:0:0:
265,184,17124,1,2,0:0:0:0:
257,173,17249,1,0,0:0:0:0:
257,173,17499,1,2,0:0:0:0:
265,184,17624,1,2,0:0:0:0:
193,255,17749,1,0,0:0:0:0:
358,133,17999,2,0,B|389:169|375:248|375:248|355:235|359:232,1,143.999995605469,2|0,0:0|0:0,0:0:0:0:
370,127,18374,2,0,B|402:163|388:242|388:242|368:229|372:227,1,143.999995605469,2|0,0:0|0:0,0:0:0:0:
282,179,18749,5,0,0:0:0:0:
408,33,18999,2,0,B|290:25|290:25|309:41,1,143.999995605469,2|0,0:0|0:0,0:0:0:0:
415,19,19374,2,0,B|297:11|297:11|317:28,1,143.999995605469,2|0,0:0|0:0,0:0:0:0:
422,5,19749,6,0,P|381:-3|350:0,1,71.9999978027344,2|0,0:0|0:0,0:0:0:0:
378,88,19999,1,0,0:0:0:0:
378,88,20124,2,0,P|349:95|324:112,1,60,2|0,0:0|0:0,0:0:0:0:
388,179,20374,1,0,0:0:0:0:
388,179,20499,2,0,P|366:200|354:225,1,48,2|0,0:0|0:0,0:0:0:0:
439,253,20749,6,0,P|477:190|455:120,1,143.999995605469,2|0,0:0|0:0,0:0:0:0:
256,194,21124,1,2,0:0:0:0:
260,207,21249,1,0,0:0:0:0:
260,207,21499,1,2,0:0:0:0:
256,194,21624,1,2,0:0:0:0:
337,264,21749,1,0,0:3:0:0:
183,117,21999,2,0,B|161:91|161:91|136:146|152:200,1,143.999995605469,2|0,0:0|0:0,0:0:0:0:
170,107,22374,2,0,B|148:82|148:82|123:137|140:191,1,143.999995605469,2|0,0:0|0:0,0:0:0:0:
185,280,22749,5,0,0:0:0:0:
79,15,22999,2,0,P|140:-18|214:10,1,143.999995605469,2|0,0:0|0:0,0:0:0:0:
78,27,23374,2,0,P|139:-5|206:16,1,143.999995605469,2|0,0:0|0:0,0:0:0:0:
77,41,23749,1,2,0:0:0:0:
217,198,23999,6,0,P|225:157|230:116,1,83.9999974365235,2|0,0:3|0:0,0:0:0:0:
358,258,24249,2,0,P|345:218|328:180,1,83.9999974365235,2|0,0:3|0:0,0:0:0:0:
509,238,24499,2,0,P|477:210|443:185,1,83.9999974365235,2|0,0:3|0:0,0:0:0:0:
238,302,24749,6,0,P|239:336|259:308,1,90.0000034332277,4|0,0:0|0:0,0:0:0:0:
145,252,25124,2,0,P|131:279|125:308,1,60
358,367,25499,6,2,B|481:354|481:354|432:344,1,167.999994873047,4|0,0:0|0:0,0:1:0:0:
271,306,25874,6,0,P|257:332|251:361,1,60
368,262,26249,6,0,P|370:214|364:185,1,45.0000017166138
385,257,26499,2,0,P|387:234|387:212,1,45.0000017166138
296,90,26749,6,0,L|311:149,1,60
192,86,27124,2,0,P|221:20|264:-8,1,120,4|0,0:0|0:0,0:0:0:0:
364,240,27499,6,0,B|354:266|318:274|318:274|262:183|297:91,1,251.999992309571,4|0,0:0|0:0,0:0:0:0:
364,240,27999,6,0,L|358:329,2,90.0000034332277,4|0|0,0:0|0:0|0:0,0:0:0:0:
145,117,28749,5,2,0:3:0:0:
239,214,28874,2,0,P|196:226|152:222,1,90.0000034332277,8|0,3:0|0:0,0:0:0:0:
154,109,29124,5,8,3:0:0:0:
67,284,29249,2,0,P|50:242|50:197,1,90.0000034332277,8|0,3:0|0:0,0:0:0:0:
163,101,29499,5,2,0:1:0:0:
59,189,29624,1,2,0:1:0:0:
19,23,29749,2,0,L|108:16,1,90.0000034332277,2|8,0:1|3:0,0:0:0:0:
156,290,29999,2,0,L|66:283,1,90.0000034332277,2|0,0:3|0:0,0:0:0:0:
263,230,30249,1,0,0:0:0:0:
274,244,30374,1,0,0:0:0:0:
278,259,30499,2,0,P|283:289|282:319,1,60,8|0,3:0|0:0,0:0:0:0:
116,254,30749,5,8,3:0:0:0:
183,91,30874,2,0,P|189:135|189:180,1,90.0000034332277,8|0,3:0|0:0,0:0:0:0:
105,259,31124,5,2,0:0:0:0:
294,170,31249,2,0,P|289:214|277:258,1,90.0000034332277,2|0,0:3|0:0,0:0:0:0:
94,264,31499,5,2,0:1:0:0:
179,184,31624,1,2,0:1:0:0:
184,317,31749,1,2,0:1:0:0:
83,269,31874,1,2,0:1:0:0:
188,180,31999,2,0,L|277:173,1,90.0000034332277,2|0,0:1|0:0,0:0:0:0:
360,42,32249,2,0,P|333:54|312:74,1,60,2|0,0:0|0:0,0:0:0:0:
349,247,32499,5,2,0:0:0:0:
368,223,32624,1,2,0:0:0:0:
277,173,32749,6,0,L|285:293,1,120,4|0,0:0|0:0,0:0:0:0:
289,311,33124,1,0,0:0:0:0:
189,348,33249,5,2,0:3:0:0:
194,338,33499,1,2,0:3:0:0:
91,296,33749,1,2,0:3:0:0:
86,286,33999,1,2,0:3:0:0:
133,193,34249,1,2,0:3:0:0:
86,286,34499,5,0,0:0:0:0:
91,296,34624,1,0,0:0:0:0:
133,193,34749,6,0,L|252:202,1,120,2|0,0:0|0:0,0:0:0:0:
270,203,35124,1,0,0:0:0:0:
362,148,35249,5,2,0:3:0:0:
351,155,35499,1,2,0:3:0:0:
384,53,35749,1,2,0:3:0:0:
373,46,35999,1,2,0:3:0:0:
362,148,36249,1,2,0:3:0:0:
384,53,36499,5,0,0:0:0:0:
373,46,36624,1,0,0:0:0:0:
362,148,36749,6,0,L|371:268,1,120
373,285,37124,1,0,0:0:0:0:
285,337,37249,5,8,3:3:0:0:
285,337,37749,1,8,3:3:0:0:
285,337,38249,1,8,3:3:0:0:
285,337,38499,5,0,0:0:0:0:
276,344,38624,1,0,0:0:0:0:
370,384,38749,6,0,L|490:376,1,120
508,371,39124,1,0,0:0:0:0:
475,275,39249,5,8,3:0:0:0:
475,275,39749,1,8,3:0:0:0:
475,275,40249,1,8,3:0:0:0:
508,371,40499,1,0,0:0:0:0:
238,222,40749,5,4,0:0:0:0:
