osu file format v14

[General]
AudioFilename: audio.mp3
AudioLeadIn: 0
PreviewTime: 24686
Countdown: 1
SampleSet: Soft
StackLeniency: 0.4
Mode: 0
LetterboxInBreaks: 0
WidescreenStoryboard: 1

[Editor]
Bookmarks: 8751,16751,24751,28751,32751,40751
DistanceSpacing: 1.7
BeatDivisor: 4
GridSize: 8
TimelineZoom: 1

[Metadata]
Title:Reitou Container
TitleUnicode:冷凍コンテナ
Artist:Satou Hitomi
ArtistUnicode:佐藤仁美
Creator:Hobbes2
Version:Normal
Source:ポケットモンスター ブラック
Tags:Pokémon Black Version White Cold Storage Twist Mountain Pokemon Ice Driftveil pkhg
BeatmapID:1456748
BeatmapSetID:679707

[Difficulty]
HPDrainRate:4
CircleSize:2.8
OverallDifficulty:5
ApproachRate:5.5
SliderMultiplier:1.4
SliderTickRate:1

[Events]
//Background and Video events
0,0,"kyuremPogChamp.jpg",0,0
//Break Periods
//Storyboard Layer 0 (Background)
//Storyboard Layer 1 (Fail)
//Storyboard Layer 2 (Pass)
//Storyboard Layer 3 (Foreground)
//Storyboard Sound Samples

[TimingPoints]
749,500,4,2,0,41,1,0
28749,-100,4,2,0,51,0,1
30249,-100,4,2,0,51,0,1
30749,-100,4,2,0,51,0,1
32749,-100,4,2,0,41,0,0
35249,-100,4,2,0,31,0,0
37249,-100,4,2,0,21,0,0
38749,-100,4,2,0,31,0,0
39249,-100,4,2,0,21,0,0
40749,-100,4,2,0,41,0,0

[Colours]
Combo1 : 0,128,128
Combo2 : 0,255,255
Combo3 : 0,193,193

[HitObjects]
158,70,749,6,0,P|223:47|291:60,1,140,4|0,0:0|0:0,0:0:0:0:
358,119,1499,2,0,P|380:184|367:252,1,140,4|0,0:0|0:0,0:0:0:0:
309,319,2249,2,0,P|243:341|175:328,1,140,4|0,0:0|0:0,0:0:0:0:
109,270,2999,2,0,P|86:204|99:136,1,140,4|0,0:0|0:0,0:0:0:0:
158,70,3749,1,4,0:0:0:0:
338,94,4249,1,4,0:0:0:0:
142,43,4749,5,4,0:0:0:0:
261,180,5249,2,0,P|266:259|236:326,1,140,0|2,0:0|0:0,0:0:0:0:
173,370,5999,2,0,P|138:375|104:368,2,70,0|2|0,0:0|0:0|0:0,0:0:0:0:
244,314,6749,5,4,0:0:0:0:
420,271,7249,2,0,P|432:219|431:181,1,70,0|0,0:0|0:0,0:0:0:0:
384,125,7749,2,0,L|244:125,1,140,2|2,0:0|0:0,0:0:0:0:
183,194,8499,1,0,0:0:0:0:
144,280,8749,5,4,0:0:0:0:
329,301,9249,6,0,P|363:267|377:219,1,70,2|2,0:0|0:0,0:0:0:0:
451,202,9749,2,0,P|450:153|425:110,1,70,2|2,0:3|0:3,0:0:0:0:
464,45,10249,1,2,0:3:0:0:
282,43,10749,6,0,B|262:78|262:78|263:108,2,70,2|2|0,0:1|0:1|0:0,0:0:0:0:
349,103,11499,2,0,B|349:143|349:143|365:168,2,70,2|2|0,0:1|0:1|0:0,0:0:0:0:
437,121,12249,2,0,B|457:155|457:155|483:169,1,70,2|2,0:1|0:1,0:0:0:0:
505,258,12749,5,4,0:0:0:0:
333,319,13249,2,0,P|268:337|231:363,1,70,2|2,0:0|0:0,0:0:0:0:
202,272,13749,2,0,P|137:254|100:228,1,70,2|2,0:3|0:3,0:0:0:0:
60,304,14249,1,2,0:3:0:0:
32,124,14749,6,0,B|32:83|32:83|48:58,2,70,2|2|0,0:1|0:1|0:0,0:0:0:0:
120,106,15499,2,0,B|140:71|140:71|166:57,2,70,2|2|0,0:1|0:1|0:0,0:0:0:0:
206,134,16250,1,2,0:1:0:0:
252,211,16499,1,2,0:1:0:0:
223,297,16749,5,4,0:0:0:0:
402,328,17249,2,0,P|428:286|435:238,1,70,2|2,0:0|0:0,0:0:0:0:
429,175,17749,2,0,P|440:141|460:113,1,70,2|2,0:0|0:0,0:0:0:0:
402,328,18749,2,0,P|428:286|435:238,1,70,2|2,0:0|0:0,0:0:0:0:
429,175,19249,2,0,P|440:141|460:113,1,70,2|0,0:0|0:0,0:0:0:0:
283,66,19999,2,0,P|271:99|251:127,1,70,0|2,0:0|0:0,0:0:0:0:
69,125,20749,5,2,0:0:0:0:
185,264,21249,2,0,L|276:264,1,70,2|2,0:0|0:0,0:0:0:0:
255,355,21749,2,0,L|164:355,1,70,2|0,0:0|0:0,0:0:0:0:
182,82,22749,2,0,L|273:82,1,70,2|2,0:0|0:0,0:0:0:0:
252,173,23249,2,0,L|161:173,1,70,2|0,0:0|0:0,0:0:0:0:
27,268,23999,2,0,P|13:319|22:351,2,70,2|2|2,0:3|0:3|0:3,0:0:0:0:
105,315,24749,6,0,P|151:337|202:329,4,105,4|0|4|0|0,0:0|0:0|0:0|0:0|0:0,0:0:0:0:
165,247,26499,1,0,0:0:0:0:
242,198,26749,2,0,B|280:179|280:179|367:201,2,105,0|4|4,0:0|0:0|0:0,0:0:0:0:
96,88,27999,2,0,B|92:54|92:54|102:16,2,70,4|0|0,0:0|0:0|0:0,0:0:0:0:
183,63,28749,6,0,P|242:71|277:58,1,70,2|0,0:3|0:0,0:0:0:0:
295,58,29124,2,0,P|329:54|363:63,1,70,8|0,3:0|0:0,0:0:0:0:
396,95,29499,2,0,L|391:214,1,105,2|8,0:1|3:0,0:0:0:0:
389,245,29999,1,2,0:3:0:0:
322,307,30249,2,0,L|252:307,1,70,0|8,0:0|3:0,0:0:0:0:
171,264,30749,6,0,P|163:229|167:195,1,70,8|0,3:0|0:0,0:0:0:0:
189,155,31124,2,0,P|192:120|185:86,1,70,2|0,0:0|0:0,0:0:0:0:
160,48,31499,2,0,L|90:48,2,70,2|2|2,0:1|0:1|0:1,0:0:0:0:
244,14,32249,1,2,0:0:0:0:
316,68,32499,1,2,0:0:0:0:
400,34,32749,6,0,P|398:102|350:150,1,140,4|2,0:0|0:3,0:0:0:0:
161,150,33749,2,0,P|113:102|111:34,1,140,2|2,0:3|0:3,0:0:0:0:
256,145,34749,6,0,L|256:285,1,140,2|2,0:0|0:3,0:0:0:0:
400,174,35749,2,0,L|400:34,1,140,2|2,0:3|0:3,0:0:0:0:
256,145,36749,6,0,P|187:158|120:142,1,140,0|8,0:0|3:3,0:0:0:0:
6,0,37749,1,8,3:3:0:0:
120,142,38249,1,8,3:3:0:0:
261,27,38749,6,0,P|329:13|396:29,1,140,0|8,0:0|3:0,0:0:0:0:
511,172,39749,1,8,3:0:0:0:
397,30,40249,1,8,3:0:0:0:
507,200,40749,5,4,0:0:0:0:
