osu file format v14

[General]
AudioFilename: audio.mp3
AudioLeadIn: 0
PreviewTime: 24686
Countdown: 1
SampleSet: Soft
StackLeniency: 0.4
Mode: 0
LetterboxInBreaks: 0
WidescreenStoryboard: 1

[Editor]
Bookmarks: 8751,16751,24751,28751,32751,40751
DistanceSpacing: 1.3
BeatDivisor: 4
GridSize: 8
TimelineZoom: 1

[Metadata]
Title:Reitou Container
TitleUnicode:冷凍コンテナ
Artist:Satou Hitomi
ArtistUnicode:佐藤仁美
Creator:Hobbes2
Version:Hard
Source:ポケットモンスター ブラック
Tags:Pokémon Black Version White Cold Storage Twist Mountain Pokemon Ice Driftveil pkhg
BeatmapID:1437876
BeatmapSetID:679707

[Difficulty]
HPDrainRate:4
CircleSize:2.8
OverallDifficulty:6
ApproachRate:7.3
SliderMultiplier:1.8
SliderTickRate:1

[Events]
//Background and Video events
0,0,"kyuremPogChamp.jpg",0,0
//Break Periods
//Storyboard Layer 0 (Background)
//Storyboard Layer 1 (Fail)
//Storyboard Layer 2 (Pass)
//Storyboard Layer 3 (Foreground)
//Storyboard Sound Samples

[TimingPoints]
749,500,4,2,0,41,1,0
28749,-83.3333333333333,4,2,0,51,0,1
30249,-100,4,2,0,51,0,1
30749,-83.3333333333333,4,2,0,51,0,1
32749,-100,4,2,0,41,0,0
35249,-100,4,2,0,31,0,0
37249,-100,4,2,0,21,0,0
38749,-100,4,2,0,31,0,0
39249,-100,4,2,0,21,0,0
40749,-100,4,2,0,41,0,0

[Colours]
Combo1 : 0,128,128
Combo2 : 0,255,255
Combo3 : 0,193,193

[HitObjects]
196,142,749,6,0,L|375:126,1,180,4|0,0:0|0:0,0:0:0:0:
388,233,1499,2,0,L|208:248,1,180,4|0,0:0|0:0,0:0:0:0:
196,142,2249,2,0,P|120:185|101:270,1,180,4|0,0:0|0:0,0:0:0:0:
208,248,2999,2,0,P|283:204|302:119,1,180,4|0,0:0|0:0,0:0:0:0:
196,142,3749,1,4,0:0:0:0:
196,142,4249,1,4,0:0:0:0:
195,142,4749,6,0,P|257:118|321:135,1,135,4|0,0:0|0:0,0:0:0:0:
359,174,5249,2,0,P|365:208|364:234,4,45,0|0|0|0|2,0:0|0:0|0:0|0:0|0:0,0:0:0:0:
249,303,5999,1,0,0:0:0:0:
265,288,6124,1,0,0:0:0:0:
284,276,6249,1,2,0:0:0:0:
417,334,6499,2,0,P|384:322|362:308,1,45,0|0,0:0|0:0,0:0:0:0:
321,310,6749,6,0,L|186:298,1,135,4|0,0:0|0:0,0:0:0:0:
134,284,7249,2,0,P|120:239|129:187,1,90,0|0,0:0|0:0,0:0:0:0:
219,94,7749,2,0,P|219:116|215:139,4,45,2|0|0|0|2,0:0|0:0|0:0|0:0|0:0,0:0:0:0:
306,30,8499,1,0,0:0:0:0:
306,30,8624,1,0,0:0:0:0:
306,30,8749,6,0,P|367:13|440:35,1,135,4|0,0:0|0:0,0:0:0:0:
484,56,9249,1,2,0:0:0:0:
445,157,9499,1,2,0:0:0:0:
360,224,9749,1,2,0:3:0:0:
257,257,9999,1,2,0:3:0:0:
147,252,10249,2,0,P|106:232|71:203,1,90,2|2,0:3|0:0,0:0:0:0:
239,151,10749,5,2,0:1:0:0:
257,257,10999,1,2,0:1:0:0:
275,363,11249,1,0,0:0:0:0:
232,154,11499,5,2,0:1:0:0:
268,255,11749,1,2,0:1:0:0:
304,357,11999,1,0,0:0:0:0:
226,159,12249,5,2,0:1:0:0:
279,252,12499,1,2,0:1:0:0:
133,212,12749,6,0,L|145:77,1,135,4|0,0:0|0:0,0:0:0:0:
152,24,13249,5,2,0:0:0:0:
259,10,13499,1,2,0:0:0:0:
344,75,13749,1,2,0:3:0:0:
358,181,13999,1,2,0:3:0:0:
293,266,14249,2,0,L|203:258,1,90,2|2,0:3|0:0,0:0:0:0:
358,181,14749,5,2,0:1:0:0:
399,279,14999,1,2,0:1:0:0:
334,363,15249,1,0,0:0:0:0:
356,172,15499,5,2,0:1:0:0:
406,266,15749,1,2,0:1:0:0:
348,355,15999,1,0,0:0:0:0:
354,163,16249,5,2,0:1:0:0:
362,346,16499,1,2,0:1:0:0:
199,261,16749,5,4,0:0:0:0:
199,261,17249,2,0,P|203:189|190:147,1,90,0|2,0:0|0:0,0:0:0:0:
172,124,17624,1,2,0:0:0:0:
172,124,17749,1,0,0:0:0:0:
258,59,17999,2,0,L|379:59,1,90,2|0,0:0|0:0,0:0:0:0:
384,97,18374,2,0,L|263:97,1,90,2|0,0:0|0:0,0:0:0:0:
330,135,18749,5,0,0:0:0:0:
402,215,18999,2,0,P|420:288|409:338,1,90,2|0,0:0|0:0,0:0:0:0:
464,273,19374,2,0,P|462:228|447:186,1,90,2|0,0:0|0:0,0:0:0:0:
402,215,19749,2,0,P|364:230|345:232,3,45,2|0|0|2,0:0|0:0|0:0|0:0,0:0:0:0:
314,259,20249,2,0,P|276:244|257:242,3,45,0|0|2|0,0:0|0:0|0:0|0:0,0:0:0:0:
219,256,20749,5,2,0:0:0:0:
219,256,21249,2,0,P|177:273|133:272,1,90,0|2,0:0|0:0,0:0:0:0:
87,242,21624,1,2,0:0:0:0:
87,242,21749,1,0,0:3:0:0:
34,147,21999,2,0,L|36:57,1,90,2|0,0:0|0:0,0:0:0:0:
74,18,22374,2,0,L|71:107,1,90,2|0,0:0|0:0,0:0:0:0:
108,67,22749,5,0,0:0:0:0:
211,37,22999,2,0,L|301:39,1,90,2|0,0:0|0:0,0:0:0:0:
340,77,23374,2,0,L|251:74,1,90,2|0,0:0|0:0,0:0:0:0:
291,111,23749,1,2,0:0:0:0:
374,179,23999,2,0,P|400:245|400:277,2,90,2|2|2,0:3|0:3|0:3,0:0:0:0:
273,216,24749,6,0,B|175:234|175:234|143:218,1,135,4|0,0:0|0:0,0:0:0:0:
203,67,25499,2,0,B|300:48|300:48|332:64,1,135,4|0,0:0|0:0,0:0:0:0:
291,258,26249,2,0,P|273:216|274:172,1,90,0|0,0:0|0:0,0:0:0:0:
332,64,26749,5,0,0:0:0:0:
479,196,27124,1,4,0:0:0:0:
299,266,27499,2,0,B|161:242|161:242|210:220,1,180,4|4,0:0|0:0,0:0:0:0:
298,264,28249,1,0,0:0:0:0:
298,264,28499,1,0,0:0:0:0:
378,177,28749,6,0,P|384:117|380:99,2,53.9999983520508,2|8|0,0:3|3:0|0:0,0:0:0:0:
302,135,29124,2,0,P|277:80|264:66,2,53.9999983520508,8|8|0,3:0|3:0|0:0,0:0:0:0:
215,136,29499,5,2,0:1:0:0:
195,117,29624,1,2,0:1:0:0:
172,103,29749,2,0,L|118:99,1,53.9999983520508,2|8,0:1|3:0,0:0:0:0:
43,142,29999,2,0,L|39:195,1,53.9999983520508,2|0,0:3|0:0,0:0:0:0:
60,245,30249,6,0,P|61:278|69:302,3,45,0|0|8|0,0:0|0:0|3:0|0:0,0:0:0:0:
144,258,30749,6,0,P|165:239|188:226,2,53.9999983520508,8|8|0,3:0|3:0|0:0,0:0:0:0:
215,307,31124,2,0,P|242:301|269:301,2,53.9999983520508,2|2|0,0:0|0:3|0:0,0:0:0:0:
137,343,31499,5,2,0:1:0:0:
110,341,31624,1,2,0:1:0:0:
83,339,31749,1,2,0:1:0:0:
56,337,31874,1,2,0:1:0:0:
28,333,31999,6,0,P|17:288|21:256,1,53.9999983520508,2|0,0:1|0:0,0:0:0:0:
58,204,32249,2,0,P|66:178|68:151,1,53.9999983520508,2|0,0:0|0:0,0:0:0:0:
12,29,32499,1,2,0:2:0:0:
14,56,32624,1,2,0:2:0:0:
16,83,32749,6,0,P|97:93|163:58,1,135,4|0,0:0|0:0,0:0:0:0:
192,47,33249,2,0,P|207:98|213:147,1,90,2|2,0:3|0:3,0:0:0:0:
319,149,33749,2,0,P|305:191|298:236,1,90,2|2,0:3|0:3,0:0:0:0:
192,251,34249,2,0,P|205:293|212:338,1,90,2|0,0:3|0:0,0:0:0:0:
105,353,34749,6,0,P|39:364|-10:283,1,135,2|0,0:0|0:0,0:0:0:0:
6,267,35249,2,0,L|15:155,1,90,2|2,0:3|0:3,0:0:0:0:
97,109,35749,2,0,L|209:118,1,90,2|2,0:3|0:3,0:0:0:0:
255,200,36249,2,0,L|246:312,1,90,2|0,0:3|0:0,0:0:0:0:
346,333,36749,6,0,P|412:300|439:215,1,135,0|0,0:0|0:0,0:0:0:0:
431,193,37249,1,8,3:3:0:0:
431,193,37749,1,8,3:3:0:0:
431,193,38249,1,8,3:3:0:0:
431,193,38749,6,0,L|263:182,1,135,0|0,0:0|0:0,0:0:0:0:
242,180,39249,1,8,3:0:0:0:
242,180,39749,1,8,3:0:0:0:
242,180,40249,1,8,3:0:0:0:
173,263,40499,1,0,0:0:0:0:
110,110,40749,5,4,0:0:0:0:
