osu file format v14

[General]
AudioFilename: audio.mp3
AudioLeadIn: 0
PreviewTime: 7209
Countdown: 0
SampleSet: Normal
StackLeniency: 0.7
Mode: 1
LetterboxInBreaks: 0
WidescreenStoryboard: 1

[Editor]
Bookmarks: 7261,13928,20595,27261,33928,40595,47261
DistanceSpacing: 3.2
BeatDivisor: 8
GridSize: 32
TimelineZoom: 1

[Metadata]
Title:Dark Trinity no Thema
TitleUnicode:ダークトリニティのテーマ
Artist:Satou Hitomi
ArtistUnicode:佐藤仁美
Creator:Default Guy
Version:Shadow Oni
Source:ポケットモンスター ブラック2・ホワイト2
Tags:video game instrumental pokemon pokémon pocket monsters black white shadow triad theme team plasma body guards freak company nintendo gen v 5 ds nds unova
BeatmapID:2676783
BeatmapSetID:1289460

[Difficulty]
HPDrainRate:6.5
CircleSize:2
OverallDifficulty:5.5
ApproachRate:10
SliderMultiplier:1.6
SliderTickRate:1

[Events]
//Background and Video events
0,0,"triad.jpg",0,120
//Break Periods
//Storyboard Layer 0 (Background)
//Storyboard Layer 1 (Fail)
//Storyboard Layer 2 (Pass)
//Storyboard Layer 3 (Foreground)
//Storyboard Layer 4 (Overlay)
//Storyboard Sound Samples

[TimingPoints]
595,416.666666666667,4,1,0,40,1,0
595,-133.333333333333,4,1,0,40,0,0
6220,-133.333333333333,4,1,0,50,0,0
6376,-125,4,1,0,50,0,0
6480,-121.212121212121,4,1,0,50,0,0
6584,-117.647058823529,4,1,0,50,0,0
6688,-114.285714285714,4,1,0,50,0,0
6792,-111.111111111111,4,1,0,50,0,0
6897,-108.108108108108,4,1,0,50,0,0
7001,-105.263157894737,4,1,0,50,0,0
7105,-102.564102564103,4,1,0,50,0,0
7261,-100,4,1,0,60,0,0
13928,-100,4,1,0,60,0,1
20595,-100,4,1,0,60,0,0
33928,-100,4,1,0,60,0,1
40595,-100,4,1,0,60,0,0

[HitObjects]
89,165,595,5,8,0:0:0:0:
283,111,803,1,0,0:0:0:0:
89,165,1011,1,8,0:0:0:0:
283,111,1220,1,0,0:0:0:0:
89,165,1428,1,8,0:0:0:0:
89,165,1636,1,0,0:0:0:0:
89,165,1740,1,8,0:0:0:0:
89,165,1949,1,0,0:0:0:0:
114,172,2053,1,8,0:0:0:0:
89,165,2261,1,8,0:0:0:0:
98,170,2470,1,8,0:0:0:0:
89,165,2678,1,0,0:0:0:0:
178,123,2886,1,0,0:0:0:0:
89,165,3095,1,8,0:0:0:0:
89,165,3303,1,0,0:0:0:0:
89,165,3407,1,8,0:0:0:0:
89,165,3615,1,0,0:0:0:0:
114,172,3720,1,8,0:0:0:0:
201,105,3824,1,8,0:0:0:0:
89,165,3928,1,8,0:0:0:0:
157,172,4136,1,8,0:0:0:0:
89,165,4345,1,0,0:0:0:0:
188,110,4553,1,0,0:0:0:0:
89,165,4761,1,8,0:0:0:0:
89,165,4970,1,0,0:0:0:0:
89,165,5074,1,8,0:0:0:0:
89,165,5282,1,0,0:0:0:0:
114,172,5386,1,8,0:0:0:0:
89,165,5595,1,8,0:0:0:0:
98,170,5803,1,8,0:0:0:0:
89,165,6011,1,0,0:0:0:0:
210,89,6220,1,0,0:0:0:0:
89,165,6428,1,8,0:0:0:0:
166,183,6532,1,8,0:0:0:0:
89,165,6636,1,0,0:0:0:0:
212,163,6740,1,8,0:0:0:0:
166,183,6845,1,8,0:0:0:0:
89,165,6949,1,0,0:0:0:0:
114,172,7053,1,8,0:0:0:0:
212,163,7157,1,0,0:0:0:0:
164,139,7261,1,8,0:0:0:0:
165,194,7365,1,8,0:0:0:0:
174,195,7470,1,0,0:0:0:0:
174,196,7574,1,0,0:0:0:0:
284,263,7678,1,8,0:0:0:0:
105,149,7886,1,0,0:0:0:0:
225,256,8095,1,8,0:0:0:0:
162,169,8303,1,0,0:0:0:0:
162,169,8407,1,0,0:0:0:0:
162,169,8511,1,8,0:0:0:0:
140,45,8615,1,8,0:0:0:0:
172,119,8824,1,8,0:0:0:0:
162,186,9032,1,0,0:0:0:0:
158,180,9136,1,8,0:0:0:0:
162,186,9240,1,0,0:0:0:0:
181,132,9553,1,0,0:0:0:0:
151,221,9761,1,0,0:0:0:0:
151,221,9865,1,0,0:0:0:0:
151,221,10074,1,8,0:0:0:0:
151,221,10178,1,8,0:0:0:0:
151,221,10386,1,0,0:0:0:0:
151,221,10490,1,0,0:0:0:0:
277,102,10595,1,8,0:0:0:0:
218,207,10699,1,8,0:0:0:0:
218,207,10803,1,0,0:0:0:0:
218,207,10907,1,0,0:0:0:0:
207,121,11011,1,8,0:0:0:0:
182,130,11220,1,0,0:0:0:0:
152,153,11428,1,8,0:0:0:0:
143,190,11636,1,0,0:0:0:0:
143,190,11740,1,0,0:0:0:0:
143,190,11845,1,8,0:0:0:0:
181,85,11949,1,8,0:0:0:0:
204,160,12157,1,8,0:0:0:0:
204,160,12365,1,0,0:0:0:0:
204,160,12470,1,0,0:0:0:0:
191,165,12574,1,8,0:0:0:0:
107,155,12886,1,0,0:0:0:0:
205,121,13095,1,0,0:0:0:0:
205,121,13199,1,0,0:0:0:0:
205,121,13407,1,8,0:0:0:0:
208,113,13511,1,8,0:0:0:0:
202,112,13720,1,0,0:0:0:0:
108,155,13928,1,0,0:0:0:0:
193,129,14136,1,8,0:0:0:0:
108,155,14345,1,0,0:0:0:0:
111,144,14449,1,8,0:0:0:0:
113,145,14657,1,0,0:0:0:0:
111,145,14761,1,0,0:0:0:0:
101,152,14970,1,0,0:0:0:0:
108,155,15074,1,8,0:0:0:0:
100,153,15282,1,0,0:0:0:0:
102,150,15386,1,8,0:0:0:0:
102,150,15490,1,8,0:0:0:0:
108,155,15595,1,0,0:0:0:0:
108,155,15803,1,8,0:0:0:0:
108,155,16011,1,0,0:0:0:0:
111,144,16115,1,8,0:0:0:0:
113,145,16324,1,0,0:0:0:0:
111,145,16428,1,0,0:0:0:0:
101,152,16636,1,0,0:0:0:0:
108,155,16740,1,8,0:0:0:0:
100,153,16949,1,0,0:0:0:0:
102,150,17053,1,8,0:0:0:0:
102,150,17157,1,8,0:0:0:0:
108,155,17261,1,8,0:0:0:0:
186,109,17470,1,8,0:0:0:0:
108,155,17678,1,8,0:0:0:0:
111,144,17782,1,8,0:0:0:0:
113,145,17990,1,0,0:0:0:0:
111,145,18095,1,0,0:0:0:0:
101,152,18303,1,8,0:0:0:0:
108,155,18407,1,8,0:0:0:0:
100,153,18615,1,0,0:0:0:0:
102,150,18720,1,8,0:0:0:0:
102,150,18824,1,8,0:0:0:0:
108,155,18928,1,0,0:0:0:0:
108,155,19136,1,8,0:0:0:0:
156,131,19240,1,8,0:0:0:0:
108,155,19345,1,0,0:0:0:0:
111,144,19449,1,8,0:0:0:0:
113,145,19657,1,0,0:0:0:0:
111,145,19761,1,0,0:0:0:0:
163,164,19865,1,8,0:0:0:0:
101,152,19970,1,0,0:0:0:0:
108,155,20074,1,8,0:0:0:0:
100,153,20282,1,0,0:0:0:0:
102,150,20386,1,8,0:0:0:0:
102,150,20490,1,8,0:0:0:0:
178,153,20595,1,0,0:0:0:0:
209,123,20803,1,0,0:0:0:0:
159,158,21011,1,8,0:0:0:0:
148,148,21220,1,0,0:0:0:0:
149,151,21324,1,8,0:0:0:0:
149,151,21428,1,0,0:0:0:0:
160,158,21636,1,0,0:0:0:0:
159,158,21845,1,8,0:0:0:0:
200,95,21949,1,0,0:0:0:0:
210,117,22157,1,0,0:0:0:0:
160,158,22261,1,0,0:0:0:0:
194,142,22470,1,0,0:0:0:0:
160,158,22678,1,8,0:0:0:0:
209,117,22886,1,0,0:0:0:0:
209,118,22990,1,0,0:0:0:0:
210,117,23095,1,8,0:0:0:0:
160,158,23303,1,0,0:0:0:0:
160,158,23511,1,8,0:0:0:0:
209,117,23615,1,8,0:0:0:0:
209,117,23824,1,0,0:0:0:0:
160,158,23928,1,0,0:0:0:0:
202,137,24136,1,0,0:0:0:0:
160,158,24345,1,8,0:0:0:0:
190,101,24553,1,0,0:0:0:0:
190,100,24657,1,0,0:0:0:0:
188,101,24761,1,0,0:0:0:0:
160,158,24970,1,0,0:0:0:0:
160,158,25178,1,8,0:0:0:0:
147,133,25282,1,0,0:0:0:0:
151,130,25490,1,0,0:0:0:0:
160,158,25595,1,8,0:0:0:0:
160,166,25803,1,0,0:0:0:0:
160,158,26011,1,8,0:0:0:0:
162,167,26220,1,0,0:0:0:0:
162,167,26324,1,8,0:0:0:0:
162,165,26428,1,8,0:0:0:0:
166,156,26636,1,0,0:0:0:0:
166,156,26845,1,8,0:0:0:0:
181,190,27053,1,0,0:0:0:0:
187,182,27157,1,0,0:0:0:0:
164,139,27261,1,8,0:0:0:0:
165,194,27365,1,8,0:0:0:0:
174,195,27470,1,0,0:0:0:0:
174,196,27574,1,0,0:0:0:0:
284,263,27678,1,8,0:0:0:0:
211,134,27886,1,0,0:0:0:0:
225,256,28095,1,8,0:0:0:0:
162,169,28303,1,0,0:0:0:0:
162,169,28407,1,0,0:0:0:0:
162,169,28511,1,8,0:0:0:0:
140,45,28615,1,8,0:0:0:0:
172,119,28824,1,8,0:0:0:0:
162,186,29032,1,0,0:0:0:0:
158,180,29136,1,8,0:0:0:0:
162,186,29240,1,0,0:0:0:0:
181,132,29553,1,0,0:0:0:0:
151,221,29761,1,0,0:0:0:0:
151,221,29865,1,0,0:0:0:0:
151,221,30074,1,8,0:0:0:0:
151,221,30178,1,8,0:0:0:0:
151,221,30386,1,0,0:0:0:0:
151,221,30490,1,0,0:0:0:0:
277,102,30595,1,8,0:0:0:0:
218,207,30699,1,8,0:0:0:0:
218,207,30803,1,0,0:0:0:0:
218,207,30907,1,0,0:0:0:0:
207,121,31011,1,8,0:0:0:0:
211,134,31220,1,0,0:0:0:0:
152,153,31428,1,8,0:0:0:0:
143,190,31636,1,0,0:0:0:0:
143,190,31740,1,0,0:0:0:0:
143,190,31845,1,8,0:0:0:0:
181,85,31949,1,8,0:0:0:0:
204,160,32157,1,8,0:0:0:0:
204,160,32365,1,0,0:0:0:0:
204,160,32470,1,0,0:0:0:0:
191,165,32574,1,8,0:0:0:0:
107,155,32886,1,0,0:0:0:0:
205,121,33095,1,0,0:0:0:0:
205,121,33199,1,0,0:0:0:0:
205,121,33407,1,8,0:0:0:0:
208,113,33511,1,8,0:0:0:0:
202,112,33720,1,0,0:0:0:0:
108,155,33928,1,0,0:0:0:0:
204,90,34136,1,8,0:0:0:0:
108,155,34345,1,0,0:0:0:0:
111,144,34449,1,8,0:0:0:0:
113,145,34657,1,0,0:0:0:0:
111,145,34761,1,0,0:0:0:0:
101,152,34970,1,0,0:0:0:0:
108,155,35074,1,8,0:0:0:0:
100,153,35282,1,0,0:0:0:0:
102,150,35386,1,8,0:0:0:0:
102,150,35490,1,8,0:0:0:0:
108,155,35595,1,0,0:0:0:0:
108,155,35803,1,8,0:0:0:0:
108,155,36011,1,0,0:0:0:0:
111,144,36115,1,8,0:0:0:0:
113,145,36324,1,0,0:0:0:0:
111,145,36428,1,0,0:0:0:0:
101,152,36636,1,0,0:0:0:0:
108,155,36740,1,8,0:0:0:0:
100,153,36949,1,0,0:0:0:0:
102,150,37053,1,8,0:0:0:0:
102,150,37157,1,8,0:0:0:0:
108,155,37261,1,0,0:0:0:0:
227,89,37470,1,8,0:0:0:0:
108,155,37678,1,8,0:0:0:0:
111,144,37782,1,8,0:0:0:0:
113,145,37990,1,0,0:0:0:0:
111,145,38095,1,0,0:0:0:0:
101,152,38303,1,8,0:0:0:0:
108,155,38407,1,8,0:0:0:0:
100,153,38615,1,0,0:0:0:0:
102,150,38720,1,8,0:0:0:0:
102,150,38824,1,8,0:0:0:0:
108,155,38928,1,0,0:0:0:0:
108,155,39136,1,8,0:0:0:0:
156,131,39240,1,8,0:0:0:0:
108,155,39345,1,0,0:0:0:0:
111,144,39449,1,8,0:0:0:0:
113,145,39657,1,0,0:0:0:0:
111,145,39761,1,0,0:0:0:0:
163,164,39865,1,8,0:0:0:0:
101,152,39970,1,0,0:0:0:0:
108,155,40074,1,8,0:0:0:0:
100,153,40282,5,0,0:0:0:0:
102,150,40386,1,8,0:0:0:0:
102,150,40490,1,8,0:0:0:0:
178,153,40595,1,0,0:0:0:0:
228,91,40803,1,0,0:0:0:0:
159,158,41011,1,8,0:0:0:0:
148,148,41220,1,0,0:0:0:0:
149,151,41324,1,8,0:0:0:0:
149,151,41428,1,0,0:0:0:0:
160,158,41636,1,0,0:0:0:0:
159,158,41845,1,8,0:0:0:0:
200,95,41949,1,0,0:0:0:0:
210,117,42157,1,0,0:0:0:0:
160,158,42261,1,0,0:0:0:0:
194,142,42470,1,0,0:0:0:0:
160,158,42678,1,8,0:0:0:0:
209,117,42886,1,0,0:0:0:0:
209,118,42990,1,0,0:0:0:0:
210,117,43095,1,8,0:0:0:0:
160,158,43303,1,0,0:0:0:0:
160,158,43511,1,8,0:0:0:0:
209,117,43615,1,8,0:0:0:0:
209,117,43824,1,0,0:0:0:0:
160,158,43928,1,0,0:0:0:0:
230,92,44136,1,0,0:0:0:0:
160,158,44345,1,8,0:0:0:0:
190,101,44553,1,0,0:0:0:0:
190,100,44657,1,0,0:0:0:0:
188,101,44761,1,0,0:0:0:0:
160,158,44970,1,0,0:0:0:0:
160,158,45178,1,8,0:0:0:0:
147,133,45282,1,0,0:0:0:0:
151,130,45490,1,0,0:0:0:0:
160,158,45595,1,8,0:0:0:0:
160,166,45803,1,0,0:0:0:0:
160,158,46011,1,8,0:0:0:0:
162,167,46220,1,0,0:0:0:0:
162,167,46324,1,8,0:0:0:0:
162,165,46428,1,8,0:0:0:0:
166,156,46636,5,0,0:0:0:0:
166,156,46845,1,8,0:0:0:0:
181,190,47053,5,8,0:0:0:0:
187,182,47157,1,8,0:0:0:0:
253,125,47261,1,4,0:0:0:0:
