osu file format v14

[General]
AudioFilename: Kowarekake no Orgol.mp3
AudioLeadIn: 2001
PreviewTime: 67322
Countdown: 0
SampleSet: Soft
StackLeniency: 0.3
Mode: 0
LetterboxInBreaks: 0
WidescreenStoryboard: 1

[Editor]
Bookmarks: 31,66492,112646,156954,203107,232646,264031
DistanceSpacing: 1.4
BeatDivisor: 6
GridSize: 8
TimelineZoom: 2.1

[Metadata]
Title:KOWAREKAKE NO ORGEL
TitleUnicode:こわれかけのオルゴール
Artist:Satou Hiromi
ArtistUnicode:佐藤ひろ美
Creator:kanpakyin
Version:Orgel
Source:こわれかけのオルゴール
Tags:ed ending original anime Japanese POP electromagneticwave ふらわー 敬一郎 Loneight spboxer3 collaboration full version TSUKASA (SOUND ONLINE) 文月真 Flower Half-Broken Music Box 矢鴇つかさ Yatoki
BeatmapID:861518
BeatmapSetID:51292

[Difficulty]
HPDrainRate:5
CircleSize:4.3
OverallDifficulty:7
ApproachRate:8.5
SliderMultiplier:1.3
SliderTickRate:1

[Events]
//Background and Video events
0,0,"BG.jpg",0,0
//Break Periods
//Storyboard Layer 0 (Background)
//Storyboard Layer 1 (Fail)
//Storyboard Layer 2 (Pass)
//Storyboard Layer 3 (Foreground)
//Storyboard Layer 4 (Overlay)
//Storyboard Sound Samples

[TimingPoints]
15,461.538461538462,4,2,1,50,1,0
7399,-100,4,2,1,50,0,0
22168,-100,4,2,2,40,0,0
23553,-100,4,2,1,40,0,0
23784,-100,4,2,2,40,0,0
25399,-100,4,2,1,40,0,0
25630,-100,4,2,2,40,0,0
27245,-100,4,2,1,40,0,0
27361,-100,4,2,2,40,0,0
29091,-100,4,2,1,40,0,0
29207,-100,4,2,2,40,0,0
30938,-100,4,2,1,40,0,0
31053,-100,4,2,2,40,0,0
32784,-100,4,2,1,40,0,0
32899,-100,4,2,2,40,0,0
34630,-100,4,2,1,40,0,0
34745,-100,4,2,2,40,0,0
35322,-100,4,2,1,40,0,0
36015,-100,4,2,2,40,0,0
36245,-100,4,2,1,40,0,0
36476,-100,4,2,2,40,0,0
36591,-100,4,2,1,40,0,0
36938,-90.9090909090909,4,2,1,50,0,0
49861,-90.9090909090909,4,2,2,40,0,0
49976,-90.9090909090909,4,2,1,50,0,0
50553,-90.9090909090909,4,2,2,50,0,0
51707,-90.9090909090909,4,2,1,50,0,0
66476,-200,4,2,1,50,0,0
67168,-200,4,2,1,10,0,0
67399,-100,4,2,1,50,0,0
68322,-100,4,2,1,50,0,1
97053,-100,4,2,1,10,0,1
97168,-100,4,2,1,50,0,1
97284,-100,4,2,1,10,0,1
97399,-100,4,2,1,50,0,1
97515,-100,4,2,1,10,0,1
97630,-100,4,2,1,50,0,1
97745,-100,4,2,1,10,0,1
97861,-100,4,2,1,60,0,0
112630,-133.333333333333,4,2,1,60,0,0
119091,-113.636363636364,4,2,1,60,0,0
119438,-100,4,2,1,60,0,0
120015,-133.333333333333,4,2,1,60,0,0
127053,-100,4,2,1,60,0,0
127399,-100,4,2,1,60,0,0
142168,-133.333333333333,4,2,1,60,0,0
143322,-100,4,2,1,60,0,0
143668,-113.636363636364,4,2,1,60,0,0
144015,-133.333333333333,4,2,1,60,0,0
149553,-100,4,2,1,60,0,0
156938,-133.333333333333,4,2,1,60,0,0
158784,-83.3333333333333,4,2,1,60,0,1
178861,-83.3333333333333,4,2,2,60,0,1
178976,-83.3333333333333,4,2,1,60,0,1
188322,-100,4,2,1,50,0,0
188438,-100,4,2,2,50,0,0
196861,-100,4,2,1,50,0,0
197091,-100,4,2,2,50,0,0
197322,-100,4,2,1,50,0,0
197438,-100,4,2,2,50,0,0
203091,-100,4,2,1,50,0,0
203322,-100,4,2,1,55,0,0
204130,-100,4,2,2,55,0,0
204361,-100,4,2,1,55,0,0
205168,-100,4,2,2,55,0,0
205284,-100,4,2,1,55,0,0
206553,-100,4,2,2,55,0,0
206784,-100,4,2,1,55,0,0
208284,-100,4,2,2,55,0,0
208976,-100,4,2,1,55,0,0
211630,-100,4,2,2,55,0,0
211861,-100,4,2,1,55,0,0
215091,-100,4,2,2,55,0,0
215438,-100,4,2,1,55,0,0
215784,-100,4,2,2,55,0,0
215899,-100,4,2,1,55,0,0
216591,-100,4,2,2,55,0,0
217053,-100,4,2,1,55,0,0
217861,-100,4,2,1,60,0,0
218091,-100,4,2,2,60,0,0
220399,-100,4,2,1,60,0,0
220515,-100,4,2,2,60,0,0
222476,-100,4,2,1,60,0,0
222591,-100,4,2,2,60,0,0
225245,-100,4,2,1,60,0,0
225361,-100,4,2,2,60,0,0
226168,-100,4,2,1,60,0,0
226284,-100,4,2,2,60,0,0
227091,-100,4,2,1,60,0,0
227438,-100,4,2,2,60,0,0
228938,-100,4,2,1,60,0,0
229053,-100,4,2,2,60,0,0
232630,-100,4,2,1,50,0,0
234476,-166.666666666667,4,2,1,60,0,0
249245,-133.333333333333,4,2,1,60,0,0
256630,-111.111111111111,4,2,1,60,0,0
257553,-105.263157894737,4,2,1,60,0,0
258476,-100,4,2,1,60,0,0
259399,-95.2380952380952,4,2,1,60,0,0
260322,-90.9090909090909,4,2,1,60,0,0
261938,-133.333333333333,4,2,1,60,0,0
264015,-83.3333333333333,4,2,1,60,0,1
267707,-83.3333333333333,4,2,2,60,0,1
267822,-83.3333333333333,4,2,1,60,0,1
275091,-83.3333333333333,4,2,2,60,0,1
275207,-83.3333333333333,4,2,1,60,0,1
277861,-83.3333333333333,4,2,2,60,0,1
277976,-83.3333333333333,4,2,1,60,0,1
282476,-83.3333333333333,4,2,2,60,0,1
282591,-83.3333333333333,4,2,1,60,0,1
286168,-83.3333333333333,4,2,2,60,0,1
286284,-83.3333333333333,4,2,1,60,0,1
293553,-200,4,2,1,60,0,0
295168,-200,4,2,2,60,0,0
295399,-200,4,2,1,20,0,0
295745,-200,4,2,1,60,0,0
296438,-200,4,2,1,20,0,0
296784,-200,4,2,1,10,0,0
297130,-200,4,2,1,5,0,0

[Colours]
Combo1 : 254,167,221
Combo2 : 137,202,250
Combo3 : 124,252,185

[HitObjects]
120,256,15,5,0,0:0:0:0:
170,331,245,1,2,0:0:0:0:
258,310,476,1,0,0:0:0:0:
420,253,707,2,0,P|441:190|419:116,2,130,2|2|2,0:0|0:0|0:0,0:0:0:0:
413,259,2091,5,0,0:0:0:0:
287,355,2322,2,0,B|242:341|242:341|198:365|141:342,1,130,2|0,0:0|0:0,0:0:0:0:
53,183,3015,2,0,L|38:249,1,65,0|2,0:0|0:0,0:0:0:0:
129,123,3476,2,0,P|132:100|104:50,1,65
211,238,3938,5,2,0:0:0:0:
342,164,4168,1,0,0:0:0:0:
333,322,4399,2,0,B|372:312|413:332|413:332|446:314|445:279,3,130,2|2|2|2,0:0|0:0|0:0|0:0,0:0:0:0:
396,96,6015,1,0,0:0:0:0:
495,210,6245,1,2,0:0:0:0:
367,236,6476,1,0,0:0:0:0:
485,130,6707,6,0,P|493:88|486:54,1,65,2|2,0:0|0:0,0:0:0:0:
443,299,7168,2,0,P|473:318|516:318,1,65,2|4,0:0|1:0,0:0:0:0:
54,188,8091,5,0,1:0:0:0:
54,188,8784,1,8,1:2:0:0:
169,79,9015,1,0,1:0:0:0:
169,79,9476,2,0,P|171:41|140:9,1,65,2|0,0:0|0:0,0:0:0:0:
305,263,9938,2,0,P|368:278|437:245,1,130,0|0,1:0|0:0,0:0:0:0:
231,133,10630,1,8,0:0:0:0:
159,276,10861,1,0,1:0:0:0:
342,325,11091,6,0,P|363:274|324:192,1,130,2|0,1:2|0:0,0:0:0:0:
424,89,11784,2,0,L|277:48,1,130,0|0,1:0|0:0,0:0:0:0:
276,269,12476,1,8,0:0:0:0:
484,150,12707,2,0,P|507:92|481:24,1,130,2|0,0:0|1:0,0:0:0:0:
207,135,13399,5,0,1:0:0:0:
366,235,13630,1,2,0:0:0:0:
208,298,13861,1,8,0:0:0:0:
335,81,14091,1,0,1:0:0:0:
89,71,14322,2,0,L|18:88,1,65,2|0,1:2|0:0,0:0:0:0:
132,263,14784,6,0,P|159:202|138:125,1,130,4|2,1:0|0:0,0:0:0:0:
194,307,15476,2,0,L|45:281,1,130,0|0,1:0|0:0,0:0:0:0:
251,249,16168,1,8,0:0:0:0:
27,352,16399,2,0,P|-7:312|7:228,1,130,2|0,1:2|0:0,0:0:0:0:
50,162,17091,5,2,0:0:0:0:
18,76,17322,2,0,L|4:9,1,65,0|0,1:0|0:0,0:0:0:0:
134,181,17784,1,2,0:0:0:0:
232,62,18015,2,0,P|260:49|303:47,1,65,8|0,0:0|1:0,0:0:0:0:
246,183,18476,2,0,P|220:128|245:42,1,130,0|8,1:0|0:0,0:0:0:0:
322,243,19168,5,2,0:0:0:0:
322,243,19284,1,0,0:0:0:0:
322,243,19399,2,0,L|391:233,1,65,2|2,0:0|0:0,0:0:0:0:
461,285,19861,1,0,1:0:0:0:
491,138,20091,1,12,0:0:0:0:
491,138,20553,5,4,1:0:0:0:
382,324,20784,1,4,1:0:0:0:
382,324,21476,5,0,1:0:0:0:
293,346,21707,1,0,0:0:0:0:
293,346,21822,1,0,1:0:0:0:
293,346,21938,2,0,P|260:346|229:333,1,65,0|2,1:0|0:0,0:0:0:0:
170,285,22630,5,2,0:0:0:0:
134,215,23091,1,2,0:0:0:0:
153,139,23553,1,8,0:0:0:0:
113,334,23784,5,8,0:0:0:0:
170,285,24015,1,2,0:0:0:0:
245,265,24476,1,2,0:0:0:0:
322,272,24938,1,2,0:0:0:0:
388,313,25399,5,8,0:0:0:0:
281,195,25630,1,8,0:0:0:0:
436,158,25861,5,10,0:0:0:0:
482,220,26322,1,2,0:0:0:0:
482,298,26784,1,2,0:0:0:0:
447,367,27245,1,8,0:0:0:0:
360,132,27476,5,0,0:0:0:0:
360,132,27591,1,2,0:0:0:0:
360,132,27707,2,0,P|374:99|359:33,1,97.5,2|0,0:0|0:0,0:0:0:0:
347,29,28168,2,0,L|283:22,1,65,2|0,0:0|0:0,0:0:0:0:
164,146,28630,6,0,P|217:130|253:98,1,97.5,2|0,0:0|0:0,0:0:0:0:
158,114,29091,1,8,0:0:0:0:
147,130,29207,2,0,L|136:205,1,65,8|0,0:0|0:0,0:0:0:0:
80,296,29553,6,0,P|44:300|0:289,1,65,6|0,0:0|0:0,0:0:0:0:
64,149,30015,1,2,0:0:0:0:
200,243,30245,2,0,B|250:264|297:234|297:234|327:252,1,130,8|0,0:0|0:0,0:0:0:0:
235,160,30938,5,8,0:0:0:0:
294,335,31168,1,8,0:0:0:0:
490,252,31399,2,0,P|458:277|382:272,1,97.5,10|0,0:0|0:0,0:0:0:0:
412,262,31861,2,0,P|442:282|465:318,1,65,2|8,0:0|0:0,0:0:0:0:
503,169,32322,5,2,0:0:0:0:
322,252,32553,1,0,0:0:0:0:
322,252,32668,1,0,0:0:0:0:
322,252,32784,1,8,0:0:0:0:
482,86,33015,1,8,0:0:0:0:
374,316,33245,2,0,P|329:334|275:321,1,97.5,10|0,0:0|0:0,0:0:0:0:
208,356,33707,2,0,L|193:281,1,65,2|8,0:0|0:0,0:0:0:0:
53,122,34399,5,0,0:0:0:0:
99,188,34630,1,8,0:0:0:0:
173,164,34861,1,8,0:0:0:0:
191,158,34976,1,2,0:0:0:0:
209,152,35091,2,0,P|223:122|218:73,1,65,8|2,0:0|0:0,0:0:0:0:
305,30,35438,6,0,L|373:19,1,65,0|2,0:0|0:0,0:0:0:0:
485,120,35784,2,0,L|413:106,1,65,0|2,1:0|0:0,0:0:0:0:
455,315,36245,5,8,0:0:0:0:
305,179,36476,1,2,0:0:0:0:
305,179,36591,1,8,0:0:0:0:
305,179,36707,2,0,P|298:214|307:257,1,65,8|4,0:0|0:0,0:0:0:0:
484,239,37168,5,2,0:0:0:0:
305,179,37399,2,0,P|308:222|353:289,1,107.25000327301,8|0,0:0|0:0,0:0:0:0:
305,354,37861,2,0,L|377:366,1,71.5000021820069,0|0,1:0|0:0,0:0:0:0:
232,134,38322,6,0,L|131:122,1,71.5000021820069,8|2,0:0|0:0,0:0:0:0:
98,66,38784,1,0,1:0:0:0:
249,218,39015,2,0,L|164:206,1,71.5000021820069,2|8,0:0|0:0,0:0:0:0:
104,252,39476,1,0,0:0:0:0:
355,97,39707,6,0,P|364:150|325:218,1,107.25000327301,0|0,1:0|0:0,0:0:0:0:
396,261,40168,2,0,P|434:259|472:242,1,71.5000021820069,8|2,0:0|0:0,0:0:0:0:
97,183,40630,2,0,P|96:230|131:288,1,107.25000327301,0|0,1:0|0:0,0:0:0:0:
200,321,41091,2,0,L|275:343,1,71.5000021820069,8|2,0:0|0:0,0:0:0:0:
464,205,41553,5,0,1:0:0:0:
432,346,41784,1,2,0:0:0:0:
482,283,42015,1,8,0:0:0:0:
351,363,42245,1,2,0:0:0:0:
296,200,42476,2,0,L|205:206,1,71.5000021820069,0|2,1:0|0:0,0:0:0:0:
88,315,42938,6,0,P|84:297|86:280,1,35.7500010910034,8|2,0:0|0:0,0:0:0:0:
24,216,43168,1,0,0:0:0:0:
37,175,43284,1,2,0:0:0:0:
7,97,43399,2,0,P|-2:66|3:25,1,71.5000021820069,0|2,1:0|0:0,0:0:0:0:
153,212,43861,2,0,L|253:201,1,71.5000021820069,8|0,0:0|1:0,0:0:0:0:
397,278,44322,6,0,L|264:262,1,107.25000327301,4|0,1:2|0:0,0:0:0:0:
224,120,44784,2,0,P|216:91|227:42,1,71.5000021820069,8|0,0:0|0:0,0:0:0:0:
388,209,45245,6,0,P|402:280|362:342,1,143.000004364014,0|8,1:0|0:0,0:0:0:0:
282,364,45938,1,2,0:0:0:0:
210,187,46168,1,0,1:0:0:0:
85,223,46399,2,0,P|62:226|3:203,1,71.5000021820069,2|8,0:0|0:0,0:0:0:0:
217,336,46861,5,2,0:0:0:0:
288,138,47091,1,0,1:0:0:0:
185,256,47322,1,2,0:0:0:0:
69,145,47553,6,0,L|82:292,2,143.000004364014,8|0|8,0:0|1:0|0:0,0:0:0:0:
189,3,48707,1,2,0:0:0:0:
274,182,48938,6,0,B|231:174|193:192|193:192|168:182|156:156,1,107.25000327301,0|2,1:0|0:0,0:0:0:0:
119,230,49399,1,8,0:0:0:0:
103,99,49630,1,2,0:0:0:0:
89,87,49745,1,0,0:0:0:0:
72,81,49861,2,0,P|44:83|-1:110,1,71.5000021820069,4|0,0:0|0:0,0:0:0:0:
229,264,50322,5,8,0:0:0:0:
342,126,50553,1,2,0:0:0:0:
342,126,50668,1,2,0:0:0:0:
342,126,50784,2,0,L|434:120,1,71.5000021820069,8|8,0:0|0:0,0:0:0:0:
312,324,51245,1,8,0:0:0:0:
240,170,51476,1,8,0:0:0:0:
409,246,51707,6,0,P|416:295|391:348,1,107.25000327301,4|0,0:0|0:0,0:0:0:0:
234,311,52168,2,0,L|150:336,1,71.5000021820069,8|0,0:0|0:0,0:0:0:0:
156,345,52861,5,0,1:0:0:0:
287,169,53091,2,0,L|303:214,1,35.7500010910034,8|0,0:0|1:0,0:0:0:0:
364,255,53322,2,0,P|403:256|448:239,1,71.5000021820069
494,84,53784,1,2,0:0:0:0:
494,84,54245,5,0,0:0:0:0:
425,271,54476,1,2,0:0:0:0:
481,95,54707,1,0,1:0:0:0:
416,289,54938,2,0,L|428:366,1,71.5000021820069,8|0,0:0|1:0,0:0:0:0:
290,207,55399,6,0,B|248:177|177:187|147:242,1,143.000004364014,4|8,1:2|0:0,0:0:0:0:
227,344,56091,1,2,0:0:0:0:
227,344,56322,2,0,P|238:302|227:260,1,71.5000021820069,2|0,0:0|1:0,0:0:0:0:
84,173,56784,5,8,0:0:0:0:
155,301,57015,1,2,0:0:0:0:
154,128,57245,1,0,1:0:0:0:
79,253,57476,1,0,0:0:0:0:
231,265,57707,2,0,L|332:273,1,71.5000021820069,8|2,0:0|0:0,0:0:0:0:
372,318,58053,5,0,0:0:0:0:
372,318,58168,2,0,P|397:279|393:201,1,107.25000327301,0|0,1:0|0:0,0:0:0:0:
472,195,58630,2,0,P|470:166|440:117,1,71.5000021820069,8|2,0:0|0:0,0:0:0:0:
188,292,59091,5,4,0:0:0:0:
137,70,59322,1,8,0:0:0:0:
61,214,59553,1,8,0:0:0:0:
61,214,59668,2,0,P|50:180|59:135,1,71.5000021820069
137,70,60015,2,0,L|220:81,1,71.5000021820069,8|0,0:0|0:0,0:0:0:0:
256,246,60476,5,8,0:0:0:0:
280,285,60591,1,0,0:0:0:0:
287,331,60707,1,0,1:0:0:0:
329,313,60822,1,0,1:0:0:0:
373,297,60938,2,0,P|422:311|446:333,1,71.5000021820069,8|8,0:0|0:0,0:0:0:0:
209,244,61399,5,0,1:0:0:0:
256,246,61515,1,8,0:0:0:0:
288,218,61630,1,8,0:0:0:0:
303,178,61745,1,8,0:0:0:0:
295,135,61861,2,0,P|291:117|267:79,2,35.7500010910034,8|0|8,0:0|0:0|0:0,0:0:0:0:
230,282,62322,5,0,1:0:0:0:
209,244,62438,1,0,0:0:0:0:
169,226,62553,1,8,0:0:0:0:
126,233,62668,1,0,0:0:0:0:
92,260,62784,2,0,L|71:295,2,35.7500010910034,4|0|0,1:2|0:0|1:0,0:0:0:0:
62,193,63130,5,0,0:0:0:0:
55,172,63245,1,8,0:0:0:0:
47,151,63361,1,0,1:0:0:0:
40,130,63476,1,0,0:0:0:0:
32,110,63591,1,8,0:0:0:0:
96,64,63707,6,0,L|135:90,3,35.7500010910034,4|8|0|0,0:0|0:0|0:0|1:0,0:0:0:0:
197,72,64168,5,8,0:0:0:0:
217,67,64284,1,0,0:0:0:0:
237,62,64399,1,0,1:0:0:0:
257,57,64515,1,0,0:0:0:0:
320,101,64630,6,0,L|302:142,1,35.7500010910034,4|8,0:0|0:0,0:0:0:0:
386,163,64861,2,0,L|400:214,1,35.7500010910034,8|0,0:0|0:0,0:0:0:0:
466,252,65091,5,0,1:0:0:0:
447,278,65207,1,0,0:0:0:0:
418,292,65322,1,8,0:0:0:0:
386,297,65438,1,8,0:0:0:0:
301,269,65553,5,4,0:0:0:0:
289,239,65668,1,8,0:0:0:0:
276,208,65784,1,8,0:0:0:0:
264,178,65899,1,8,0:0:0:0:
181,131,66015,6,0,L|112:139,1,35.7500010910034,4|8,0:0|0:0,0:0:0:0:
86,240,66245,2,0,L|79:190,1,35.7500010910034,8|8,0:0|0:0,0:0:0:0:
27,32,66476,6,0,P|26:80|53:122,1,97.5,4|0,1:2|0:0,0:0:0:0:
51,120,67399,5,2,0:0:0:0:
137,154,67630,1,0,0:0:0:0:
51,120,67861,1,2,0:0:0:0:
209,98,68091,1,2,0:0:0:0:
91,220,68322,6,0,P|98:267|128:305,1,97.5,4|0,1:0|0:0,0:0:0:0:
147,316,68784,1,2,0:0:0:0:
240,240,69015,2,0,P|271:248|302:244,1,65
280,168,69476,1,2,0:0:0:0:
265,316,69707,1,0,0:0:0:0:
344,88,69938,1,2,0:0:0:0:
144,136,70168,6,0,P|176:139|207:133,1,65,8|0,0:0|0:0,0:0:0:0:
399,256,70630,2,0,P|367:259|336:253,1,65,8|0,0:0|0:0,0:0:0:0:
216,336,71091,5,0,0:0:0:0:
399,256,71322,1,0,0:0:0:0:
367,259,71438,1,0,0:0:0:0:
336,253,71553,1,8,0:0:0:0:
144,136,71784,1,8,0:0:0:0:
176,139,71899,1,0,0:0:0:0:
207,133,72015,6,0,P|236:120|280:72,1,97.5,4|0,0:0|0:0,0:0:0:0:
288,48,72476,1,2,0:0:0:0:
384,184,72707,6,0,P|355:170|336:144,1,65
408,112,73168,1,2,0:0:0:0:
360,256,73399,1,0,0:0:0:0:
296,16,73630,1,2,0:0:0:0:
415,176,73861,6,0,L|408:112,1,65,8|0,0:0|0:0,0:0:0:0:
448,32,74322,1,8,0:0:0:0:
360,256,74553,1,2,0:0:0:0:
320,272,74668,1,2,0:0:0:0:
272,271,74784,2,0,P|239:271|212:254,1,65,8|2,0:0|0:0,0:0:0:0:
176,224,75130,1,2,0:0:0:0:
208,265,75245,2,0,P|235:282|268:282,1,65,8|0,0:0|0:0,0:0:0:0:
448,216,75707,6,0,L|440:313,1,97.5,4|0,0:0|0:0,0:0:0:0:
436,360,76168,1,2,0:0:0:0:
448,216,76399,2,0,L|453:152,1,65
296,252,76861,1,2,0:0:0:0:
448,216,77091,1,0,0:0:0:0:
211,216,77322,2,0,P|180:223|148:221,1,65,2|8,0:0|0:0,0:0:0:0:
272,168,77784,1,0,0:0:0:0:
76,256,78015,2,0,P|44:247|18:228,1,65,8|0,0:0|0:0,0:0:0:0:
88,168,78476,5,2,0:0:0:0:
76,256,78707,1,2,0:0:0:0:
32,104,78938,1,0,0:0:0:0:
8,304,79168,1,2,0:0:0:0:
87,167,79399,6,0,P|135:172|184:156,1,97.5,4|0,0:0|0:0,0:0:0:0:
224,136,79861,1,2,0:0:0:0:
171,295,80091,6,0,P|171:243|183:219,1,65
224,136,80553,1,2,0:0:0:0:
116,176,80784,1,0,0:0:0:0:
304,48,81015,1,0,0:0:0:0:
324,56,81130,1,0,0:0:0:0:
344,64,81245,2,0,L|428:48,1,65,8|0,0:0|0:0,0:0:0:0:
467,171,81707,1,8,0:0:0:0:
435,177,81822,1,0,0:0:0:0:
404,184,81938,1,0,0:0:0:0:
352,312,82168,6,0,L|312:316,1,32.5,8|0,0:0|0:0,0:0:0:0:
220,176,82399,2,0,L|252:172,1,32.5,8|0,0:0|0:0,0:0:0:0:
304,244,82630,2,0,L|264:248,1,32.5,8|0,0:0|0:0,0:0:0:0:
204,104,82861,2,0,L|172:108,1,32.5,8|0,0:0|0:0,0:0:0:0:
144,264,83091,6,0,P|123:307|88:341,1,97.5,4|0,1:0|0:0,0:0:0:0:
46,360,83553,1,2,0:0:0:0:
108,172,83784,1,0,0:0:0:0:
108,172,84245,1,2,0:0:0:0:
46,360,84476,1,0,0:0:0:0:
24,112,84707,1,2,0:0:0:0:
208,144,84938,6,0,P|240:146|272:140,1,65,8|0,0:0|0:0,0:0:0:0:
310,246,85399,2,0,P|339:233|364:212,1,65,8|0,0:0|0:0,0:0:0:0:
168,136,85861,1,0,0:0:0:0:
208,144,85976,2,0,P|240:146|272:140,1,65,2|2,0:0|0:0,0:0:0:0:
312,128,86322,1,0,0:0:0:0:
240,28,86553,1,2,0:0:0:0:
431,161,86784,6,0,P|414:116|419:68,1,97.5,4|0,0:0|0:0,0:0:0:0:
436,24,87245,1,2,0:0:0:0:
480,228,87476,1,0,0:0:0:0:
480,228,87938,1,2,0:0:0:0:
436,24,88168,1,0,0:0:0:0:
404,256,88399,2,0,B|364:271|319:256|319:256|277:256|256:295|277:334|313:334,1,195,2|8,0:0|0:0,0:0:0:0:
316,340,89207,1,0,0:0:0:0:
336,340,89322,1,0,0:0:0:0:
316,352,89438,1,0,0:0:0:0:
292,356,89553,6,0,B|214:335|244:378|166:358,1,130,8|8,0:0|0:0,0:0:0:0:
104,292,90245,1,8,0:0:0:0:
16,308,90476,6,0,P|23:337|60:363,1,65,4|0,0:0|0:0,0:0:0:0:
48,224,90938,1,8,0:0:0:0:
16,140,91168,2,0,P|36:100|28:40,1,97.5
12,8,91630,1,2,0:0:0:0:
116,72,91861,1,8,0:0:0:0:
368,72,92091,6,0,P|309:98|244:98,1,130,2|0,0:0|0:0,0:0:0:0:
432,24,92784,1,2,0:0:0:0:
461,159,93015,2,0,L|440:184,1,32.5
441,206,93245,6,0,P|451:176|448:144,1,65,8|0,0:0|0:0,0:0:0:0:
332,220,93707,2,0,P|318:250|295:272,1,65,8|0,0:0|0:0,0:0:0:0:
305,251,94053,1,0,0:0:0:0:
336,241,94168,6,0,P|384:253|416:293,1,97.5,4|0,0:0|0:0,0:0:0:0:
416,336,94630,1,2,0:0:0:0:
461,159,94861,1,0,0:0:0:0:
461,159,95322,1,2,0:0:0:0:
416,336,95553,1,8,0:0:0:0:
424,64,95784,6,0,L|376:76,1,32.5,0|2,0:0|0:0,0:0:0:0:
304,48,96015,5,8,0:0:0:0:
316,76,96130,1,0,0:0:0:0:
322,105,96245,1,0,0:0:0:0:
323,135,96361,1,0,0:0:0:0:
280,200,96476,2,0,L|288:240,1,32.5,8|0,0:0|0:0,0:0:0:0:
268,308,96707,1,0,0:0:0:0:
176,185,96938,6,0,L|145:179,1,32.5,8|0,0:0|0:0,0:0:0:0:
53,251,97168,2,0,L|93:259,1,32.5,8|0,0:0|0:0,0:0:0:0:
207,191,97399,2,0,L|176:185,1,32.5,8|0,0:0|0:0,0:0:0:0:
85,105,97630,2,0,L|53:98,1,32.5,8|0,0:0|0:0,0:0:0:0:
232,68,97861,6,0,B|284:59|284:59|312:64|312:64|372:56,1,130,4|8,0:0|0:0,0:0:0:0:
240,140,98553,2,0,B|292:131|292:131|320:136|320:136|380:128,1,130,4|2,0:0|0:0,0:0:0:0:
172,108,99245,1,8,0:0:0:0:
216,212,99476,1,0,0:0:0:0:
224,44,99707,5,4,0:0:0:0:
368,129,99938,1,0,0:0:0:0:
212,180,100168,2,0,P|216:195|216:212,1,32.5,8|0,0:0|0:0,0:0:0:0:
280,287,100399,2,0,P|280:271|284:256,1,32.5
232,348,100630,5,8,0:0:0:0:
216,92,100861,1,0,0:0:0:0:
256,124,100976,1,0,0:0:0:0:
296,156,101091,1,8,0:0:0:0:
368,56,101322,1,8,0:0:0:0:
215,92,101553,6,0,P|183:96|151:90,1,65,4|0,0:0|0:0,0:0:0:0:
68,48,102015,1,0,0:0:0:0:
276,76,102245,2,0,P|260:124|292:212,1,130,4|2,0:0|0:0,0:0:0:0:
364,132,102938,1,0,0:0:0:0:
168,196,103168,1,0,0:0:0:0:
363,131,103399,6,0,P|395:134|427:144,1,65,4|0,0:0|0:0,0:0:0:0:
488,212,103861,1,8,0:0:0:0:
340,112,104091,2,0,P|320:117|300:119,1,32.5,0|0,0:3|0:3,0:3:0:0:
200,176,104322,6,0,L|244:172,1,32.5,8|0,0:0|0:0,0:0:0:0:
308,204,104553,2,0,L|352:200,1,32.5
232,173,104784,2,0,L|199:175,1,32.5,8|0,0:0|0:0,0:0:0:0:
124,145,105015,2,0,L|91:147,1,32.5,8|0,0:0|0:0,0:0:0:0:
16,96,105245,6,0,P|20:148|12:216,1,97.5,4|0,0:0|0:0,0:0:0:0:
8,220,105707,1,0,0:0:0:0:
91,147,105938,2,0,P|87:199|99:279,1,130,4|2,0:0|0:0,0:0:0:0:
88,72,106630,1,0,0:0:0:0:
28,288,106861,6,0,P|20:320|0:348,1,65,4|0,0:0|0:0,0:0:0:0:
168,260,107322,1,0,0:0:0:0:
8,220,107553,1,8,0:0:0:0:
80,348,107784,1,0,0:0:0:0:
236,192,108015,5,0,0:0:0:0:
244,206,108130,1,0,0:0:0:0:
244,222,108245,1,8,0:0:0:0:
244,239,108361,1,0,0:0:0:0:
252,253,108476,1,8,0:0:0:0:
260,268,108591,1,0,0:0:0:0:
260,284,108707,1,0,0:0:0:0:
340,336,108938,6,0,P|371:340|412:336,1,65,4|0,0:0|0:3,0:3:0:0:
492,288,109399,1,8,0:0:0:0:
376,264,109630,2,0,P|360:200|400:144,1,130,4|2,0:0|0:0,0:0:0:0:
480,96,110322,1,0,0:0:0:0:
292,156,110553,1,4,0:0:0:0:
292,156,111015,1,0,0:0:0:0:
512,192,111245,1,0,0:0:0:0:
256,192,111361,12,0,112399,0:0:0:0:
319,350,112630,5,4,1:2:0:0:
373,293,113091,1,2,0:0:0:0:
379,215,113553,1,2,0:0:0:0:
337,149,114015,5,8,0:0:0:0:
373,293,114245,1,0,1:0:0:0:
198,254,114476,5,0,0:0:0:0:
143,197,114938,1,2,0:0:0:0:
137,118,115399,1,2,0:0:0:0:
179,52,115861,5,8,0:0:0:0:
38,126,116091,1,0,1:0:0:0:
122,273,116322,5,0,1:0:0:0:
169,211,116784,1,2,0:0:0:0:
246,200,117245,1,2,0:0:0:0:
312,240,117707,5,8,0:0:0:0:
338,93,117938,2,0,L|331:52,1,24.3750009298325,0|2,1:0|0:0,0:0:0:0:
442,108,118168,1,0,1:0:0:0:
442,108,118630,2,0,P|432:134|430:171,1,48.750001859665,2|0,0:0|0:0,0:0:0:0:
452,265,119091,2,0,P|459:286|465:320,1,57.2000017456055,2|0,0:0|1:0,0:0:0:0:
380,305,119438,2,0,P|369:271|364:242,1,65,2|0,0:0|1:0,0:0:0:0:
464,333,119784,1,2,0:0:0:0:
312,347,120015,6,0,P|237:318|158:328,1,146.250005578995,0|0,1:0|1:0,0:0:0:0:
48,273,120938,1,0,0:0:0:0:
28,178,121399,1,8,0:0:0:0:
48,273,121630,1,0,1:0:0:0:
135,104,121861,6,0,L|125:251,1,146.250005578995,0|0,1:0|1:0,0:0:0:0:
207,197,122784,1,0,0:0:0:0:
94,18,123245,1,8,0:0:0:0:
51,105,123476,1,0,1:0:0:0:
209,57,123707,6,0,L|353:83,1,146.250005578995,0|0,1:0|1:0,0:0:0:0:
453,98,124630,1,0,0:0:0:0:
509,18,125091,1,8,0:0:0:0:
453,98,125322,1,0,1:0:0:0:
456,293,125553,6,0,P|510:247|506:175,1,146.250005578995,0|0,1:0|1:0,0:0:0:0:
368,125,126707,2,0,L|379:187,1,48.750001859665,8|0,0:0|1:0,0:0:0:0:
286,191,127053,2,0,L|294:150,1,32.5,8|8,0:0|0:0,0:0:0:0:
267,268,127399,6,0,P|282:299|275:339,1,65,4|2,1:2|0:0,0:0:0:0:
151,354,127861,1,0,1:0:0:0:
151,175,128091,1,2,0:0:0:0:
39,192,128322,2,0,P|25:220|27:252,1,65,0|2,1:0|0:0,0:0:0:0:
134,86,128784,1,0,1:0:0:0:
168,265,129015,1,2,0:0:0:0:
286,168,129245,6,0,P|310:178|354:179,1,65,0|2,1:0|0:0,0:0:0:0:
386,111,129591,1,2,0:0:0:0:
338,49,129707,2,0,P|314:39|270:38,1,65,8|2,1:2|0:0,0:0:0:0:
140,306,130168,2,0,P|172:305|202:294,1,65,0|2,1:0|0:0,0:0:0:0:
213,163,130630,2,0,P|180:163|150:174,1,65,8|2,1:2|0:0,0:0:0:0:
297,355,131091,6,0,L|305:277,1,65,0|0,1:0|0:0,0:0:0:0:
253,128,131553,1,8,1:2:0:0:
411,216,131784,1,2,0:0:0:0:
484,100,132015,2,0,P|456:114|415:125,1,65,0|2,1:0|0:0,0:0:0:0:
236,38,132476,1,8,1:2:0:0:
332,172,132707,1,2,0:0:0:0:
88,231,132938,6,0,P|74:207|72:158,1,65,0|2,1:0|0:0,0:0:0:0:
3,260,133284,1,2,0:0:0:0:
31,347,133399,2,0,L|29:395,2,32.5,8|0|2,1:2|0:0|0:0,0:0:0:0:
135,354,133745,1,2,0:0:0:0:
96,276,133861,2,0,P|123:251|161:242,1,65,0|2,1:0|0:0,0:0:0:0:
213,145,134207,2,0,B|247:138|247:138|273:152,1,65,0|0,1:0|0:0,0:0:0:0:
307,239,134553,1,0,1:0:0:0:
484,356,134784,6,0,P|477:328|475:278,1,65,0|2,1:0|0:0,0:0:0:0:
498,135,135245,1,0,1:0:0:0:
349,217,135476,1,2,0:0:0:0:
381,60,135707,6,0,P|388:88|390:138,1,65,0|2,1:0|0:0,0:0:0:0:
259,229,136168,1,0,1:0:0:0:
439,205,136399,1,2,0:0:0:0:
221,310,136630,2,0,P|182:308|142:292,1,65,0|2,1:0|0:0,0:0:0:0:
82,321,136976,1,2,0:0:0:0:
103,245,137091,2,0,P|92:214|63:183,1,65,8|2,1:2|0:0,0:0:0:0:
291,310,137553,2,0,P|330:308|370:292,1,65,0|0,1:0|0:0,0:0:0:0:
409,245,138015,2,0,P|420:214|449:183,1,65,8|0,1:2|0:0,0:0:0:0:
268,43,138476,6,0,L|284:125,1,65,0|2,1:0|0:0,0:0:0:0:
261,182,138822,1,2,0:0:0:0:
333,166,138938,2,0,P|357:145|399:133,1,65,8|0,1:2|0:0,0:0:0:0:
188,73,139399,2,0,P|201:104|204:151,1,65,0|2,1:0|0:0,0:0:0:0:
124,223,139745,2,0,P|119:255|128:301,1,65,2|0,0:0|0:0,0:0:0:0:
207,344,140091,1,2,0:0:0:0:
18,365,140322,5,0,1:0:0:0:
82,152,140553,5,2,0:0:0:0:
80,159,140668,1,2,0:0:0:0:
9,181,140784,1,8,1:2:0:0:
11,174,141015,5,2,0:0:0:0:
9,181,141130,1,2,0:0:0:0:
80,159,141245,1,0,1:0:0:0:
166,132,141476,1,8,0:0:0:0:
290,93,141707,1,8,1:2:0:0:
147,223,141938,1,0,1:0:0:0:
297,344,142168,6,0,P|328:302|334:255,1,97.50000371933,4|8,1:2|0:0,0:0:0:0:
424,195,142861,2,0,L|433:251,1,48.750001859665
379,370,143322,2,0,P|405:340|411:309,1,65,0|8,1:0|0:0,0:0:0:0:
496,357,143668,2,0,L|484:293,1,57.2000017456055,0|0,1:0|0:0,0:0:0:0:
511,214,144015,5,0,1:0:0:0:
487,57,144476,1,8,0:0:0:0:
312,90,144707,1,2,0:0:0:0:
438,136,144938,1,0,0:0:0:0:
390,24,145168,1,2,1:2:0:0:
332,188,145399,1,0,0:0:0:0:
300,5,145630,1,2,1:2:0:0:
242,201,145861,6,0,P|235:151|210:86,1,97.50000371933,0|8,1:0|0:0,0:0:0:0:
141,146,146553,1,0,0:0:0:0:
39,57,146784,1,2,0:0:0:0:
81,263,147015,1,0,1:0:0:0:
55,138,147245,1,8,0:0:0:0:
165,240,147476,1,2,0:0:0:0:
249,216,147707,6,0,P|271:208|295:201,1,48.750001859665,0|0,1:0|0:0,0:0:0:0:
454,100,148168,2,0,P|430:91|389:79,1,48.750001859665,8|0,1:2|0:0,0:0:0:0:
292,305,148630,2,0,P|315:297|338:289,1,48.750001859665,0|0,1:0|0:0,0:0:0:0:
427,188,149091,2,0,P|403:178|362:167,1,48.750001859665,8|0,1:2|0:0,0:0:0:0:
350,36,149553,5,4,1:2:0:0:
216,108,149784,1,0,1:0:0:0:
326,120,150015,1,0,1:0:0:0:
345,137,150130,1,0,1:0:0:0:
356,160,150245,1,8,0:0:0:0:
358,186,150361,1,0,1:0:0:0:
350,210,150476,5,0,1:0:0:0:
484,138,150707,1,0,1:0:0:0:
392,292,150938,1,0,1:0:0:0:
362,304,151053,1,0,1:0:0:0:
329,304,151168,1,8,0:0:0:0:
298,291,151284,1,0,1:0:0:0:
275,267,151399,5,0,1:0:0:0:
305,115,151630,1,0,1:0:0:0:
154,71,151861,1,0,1:0:0:0:
115,69,151976,1,0,1:0:0:0:
78,83,152091,1,8,0:0:0:0:
52,112,152207,1,0,1:0:0:0:
42,149,152322,5,0,1:0:0:0:
65,304,152553,1,0,1:0:0:0:
218,225,152784,1,0,1:0:0:0:
221,179,152899,1,0,1:0:0:0:
224,133,153015,1,8,0:0:0:0:
227,87,153130,1,0,1:0:0:0:
230,41,153245,6,0,L|282:35,1,32.5,4|0,1:2|0:0,0:0:0:0:
328,158,153476,2,0,L|376:138,1,32.5,0|0,1:0|0:0,0:0:0:0:
448,261,153707,1,8,0:0:0:0:
400,282,153822,1,0,1:0:0:0:
448,261,154053,1,8,0:0:0:0:
400,282,154168,6,0,P|366:264|317:262,1,65,4|2,1:2|0:0,0:0:0:0:
256,200,154515,2,0,P|224:202|174:233,1,65,0|0,1:0|0:0,0:0:0:0:
158,309,154861,1,0,1:0:0:0:
25,226,155091,5,4,1:2:0:0:
34,174,155207,1,0,1:2:0:0:
36,122,155322,2,0,P|35:104|33:78,1,32.5,0|0,1:0|1:0,0:0:0:0:
144,39,155553,5,8,1:2:0:0:
152,90,155668,1,0,1:2:0:0:
154,142,155784,2,0,P|150:168|140:199,1,32.5,0|0,1:0|1:0,0:0:0:0:
214,273,156015,5,8,1:2:0:0:
225,262,156130,1,0,1:0:0:0:
247,267,156245,1,0,1:0:0:0:
264,244,156361,1,0,1:0:0:0:
297,256,156476,1,8,1:2:0:0:
318,220,156591,1,0,1:0:0:0:
362,241,156707,1,8,1:2:0:0:
382,190,156822,1,8,1:2:0:0:
431,228,156938,1,4,1:0:0:0:
111,38,157861,5,2,0:0:0:0:
241,104,158091,1,0,0:0:0:0:
118,184,158322,1,2,0:0:0:0:
318,135,158553,2,0,P|355:127|375:111,1,48.750001859665,0|4,0:0|1:2,0:0:0:0:
462,261,159015,5,0,0:0:0:0:
344,345,159245,1,8,0:0:0:0:
324,210,159476,1,0,0:0:0:0:
431,344,159707,5,0,1:0:0:0:
293,285,159938,1,0,0:0:0:0:
407,199,160168,1,8,0:0:0:0:
195,265,160399,5,2,0:0:0:0:
195,265,160515,1,0,0:0:0:0:
195,265,160630,2,0,P|156:268|114:251,1,77.999997619629,0|2,1:0|0:0,0:0:0:0:
0,346,161091,2,0,P|43:351|84:332,1,77.999997619629,8|2,0:0|0:0,0:0:0:0:
171,191,161553,5,0,1:0:0:0:
31,273,161784,1,0,0:0:0:0:
166,351,162015,1,8,0:0:0:0:
72,189,162245,5,2,0:0:0:0:
250,336,162476,2,0,B|322:305|342:388|420:333,1,155.999995239258,0|8,1:0|0:0,0:0:0:0:
339,236,163168,2,0,L|329:147,1,77.999997619629,2|0,0:0|1:0,0:0:0:0:
212,40,163630,2,0,P|240:93|269:113,1,77.999997619629,0|8,0:0|0:0,0:0:0:0:
506,67,164091,6,0,L|369:90,1,116.999996429443,2|0,0:0|0:0,0:0:0:0:
254,190,164553,2,0,P|211:205|161:198,1,77.999997619629,2|8,0:0|0:0,0:0:0:0:
75,154,164899,2,0,L|33:134,1,38.9999988098145,0|2,0:0|0:0,0:0:0:0:
160,80,165130,6,0,L|153:37,1,38.9999988098145,0|0,0:0|1:0,0:0:0:0:
296,280,165476,1,2,0:0:0:0:
401,179,165707,1,8,0:0:0:0:
329,363,165938,2,0,P|302:367|238:342,1,77.999997619629,2|4,0:0|1:2,0:0:0:0:
202,215,166399,5,0,0:0:0:0:
76,268,166630,2,0,P|26:273|-8:259,1,77.999997619629,8|2,0:0|0:0,0:0:0:0:
247,149,167091,1,0,1:0:0:0:
137,326,167322,1,0,0:0:0:0:
36,187,167553,5,8,0:0:0:0:
216,296,167784,1,2,0:0:0:0:
181,103,168015,1,0,1:0:0:0:
0,271,168245,2,0,L|20:354,1,77.999997619629,2|8,0:0|0:0,0:0:0:0:
261,220,168707,5,2,0:0:0:0:
261,220,168822,1,0,0:0:0:0:
261,220,168938,2,0,L|386:199,1,116.999996429443,0|0,1:0|0:0,0:0:0:0:
481,345,169399,2,0,L|365:320,1,116.999996429443,8|0,0:0|0:0,0:0:0:0:
452,159,169861,6,0,P|460:209|436:266,1,77.999997619629,0|2,1:0|0:0,0:0:0:0:
297,373,170322,2,0,P|282:331|290:282,1,77.999997619629,8|2,0:0|0:0,0:0:0:0:
207,244,170784,1,0,1:0:0:0:
60,315,171015,5,2,0:0:0:0:
60,315,171130,1,0,0:0:0:0:
60,315,171245,2,0,L|149:305,1,77.999997619629,10|0,0:0|0:0,0:0:0:0:
270,181,171707,1,0,1:0:0:0:
199,360,171938,1,2,0:0:0:0:
96,124,172168,2,0,L|46:127,2,38.9999988098145,10|0|2,0:0|0:0|0:0,0:0:0:0:
393,273,172630,6,0,P|400:249|397:220,1,38.9999988098145,2|0,1:2|0:0,0:0:0:0:
396,65,172861,2,0,P|404:81|399:118,1,38.9999988098145,2|0,1:2|0:0,0:0:0:0:
270,181,173091,2,0,L|316:176,1,38.9999988098145,8|0,0:0|0:0,0:0:0:0:
155,220,173322,2,0,L|108:211,1,38.9999988098145,2|0,1:2|0:0,0:0:0:0:
25,283,173553,6,0,P|24:320|44:364,1,77.999997619629,4|0,1:2|0:0,0:0:0:0:
228,261,174015,1,8,0:0:0:0:
133,373,174245,1,0,0:0:0:0:
47,166,174476,1,0,1:0:0:0:
257,245,174707,5,2,0:0:0:0:
257,245,174822,1,0,0:0:0:0:
257,245,174938,2,0,L|339:232,1,77.999997619629,8|2,0:0|0:0,0:0:0:0:
439,115,175399,2,0,P|432:150|405:188,1,77.999997619629,0|2,1:0|0:0,0:0:0:0:
487,349,175861,2,0,P|440:328|408:265,1,116.999996429443,8|0,0:0|0:0,0:0:0:0:
278,156,176322,6,0,L|186:141,1,77.999997619629,0|2,1:0|0:0,0:0:0:0:
136,111,176668,1,0,0:0:0:0:
136,111,176784,2,0,P|122:82|119:31,1,77.999997619629,8|2,0:0|0:0,0:0:0:0:
203,61,177245,1,4,1:2:0:0:
254,241,177476,1,0,0:0:0:0:
325,82,177707,5,8,0:0:0:0:
303,315,177938,2,0,P|271:325|197:307,1,77.999997619629,2|0,0:0|1:0,0:0:0:0:
387,184,178399,5,2,0:0:0:0:
125,346,178630,2,0,P|106:346|51:310,1,77.999997619629,8|4,0:0|0:0,0:0:0:0:
33,226,179091,1,0,1:0:0:0:
216,153,179322,5,2,0:0:0:0:
321,334,179553,1,10,0:0:0:0:
311,340,179668,1,0,0:0:0:0:
303,348,179784,2,0,B|289:323|289:323|298:272,1,77.999997619629,2|0,0:0|1:0,0:0:0:0:
364,146,180245,5,2,0:0:0:0:
210,304,180476,2,0,L|121:293,1,77.999997619629,8|2,0:0|0:0,0:0:0:0:
436,243,180938,6,0,P|441:293|406:357,1,116.999996429443,4|0,1:2|0:0,0:0:0:0:
201,292,181399,2,0,L|119:283,1,77.999997619629,8|2,0:0|0:0,0:0:0:0:
64,209,181861,1,0,1:0:0:0:
73,116,182091,1,2,0:0:0:0:
309,161,182322,6,0,L|404:146,1,77.999997619629,8|2,0:0|0:0,0:0:0:0:
275,246,182784,1,0,1:0:0:0:
216,172,183015,1,2,0:0:0:0:
256,88,183245,5,8,0:0:0:0:
367,239,183476,1,2,0:0:0:0:
486,29,183707,2,0,B|471:100|495:123|495:123|464:142|459:183,1,155.999995239258,0|8,1:0|0:0,0:0:0:0:
342,77,184399,1,2,0:0:0:0:
283,264,184630,6,0,L|198:246,1,77.999997619629,4|0,1:2|0:0,0:0:0:0:
104,360,185091,2,0,L|125:285,1,77.999997619629,8|2,0:0|0:0,0:0:0:0:
186,87,185553,2,0,L|167:162,1,77.999997619629,0|0,1:0|0:0,0:0:0:0:
6,186,186015,2,0,L|82:202,1,77.999997619629,8|2,0:0|0:0,0:0:0:0:
290,40,186476,1,0,1:0:0:0:
290,40,186938,5,8,0:0:0:0:
428,216,187168,1,2,0:0:0:0:
415,207,187284,1,0,0:0:0:0:
399,202,187399,2,0,P|369:201|323:219,1,77.999997619629,2|2,1:2|0:0,0:0:0:0:
350,354,187861,1,8,0:0:0:0:
491,245,188091,1,2,0:0:0:0:
257,171,188322,6,0,P|205:199|123:188,2,130,4|2|2,0:0|0:0|0:0,0:0:0:0:
297,104,189707,1,2,0:0:0:0:
280,27,190168,1,2,0:0:0:0:
276,104,190630,5,2,0:0:0:0:
332,157,191091,1,2,0:0:0:0:
409,147,191553,1,2,0:0:0:0:
280,27,191784,5,8,0:0:0:0:
379,220,192015,1,10,0:2:0:0:
352,146,192476,1,2,0:0:0:0:
282,110,192938,1,2,0:0:0:0:
205,124,193399,1,2,0:0:0:0:
166,264,193630,2,0,L|174:298,2,32.5,0|0|2,0:0|0:0|0:0,0:0:0:0:
96,228,194322,5,2,0:0:0:0:
231,143,194553,1,0,0:0:0:0:
92,149,194784,1,2,1:2:0:0:
92,149,195245,5,2,1:2:0:0:
175,300,195476,1,0,0:0:0:0:
92,149,195707,2,0,L|112:74,1,65,2|0,1:2|0:0,0:0:0:0:
200,200,196168,1,2,0:0:0:0:
273,173,196399,2,0,P|325:186|403:152,1,130,0|2,0:0|0:0,0:0:0:0:
440,96,197091,1,2,0:0:0:0:
286,104,197322,6,0,P|274:173|301:236,1,130,2|0,0:0|0:0,0:0:0:0:
350,280,198015,1,2,0:0:0:0:
367,272,198130,1,0,0:0:0:0:
385,265,198245,2,0,L|455:279,1,65,0|2,0:0|0:0,0:0:0:0:
502,220,198707,1,0,0:0:0:0:
426,357,198938,2,0,P|461:357|508:337,1,65,2|8,0:0|0:0,0:0:0:0:
294,210,199399,5,10,0:0:0:0:
158,292,199630,2,0,P|130:296|82:286,1,65,8|10,0:0|0:0,0:0:0:0:
300,200,200091,5,8,0:0:0:0:
175,303,200322,2,0,P|154:286|134:245,1,65,10|8,0:0|0:0,0:0:0:0:
308,186,200784,5,10,0:0:0:0:
199,317,201015,1,8,0:0:0:0:
149,161,201245,2,0,L|103:158,1,32.5,8|8,0:0|0:0,0:0:0:0:
101,152,201476,2,0,L|55:149,1,32.5,8|8,0:0|0:0,0:0:0:0:
257,116,201707,6,0,L|263:83,1,32.5,8|8,0:0|0:0,0:0:0:0:
274,72,201938,2,0,L|280:39,1,32.5,8|8,0:0|0:0,0:0:0:0:
308,221,202168,6,0,P|336:225|352:220,1,32.5,8|8,0:0|0:0,0:0:0:0:
354,217,202399,2,0,P|373:214|389:190,1,32.5,8|8,0:0|0:0,0:0:0:0:
198,265,202630,6,0,P|199:288|210:309,1,32.5,8|8,0:0|0:0,0:0:0:0:
208,311,202861,2,0,P|220:326|233:334,1,32.5,8|8,0:0|0:0,0:0:0:0:
225,196,203091,1,4,1:2:0:0:
366,358,203322,5,2,0:2:0:0:
268,271,203553,1,8,0:2:0:0:
416,180,203784,1,0,0:2:0:0:
307,170,204015,1,0,1:2:0:0:
276,176,204130,1,2,0:2:0:0:
244,168,204245,5,2,0:2:0:0:
368,112,204476,1,8,0:2:0:0:
356,252,204707,1,0,0:2:0:0:
356,252,205168,5,2,0:2:0:0:
368,112,205399,1,8,0:2:0:0:
260,304,205630,6,0,P|200:279|137:292,1,130,2|0,0:2|0:2,0:2:0:0:
124,280,206207,2,0,L|108:308,1,32.5,0|8,0:2|0:2,0:2:0:0:
112,284,206553,6,2,L|96:312,1,32.5,10|2,0:2|0:2,0:2:0:0:
88,376,206784,2,0,P|96:336|40:248,1,130,0|8,1:2|0:2,0:2:0:0:
116,160,207476,5,0,0:2:0:0:
104,148,207591,2,0,P|88:116|96:64,1,65,0|0,0:2|0:2,0:2:0:0:
96,72,207938,1,2,0:2:0:0:
224,72,208168,5,8,0:2:0:0:
256,80,208284,1,0,0:2:0:0:
288,76,208399,1,2,0:2:0:0:
256,72,208515,1,0,0:2:0:0:
228,88,208630,2,0,P|208:128|208:152,1,65,8|8,0:2|0:2,0:2:0:0:
87,171,209091,2,0,P|110:231|95:293,1,130,8|0,0:2|1:0,0:2:0:0:
56,80,209784,1,2,0:2:0:0:
72,84,209899,2,0,L|120:68,1,32.5,0|8,0:2|0:2,0:2:0:0:
248,168,210245,6,0,L|200:152,1,32.5,0|0,1:0|0:2,0:2:0:0:
196,124,210476,2,0,P|196:168|188:204,1,65,0|0,1:2|0:2,0:2:0:0:
128,272,210938,1,8,0:2:0:0:
240,112,211168,6,0,P|300:116|348:92,1,97.5,2|0,0:2|0:2,0:2:0:0:
348,132,211630,5,0,0:2:0:0:
352,164,211745,1,2,0:2:0:0:
344,196,211861,1,8,0:2:0:0:
356,204,211976,5,0,0:2:0:0:
351,235,212091,1,2,0:2:0:0:
335,264,212207,1,0,0:2:0:0:
344,276,212322,5,0,1:2:0:0:
373,263,212438,1,0,0:2:0:0:
393,247,212553,2,0,P|416:225|429:195,1,65,2|8,1:2|0:2,0:2:0:0:
480,264,212899,5,0,0:2:0:0:
469,293,213015,1,2,0:2:0:0:
448,319,213130,1,0,0:2:0:0:
425,343,213245,2,0,P|400:364|369:373,1,65,0|2,1:2|0:2,0:2:0:0:
295,345,213591,2,0,L|294:324,2,16.25,0|0|8,0:2|0:2|0:2,0:2:0:0:
221,372,213822,1,0,0:2:0:0:
147,351,213938,6,0,P|117:338|79:307,1,65,10|0,0:2|1:2,0:2:0:0:
72,240,214284,2,0,P|40:232|73:237,1,97.5,0|8,0:2|0:2,0:2:0:0:
80,136,214861,5,2,0:2:0:0:
104,144,214976,1,0,0:2:0:0:
129,145,215091,1,2,1:2:0:0:
153,140,215207,1,0,0:2:0:0:
177,132,215322,1,2,1:2:0:0:
202,131,215438,1,0,0:2:0:0:
226,136,215553,1,8,0:2:0:0:
232,112,215668,1,0,0:2:0:0:
238,88,215784,1,2,0:2:0:0:
244,64,215899,1,0,0:2:0:0:
304,32,216015,5,0,1:2:0:0:
328,40,216130,1,0,0:2:0:0:
353,41,216245,1,2,0:2:0:0:
377,36,216361,1,0,0:2:0:0:
401,28,216476,1,8,0:2:0:0:
426,27,216591,1,0,0:2:0:0:
450,32,216707,1,2,0:2:0:0:
471,43,216822,1,0,0:2:0:0:
510,104,216938,6,0,L|502:140,1,32.5,2|0,0:2|0:2,0:2:0:0:
436,192,217168,2,0,L|428:156,1,32.5,8|0,0:2|0:2,0:2:0:0:
496,280,217399,2,0,L|484:340,1,32.5,8|0,0:2|0:2,0:2:0:0:
436,192,217630,2,0,L|424:252,1,32.5,8|0,0:2|1:2,0:2:0:0:
344,276,217861,6,0,P|312:268|280:271,1,65,4|2,1:2|0:0,0:0:0:0:
240,348,218322,1,8,0:0:0:0:
204,232,218553,1,2,0:0:0:0:
204,232,219015,1,8,0:0:0:0:
240,348,219245,1,2,0:0:0:0:
212,332,219361,2,0,P|156:324|132:336,1,65,8|0,0:0|0:0,0:0:0:0:
121,341,219707,2,0,P|91:354|59:355,1,65,10|0,0:0|0:0,0:0:0:0:
7,274,220168,1,8,0:0:0:0:
44,96,220399,6,0,P|24:92|12:72,1,32.5,2|0,0:0|0:0,0:0:0:0:
44,112,220630,2,0,P|88:104|124:112,1,65,2|10,0:0|0:0,0:0:0:0:
192,124,221091,1,10,0:0:0:0:
100,24,221322,1,8,0:0:0:0:
120,204,221553,6,0,P|164:212|200:204,1,65,8|2,0:0|0:0,0:0:0:0:
208,204,221899,1,0,0:0:0:0:
232,196,222015,1,10,0:0:0:0:
332,248,222245,1,0,0:0:0:0:
384,160,222476,1,2,0:0:0:0:
380,312,222707,1,10,0:0:0:0:
304,136,222938,1,8,0:0:0:0:
304,136,223053,1,8,0:0:0:0:
304,136,223168,1,2,0:0:0:0:
280,336,223399,5,8,0:0:0:0:
232,160,223630,1,0,0:0:0:0:
204,320,223861,1,10,0:0:0:0:
160,184,224091,1,0,0:0:0:0:
96,292,224322,6,0,P|60:296|32:292,1,65,8|0,0:0|0:0,0:0:0:0:
12,280,224668,1,0,0:0:0:0:
8,256,224784,2,0,L|16:216,1,32.5,10|0,0:0|0:0,0:0:0:0:
72,132,225015,2,2,L|80:92,1,32.5
12,20,225245,5,4,1:2:0:0:
196,48,225476,1,8,0:0:0:0:
12,20,225707,1,0,0:0:0:0:
32,24,225822,1,8,0:0:0:0:
196,48,226053,5,8,0:0:0:0:
176,52,226168,1,8,0:0:0:0:
80,172,226399,1,8,0:0:0:0:
216,352,226630,2,0,L|208:320,1,32.5,0|8,0:0|0:0,0:0:0:0:
108,272,226976,2,0,L|100:240,1,32.5,8|4,0:0|0:0,0:0:0:0:
60,104,227322,5,8,0:0:0:0:
264,104,227553,1,0,0:0:0:0:
240,108,227668,1,8,0:0:0:0:
360,36,227899,1,8,0:0:0:0:
384,40,228015,1,2,0:0:0:0:
372,160,228245,1,8,0:0:0:0:
176,48,228476,6,0,L|136:52,1,32.5,0|8,0:0|0:0,0:0:0:0:
72,128,228707,2,0,L|32:132,1,32.5
72,256,228938,5,4,1:2:0:0:
92,244,229053,1,0,0:0:0:0:
116,240,229168,1,8,0:0:0:0:
140,240,229284,1,0,0:0:0:0:
216,272,229399,2,0,L|224:224,1,32.5,8|8,0:0|0:0,0:0:0:0:
300,236,229630,2,0,L|292:188,1,32.5
232,140,229861,5,8,0:0:0:0:
240,120,229976,1,0,0:0:0:0:
256,104,230091,1,0,0:0:0:0:
276,92,230207,1,8,0:0:0:0:
352,64,230322,2,0,L|392:68,1,32.5,8|0,0:0|0:0,0:0:0:0:
460,136,230553,2,0,L|424:140,1,32.5,8|0,0:0|0:0,0:0:0:0:
392,212,230784,5,8,0:0:0:0:
384,232,230899,1,0,0:0:0:0:
364,300,231015,2,0,L|368:340,1,32.5,8|0,0:0|0:0,0:0:0:0:
296,352,231245,1,8,0:0:0:0:
282,335,231361,1,0,0:0:0:0:
233,283,231476,2,0,L|196:266,1,32.5,8|0,0:0|0:0,0:0:0:0:
128,276,231707,6,0,L|92:288,2,32.5,8|0|8,0:0|0:0|0:0,0:0:0:0:
156,204,232053,1,0,0:0:0:0:
160,128,232168,2,0,L|160:112,2,16.25,8|0|0,0:0|0:0|0:0,0:0:0:0:
244,104,232399,2,0,L|244:88,2,16.25,8|0|0,0:0|0:0|0:0,0:0:0:0:
164,36,232630,1,4,0:0:0:0:
416,185,233553,5,2,0:0:0:0:
296,348,233784,1,0,0:0:0:0:
369,325,234015,1,0,0:0:0:0:
379,249,234245,1,2,0:0:0:0:
367,173,234476,6,0,P|374:136|404:89,1,77.999997619629,4|0,1:2|0:0,0:0:0:0:
328,33,235168,2,0,P|321:70|291:117,1,77.999997619629,2|2,0:0|0:0,0:0:0:0:
184,33,235861,1,0,0:0:0:0:
209,105,236091,2,0,L|197:196,1,77.999997619629,2|2,0:0|0:0,0:0:0:0:
124,84,237015,5,2,0:0:0:0:
69,234,237245,1,0,0:0:0:0:
56,122,237476,1,2,0:0:0:0:
144,240,237707,1,0,0:0:0:0:
5,184,237938,1,2,0:0:0:0:
128,316,238168,6,0,L|213:294,1,77.999997619629,2|2,0:0|0:0,0:0:0:0:
308,296,238861,2,0,L|384:316,1,77.999997619629,2|2,0:0|0:0,0:0:0:0:
354,215,239553,1,0,0:0:0:0:
203,296,239784,6,0,P|190:260|203:207,1,77.999997619629,2|2,0:0|0:0,0:0:0:0:
309,296,240476,1,2,0:0:0:0:
317,278,240591,1,0,0:0:0:0:
321,259,240707,1,2,0:0:0:0:
321,240,240822,1,2,0:0:0:0:
316,221,240938,1,0,0:0:0:0:
256,168,241168,1,2,0:0:0:0:
368,96,241399,1,0,0:0:0:0:
288,88,241630,1,2,0:0:0:0:
456,180,241861,6,0,P|456:141|471:95,1,77.999997619629,2|2,0:0|0:0,0:0:0:0:
380,209,242553,2,0,P|381:254|395:296,1,77.999997619629,2|2,0:0|0:0,0:0:0:0:
477,258,243245,1,0,0:0:0:0:
324,349,243476,1,2,0:0:0:0:
451,239,243938,5,2,0:0:0:0:
324,349,244168,1,2,0:0:0:0:
304,352,244284,1,0,0:0:0:0:
285,350,244399,1,2,0:0:0:0:
266,344,244515,1,2,0:0:0:0:
250,334,244630,2,0,L|246:282,1,38.9999988098145,0|2,0:0|0:0,0:0:0:0:
141,212,245091,2,0,L|138:250,1,38.9999988098145,0|2,0:0|0:0,0:0:0:0:
62,340,245553,6,0,P|60:301|46:260,1,77.999997619629,2|2,0:0|0:0,0:0:0:0:
64,143,246245,2,0,P|57:102|37:69,1,77.999997619629,2|2,0:0|0:0,0:0:0:0:
185,32,246938,1,0,0:0:0:0:
156,125,247168,1,2,0:0:0:0:
278,25,247630,5,2,0:0:0:0:
156,125,247861,1,2,0:0:0:0:
158,144,247976,1,0,0:0:0:0:
161,163,248091,1,2,0:0:0:0:
164,182,248207,1,2,0:0:0:0:
167,202,248322,1,0,0:0:0:0:
138,278,248553,1,2,0:0:0:0:
265,196,248784,1,0,0:0:0:0:
237,119,249015,1,2,0:0:0:0:
308,300,249245,6,0,P|344:262|399:253,1,97.50000371933,4|0,1:2|0:0,0:0:0:0:
478,219,249938,2,0,P|498:177|489:115,1,97.50000371933,2|2,0:0|0:0,0:0:0:0:
506,30,250630,1,0,0:0:0:0:
406,158,250861,6,0,L|349:137,1,48.750001859665,2|0,1:2|1:0,0:0:0:0:
215,80,251784,1,2,0:0:0:0:
196,75,252245,1,2,0:0:0:0:
256,208,252476,1,0,0:0:0:0:
296,99,252707,1,2,1:2:0:0:
156,184,252938,6,0,L|55:163,1,97.50000371933,0|2,1:0|0:0,0:0:0:0:
31,255,253630,2,0,L|126:274,1,97.50000371933,2|2,0:0|0:0,0:0:0:0:
55,354,254322,1,0,0:0:0:0:
214,312,254553,6,0,L|208:255,1,48.750001859665,0|2,1:0|1:2,0:0:0:0:
352,56,255707,1,2,0:0:0:0:
365,219,255938,1,0,0:0:0:0:
440,136,256168,1,0,0:0:0:0:
427,299,256399,1,2,1:2:0:0:
302,163,256630,6,0,P|257:137|233:130,1,58.4999982147217,4|0,1:2|0:0,0:0:0:0:
324,64,257091,1,2,0:0:0:0:
222,218,257322,2,0,P|219:251|208:291,1,58.4999982147217,2|0,0:0|1:0,0:0:0:0:
138,177,257784,1,2,0:0:0:0:
33,306,258015,1,0,0:0:0:0:
41,215,258245,6,0,L|48:149,1,61.7499983510972,2|0,0:0|1:0,0:0:0:0:
11,69,258707,1,2,0:0:0:0:
138,177,258938,2,0,L|134:210,3,32.5
172,284,259399,2,0,P|205:297|252:293,1,68.2499979171754,0|0,1:0|0:0,0:0:0:0:
323,154,259861,2,0,P|290:141|243:145,1,68.2499979171754,8|0,1:2|0:0,0:0:0:0:
367,320,260322,5,0,1:0:0:0:
400,331,260438,1,0,3:0:0:0:
435,326,260553,1,0,1:0:0:0:
464,305,260668,1,0,3:0:0:0:
480,274,260784,1,0,1:0:0:0:
443,250,260899,1,0,3:0:0:0:
426,209,261015,1,0,1:0:0:0:
435,166,261130,1,0,3:0:0:0:
467,136,261245,5,0,1:0:0:0:
485,99,261361,1,0,1:2:0:0:
476,59,261476,1,0,1:0:0:0:
445,33,261591,1,0,1:2:0:0:
404,31,261707,1,8,1:2:0:0:
370,54,261822,1,8,1:2:0:0:
358,93,261938,5,4,1:0:0:0:
332,176,262399,1,2,0:0:0:0:
227,59,262630,2,0,L|157:44,1,48.750001859665,0|2,0:0|0:0,0:0:0:0:
125,185,263091,5,2,0:0:0:0:
109,98,263322,1,2,0:0:0:0:
37,200,263553,5,0,0:0:0:0:
21,113,263784,1,2,0:0:0:0:
217,167,264015,6,0,P|240:134|237:58,1,116.999996429443,4|0,1:2|0:0,0:0:0:0:
169,13,264476,2,0,L|87:5,1,77.999997619629,8|2,0:0|0:0,0:0:0:0:
157,234,264938,6,0,P|214:254|279:234,1,116.999996429443,0|0,1:0|0:0,0:0:0:0:
349,231,265399,2,0,L|339:145,1,77.999997619629,8|2,0:0|0:0,0:0:0:0:
108,160,265861,6,0,P|68:210|70:268,1,116.999996429443,0|0,1:0|0:0,0:0:0:0:
137,307,266322,2,0,L|146:384,1,77.999997619629,8|0,0:0|0:0,0:0:0:0:
341,326,266784,5,0,1:0:0:0:
376,247,267015,1,2,0:0:0:0:
247,134,267245,5,8,0:0:0:0:
332,148,267476,1,2,0:0:0:0:
481,15,267707,6,0,P|487:101|436:166,1,155.999995239258,4|8,1:2|0:0,0:0:0:0:
244,257,268399,2,0,L|149:242,1,77.999997619629,2|0,0:0|1:0,0:0:0:0:
107,181,268861,1,2,0:0:0:0:
93,96,269091,1,10,0:0:0:0:
333,228,269322,6,0,P|335:290|275:344,1,116.999996429443,2|0,0:0|0:0,0:0:0:0:
221,351,269784,2,0,L|131:335,1,77.999997619629,2|8,0:0|0:0,0:0:0:0:
65,282,270130,6,0,L|24:299,1,38.9999988098145,0|2,0:0|0:0,0:0:0:0:
65,192,270361,2,0,L|24:209,1,38.9999988098145,2|0,0:0|1:0,0:0:0:0:
251,255,270707,5,2,0:0:0:0:
86,114,270938,1,8,0:0:0:0:
251,255,271168,1,2,0:0:0:0:
86,114,271399,6,0,P|72:81|83:16,1,77.999997619629,4|2,1:2|0:0,0:0:0:0:
323,212,271861,2,0,L|428:200,1,77.999997619629,8|2,0:0|0:0,0:0:0:0:
460,142,272322,1,0,1:0:0:0:
452,56,272553,1,0,0:0:0:0:
236,138,272784,6,0,L|341:126,1,77.999997619629,8|0,0:0|0:0,0:0:0:0:
366,196,273245,1,0,1:0:0:0:
341,278,273476,1,2,0:0:0:0:
110,232,273707,6,0,L|215:220,1,77.999997619629,8|2,0:0|0:0,0:0:0:0:
248,162,274168,1,0,1:0:0:0:
231,77,274399,1,2,0:0:0:0:
434,232,274630,6,0,P|367:234|311:198,1,116.999996429443,8|0,0:0|0:0,0:0:0:0:
258,273,275091,2,0,P|258:339|283:373,1,77.999997619629,4|2,1:2|0:0,0:0:0:0:
396,154,275553,2,0,P|406:119|384:62,1,77.999997619629,8|2,0:0|0:0,0:0:0:0:
134,233,276015,6,0,P|181:196|247:191,1,116.999996429443,0|0,1:0|0:0,0:0:0:0:
396,154,276476,2,0,L|493:145,1,77.999997619629,8|2,0:0|0:0,0:0:0:0:
335,311,276938,5,0,1:0:0:0:
271,116,277168,1,2,1:2:0:0:
476,146,277399,2,0,P|450:156|429:157,1,38.9999988098145,10|0,0:0|0:0,0:0:0:0:
428,236,277630,2,0,P|401:233|381:219,1,38.9999988098145,2|0,0:0|0:0,0:0:0:0:
314,237,277861,5,4,1:2:0:0:
195,69,278091,1,0,0:0:0:0:
71,321,278322,5,8,0:0:0:0:
144,146,278553,1,10,0:0:0:0:
279,320,278784,6,0,P|333:326|389:290,1,116.999996429443,4|0,1:2|0:0,0:0:0:0:
446,248,279245,2,0,L|466:165,1,77.999997619629,8|2,0:0|0:0,0:0:0:0:
314,237,279707,1,0,1:0:0:0:
494,102,279938,1,2,0:0:0:0:
275,21,280168,1,8,0:0:0:0:
236,230,280399,2,0,P|313:240|383:181,1,155.999995239258,2|2,0:0|0:0,0:0:0:0:
195,143,281091,5,10,0:0:0:0:
195,143,281207,1,0,0:0:0:0:
195,143,281322,1,2,0:0:0:0:
271,329,281553,2,0,L|181:318,1,77.999997619629,0|2,1:0|0:0,0:0:0:0:
21,220,282015,5,8,0:0:0:0:
112,357,282245,1,0,0:0:0:0:
195,143,282476,2,0,P|158:180|78:181,1,116.999996429443,4|0,1:2|0:0,0:0:0:0:
21,220,282938,2,0,L|6:126,1,77.999997619629,8|2,0:0|0:0,0:0:0:0:
52,69,283399,1,0,1:0:0:0:
195,143,283630,6,0,L|279:122,1,77.999997619629,2|8,0:0|0:0,0:0:0:0:
438,235,284091,2,0,P|397:239|317:192,1,116.999996429443,4|0,0:0|0:0,0:0:0:0:
351,100,284553,2,0,P|345:70|361:21,1,77.999997619629,2|0,0:0|1:0,0:0:0:0:
436,47,284899,2,0,L|500:30,1,38.9999988098145,2|2,0:0|0:0,0:0:0:0:
512,142,285130,6,0,L|471:125,1,38.9999988098145,0|0,0:0|1:0,0:0:0:0:
330,208,285476,1,2,0:0:0:0:
269,30,285707,1,8,0:0:0:0:
198,288,285938,5,2,0:0:0:0:
336,360,286168,1,4,1:2:0:0:
330,208,286399,1,2,0:0:0:0:
110,264,286630,6,0,P|110:304|141:353,1,77.999997619629,8|2,0:0|0:0,0:0:0:0:
200,380,287091,1,0,1:0:0:0:
174,200,287322,6,0,P|142:179|91:176,1,77.999997619629,2|8,0:0|0:0,0:0:0:0:
26,213,287784,1,2,0:0:0:0:
26,213,288245,5,2,0:0:0:0:
230,156,288476,2,0,B|266:108|226:43|226:43|270:74,1,155.999995239258,8|0,0:0|1:0,0:0:0:0:
347,55,289168,1,2,0:0:0:0:
161,104,289399,6,0,L|65:89,1,77.999997619629,8|2,0:0|0:0,0:0:0:0:
25,155,289861,1,0,1:0:0:0:
59,233,290091,1,2,0:0:0:0:
195,331,290322,6,0,L|280:314,1,77.999997619629,8|0,0:0|0:0,0:0:0:0:
59,233,290784,1,0,1:0:0:0:
43,317,291015,1,2,0:0:0:0:
191,174,291245,5,8,0:0:0:0:
147,100,291476,1,2,0:0:0:0:
352,240,291707,6,0,P|433:253|499:195,1,155.999995239258,0|8,1:0|0:0,0:0:0:0:
451,134,292399,1,2,0:0:0:0:
304,337,292630,5,0,1:0:0:0:
278,328,292745,1,0,0:0:0:0:
252,319,292861,1,2,0:0:0:0:
226,310,292976,1,0,0:0:0:0:
121,334,293091,6,0,L|75:348,1,38.9999988098145,8|0,1:2|0:0,0:0:0:0:
29,230,293322,2,0,L|80:241,1,38.9999988098145,10|0,1:2|0:0,0:0:0:0:
172,188,293553,6,0,P|180:161|174:121,1,65,4|2,0:0|0:0,0:0:0:0:
38,45,294245,1,0,0:0:0:0:
38,45,294707,5,0,0:0:0:0:
103,150,294938,1,2,0:0:0:0:
259,81,295168,2,0,P|304:67|363:86,1,97.5,4|0,0:0|0:0,0:0:0:0:
477,269,296091,6,0,P|421:283|343:254,1,130,2|0,0:0|0:0,0:0:0:0:
256,192,297130,12,0,300015,0:0:0:0:
