osu file format v14

[General]
AudioFilename: audio.mp3
AudioLeadIn: 0
PreviewTime: 59040
Countdown: 0
SampleSet: Soft
StackLeniency: 0.7
Mode: 0
LetterboxInBreaks: 0
WidescreenStoryboard: 1

[Editor]
Bookmarks: 31892,44441,50716,62872
DistanceSpacing: 1
BeatDivisor: 4
GridSize: 4
TimelineZoom: 1.2

[Metadata]
Title:Alola!!
TitleUnicode:アローラ!!
Artist:Satoshi with Pikachu (CV:Matsumoto Rica/Otani Ikue)
ArtistUnicode:サトシwithピカチュウ (CV:松本梨香/大谷育江)
Creator:CrystilonZ
Version:ezek's Easy
Source:ポケットモンスター サン&ムーン
Tags:Saku Pokemon Pokémon Pocket Monsters the series Sun and Moon opening 佐香 智久 Sako Tomohisa ezek Hobbes2 Plaudible Kaitjuh PolkaMocha Nintendo GAME FREAK
BeatmapID:1135887
BeatmapSetID:535569

[Difficulty]
HPDrainRate:3
CircleSize:2.5
OverallDifficulty:3
ApproachRate:3.5
SliderMultiplier:0.96
SliderTickRate:1

[Events]
//Background and Video events
Video,0,"videos.avi"
0,0,"looollbg.jpg",0,0
//Break Periods
//Storyboard Layer 0 (Background)
//Storyboard Layer 1 (Fail)
//Storyboard Layer 2 (Pass)
//Storyboard Layer 3 (Foreground)
//Storyboard Sound Samples

[TimingPoints]
511,392.156862745098,4,2,1,30,1,0
6785,-100,4,2,1,40,0,0
16197,-100,4,2,2,45,0,0
18746,-100,4,2,1,20,0,0
19334,-100,4,2,1,30,0,0
28746,-100,4,2,1,40,0,0
44432,-100,4,2,1,45,0,0
46981,-100,4,2,2,45,0,0
47373,-100,4,2,1,45,0,0
50118,-100,4,2,2,45,0,0
50511,-100,4,2,1,45,0,0
53256,-100,4,2,2,45,0,0
53648,-100,4,2,1,45,0,0
56393,-100,4,2,2,45,0,0
56785,-100,4,2,1,45,0,0
56981,-100,4,2,2,45,0,0
58648,-100,4,2,1,45,0,0
59922,-100,4,2,1,58,0,0
60118,-100,4,2,1,58,0,1
60510,-100,4,2,1,58,0,1
66001,-100,4,2,1,58,0,0
66393,-100,4,2,1,58,0,1
66785,-100,4,2,1,58,0,1
73844,-100,4,2,1,58,0,1
74236,-100,4,2,1,58,0,0
78942,-100,4,2,2,58,0,1
82079,-100,4,2,1,45,0,0

[Colours]
Combo1 : 245,140,35
Combo2 : 254,240,65
Combo3 : 87,87,87
Combo4 : 33,67,201
Combo5 : 237,67,18
Combo6 : 207,207,207

[HitObjects]
188,36,6785,6,0,P|256:16|324:36,2,144,4|2|2,1:2|0:0|1:0,0:0:0:0:
156,128,8354,1,2,1:2:0:0:
208,208,8746,1,2,1:0:0:0:
304,208,9138,1,2,1:2:0:0:
356,128,9530,1,2,1:0:0:0:
400,212,9922,6,0,B|420:280|368:324|368:324|316:368,1,192,2|2,1:2|1:2,0:0:0:0:
256,296,11099,1,2,1:0:0:0:
196,368,11491,2,0,B|144:324|144:324|92:280|112:212,1,192,2|2,1:2|1:2,0:0:0:0:
160,128,12667,1,8,1:0:0:0:
256,108,13060,6,0,B|256:172|256:172|252:176|252:176|260:176|260:176|256:180|256:180|256:244,2,144,4|2|2,1:2|0:0|1:0,0:0:0:0:
316,32,14628,1,2,1:2:0:0:
412,32,15020,1,2,1:0:0:0:
364,116,15412,2,0,L|364:212,1,96,2|2,1:2|1:0,0:0:0:0:
340,304,16197,6,0,B|312:328|312:328|288:316|256:336|256:336|224:316|200:328|200:328|172:304,2,192,2|2|2,1:2|1:2|1:2,0:0:0:0:
372,120,19334,6,0,P|348:84|304:56,1,96,4|8,1:2|1:0,0:0:0:0:
208,56,20118,2,0,P|167:80|140:119,1,96,0|8,1:0|1:0,0:0:0:0:
176,208,20903,2,0,P|112:212|52:160,2,144,0|0|8,1:0|0:0|1:0,0:0:0:0:
264,176,22471,5,2,1:2:0:0:
359,168,22863,1,8,1:0:0:0:
425,237,23256,2,0,P|389:261|333:261,1,96,0|8,1:0|1:0,0:0:0:0:
344,358,24040,2,0,P|414:353|480:317,2,144,0|0|8,1:0|0:0|1:0,0:0:0:0:
260,314,25609,5,2,1:2:0:0:
178,263,26001,1,8,1:0:0:0:
99,207,26393,2,0,L|3:215,2,96,0|8|0,1:0|1:0|1:0,0:0:0:0:
187,170,27569,2,0,P|221:140|251:90,1,96,8|0,1:0|1:0,0:0:0:0:
304,20,28354,1,8,1:0:0:0:
395,44,28746,6,0,P|427:132|395:220,1,192,2|8,1:0|1:0,0:0:0:0:
279,132,30118,2,0,B|207:132|207:132|163:188,1,144,4|2,0:0|1:2,0:0:0:0:
243,240,31099,1,0,0:0:0:0:
327,284,31491,1,2,1:2:0:0:
416,320,31883,6,0,P|432:272|416:232,1,96,4|8,1:2|1:0,0:0:0:0:
324,204,32667,2,0,P|308:156|324:116,1,96,0|8,1:0|1:0,0:0:0:0:
384,40,33452,2,0,B|456:40|456:40|512:88,2,144,2|2|8,1:2|3:2|1:0,0:0:0:0:
324,115,35020,6,0,L|229:115,1,96,0|8,1:0|1:0,0:0:0:0:
136,144,35805,2,0,P|152:188|136:232,1,96,0|8,1:0|1:0,0:0:0:0:
68,300,36589,2,0,P|136:324|200:300,2,144,2|2|8,1:2|3:2|1:0,0:0:0:0:
56,204,38158,6,0,L|56:108,1,96,0|8,1:0|1:0,0:0:0:0:
12,24,38942,2,0,P|54:13|104:25,1,96,2|8,1:2|1:0,0:0:0:0:
180,84,39726,2,0,P|225:95|271:83,1,96,0|8,1:0|1:0,0:0:0:0:
352,28,40511,1,2,1:2:0:0:
448,28,40903,1,8,1:0:0:0:
400,112,41295,2,0,P|384:156|400:200,1,96,2|8,0:0|0:0,0:0:0:0:
460,276,42079,1,2,0:0:0:0:
320,244,42667,6,0,B|256:212|256:212|192:244,1,144,4|8,0:0|1:0,0:0:0:0:
256,316,43648,1,0,1:0:0:0:
180,140,44432,6,0,P|160:92|168:44,2,96,4|2|0,1:2|1:0|1:0,0:0:0:0:
256,80,45609,1,2,1:0:0:0:
332,140,46001,2,0,P|352:92|344:44,2,96,0|2|2,1:0|1:0|1:2,0:0:0:0:
256,200,47177,1,8,3:2:0:0:
175,251,47569,6,0,P|257:295|337:251,2,192,0|0|0,1:0|1:0|1:0,0:0:0:0:
115,175,49530,1,2,1:0:0:0:
51,246,49922,2,0,P|52:297|68:343,1,96,0|8,1:0|3:2,0:0:0:0:
162,345,50707,6,0,L|256:328,1,96,4|2,1:2|1:0,0:0:0:0:
321,257,51491,2,0,B|358:244|393:259|393:259|425:271|464:258,2,144,0|2|2,1:0|0:0|1:0,0:0:0:0:
256,327,53060,1,0,1:0:0:0:
189,257,53452,1,8,3:2:0:0:
128,184,53844,6,0,P|256:92|384:184,2,336,0|0|8,1:0|0:0|3:2,0:0:0:0:
92,272,56981,5,2,1:2:0:0:
256,376,57765,1,2,1:2:0:0:
420,272,58550,1,6,1:2:0:0:
300,64,60118,70,0,B|256:44|256:44|212:64,1,96,4|4,0:0|1:2,0:0:0:0:
188,156,60903,2,0,B|228:156|256:176|256:176|284:156|324:156,2,144,0|2|2,1:0|0:0|1:0,0:0:0:0:
92,156,62471,1,2,1:2:0:0:
40,236,62863,1,2,1:0:0:0:
127,276,63256,6,0,L|224:276,1,96,0|2,1:0|1:0,0:0:0:0:
296,212,64040,2,0,P|320:272|296:344,2,144,0|2|8,1:0|0:0|1:0,0:0:0:0:
232,140,65609,1,0,1:0:0:0:
292,64,66001,1,10,1:0:0:0:
352,140,66393,22,0,P|396:128|444:140,1,96,4|4,1:2|1:2,0:0:0:0:
396,224,67177,2,0,P|396:292|396:376,2,144,0|2|2,1:0|0:0|1:0,0:0:0:0:
300,224,68746,2,0,P|253:218|215:191,1,96,0|2,1:0|1:0,0:0:0:0:
184,100,69530,6,0,P|132:68|92:68,1,96,0|2,1:0|1:0,0:0:0:0:
36,140,70314,2,0,B|24:180|36:212|36:212|48:244|36:284,2,144,0|2|2,1:0|0:0|1:0,0:0:0:0:
98,66,71883,1,2,1:2:0:0:
228,128,72471,6,0,B|260:192|260:192|228:256,1,144,4|8,0:0|1:0,0:0:0:0:
156,192,73452,1,0,1:0:0:0:
344,236,74236,6,0,P|328:192|344:148,1,96,4|4,1:2|1:2,0:0:0:0:
428,192,75020,2,0,L|508:184,2,72,4|8|4,1:2|1:0|1:2,0:0:0:0:
363,321,76197,2,0,L|167:341,1,192,2|2,1:0|0:0,0:0:0:0:
76,348,77373,6,0,P|60:304|76:260,1,96,4|4,1:2|1:2,0:0:0:0:
144,192,78158,2,0,P|160:148|144:104,1,96,4|4,1:2|1:2,0:0:0:0:
80,32,78942,6,0,P|160:76|244:32,1,192,4|6,0:0|0:0,0:0:0:0:
336,52,80118,2,4,L|356:96,1,48
444,132,80707,2,4,L|464:176,1,48
432,268,81295,1,4,0:0:0:0:
248,212,82079,6,0,B|160:248,1,96,4|2,1:0|1:0,0:0:0:0:
80,300,82863,2,0,P|92:254|79:208,1,96,2|2,0:0|1:0,0:0:0:0:
28,128,83648,1,2,0:0:0:0:
92,56,84040,1,2,1:0:0:0:
188,56,84432,1,2,0:0:0:0:
252,128,84824,1,2,1:0:0:0:
224,220,85216,6,0,P|212:260|224:312,2,96,2|2|2,0:0|1:0|0:0,0:0:0:0:
308,264,86393,2,0,L|364:264,1,48,2|4,1:0|0:0,0:0:0:0:
