osu file format v14

[General]
AudioFilename: audio.mp3
AudioLeadIn: 0
PreviewTime: 59040
Countdown: 0
SampleSet: Soft
StackLeniency: 0.7
Mode: 0
LetterboxInBreaks: 0
WidescreenStoryboard: 0

[Editor]
Bookmarks: 31892,44441,50716,62872,82088
DistanceSpacing: 2
BeatDivisor: 4
GridSize: 32
TimelineZoom: 2.7

[Metadata]
Title:Alola!!
TitleUnicode:アローラ!!
Artist:Satoshi with Pikachu (CV:Matsumoto Rica/Otani Ikue)
ArtistUnicode:サトシwithピカチュウ (CV:松本梨香/大谷育江)
Creator:CrystilonZ
Version:Z-Insane
Source:ポケットモンスター サン&ムーン
Tags:Saku Pokemon Pokémon Pocket Monsters the series Sun and Moon opening 佐香 智久 Sako Tomohisa ezek Hobbes2 Plaudible Kaitjuh PolkaMocha Nintendo GAME FREAK
BeatmapID:1134359
BeatmapSetID:535569

[Difficulty]
HPDrainRate:6.8
CircleSize:4.2
OverallDifficulty:8.5
ApproachRate:8.8
SliderMultiplier:1.62
SliderTickRate:1

[Events]
//Background and Video events
Video,0,"videos.avi"
0,0,"sunlion.jpg",0,0
//Break Periods
//Storyboard Layer 0 (Background)
//Storyboard Layer 1 (Fail)
//Storyboard Layer 2 (Pass)
//Storyboard Layer 3 (Foreground)
//Storyboard Sound Samples

[TimingPoints]
511,392.156862745098,4,2,1,30,1,0
6393,-100,4,2,1,40,0,0
6785,-100,4,2,1,40,0,0
16197,-100,4,2,2,45,0,0
18746,-100,4,2,1,20,0,0
19334,-100,4,2,1,30,0,0
28746,-100,4,2,1,40,0,0
44432,-100,4,2,1,45,0,0
46981,-100,4,2,2,45,0,0
47373,-100,4,2,1,45,0,0
50118,-100,4,2,2,45,0,0
50511,-100,4,2,1,45,0,0
53256,-100,4,2,2,45,0,0
53648,-100,4,2,1,45,0,0
56393,-100,4,2,2,45,0,0
56785,-100,4,2,1,45,0,0
56981,-100,4,2,2,45,0,0
58648,-100,4,2,1,45,0,0
59922,-100,4,2,1,58,0,0
60118,-133.333333333333,4,2,1,58,0,1
60510,-90.9090909090909,4,2,1,58,0,1
66001,-90.9090909090909,4,2,1,58,0,0
66393,-133.333333333333,4,2,1,58,0,1
66785,-90.9090909090909,4,2,1,58,0,1
73844,-90.9090909090909,4,2,1,58,0,1
74236,-90.9090909090909,4,2,1,58,0,0
78942,-100,4,2,2,58,0,1
79040,-100,4,2,2,58,0,1
79530,-100,4,2,1,58,0,1
79726,-100,4,2,2,58,0,1
79922,-100,4,2,1,58,0,1
80118,-100,4,2,2,58,0,1
80707,-100,4,2,2,58,0,1
81687,-100,4,2,1,58,0,1
82079,-100,4,2,1,40,0,0
86589,-100,4,2,1,40,0,0

[Colours]
Combo1 : 245,140,35
Combo2 : 254,240,65
Combo3 : 87,87,87
Combo4 : 33,67,201
Combo5 : 237,67,18
Combo6 : 207,207,207

[HitObjects]
193,50,5805,6,0,L|195:29,2,20.25,8|8|8,0:0|0:0|0:0,0:0:0:0:
247,132,6066,2,0,P|249:152|247:191,1,54,8|8,0:0|0:0,0:0:0:0:
119,336,6393,1,8,1:0:0:0:
174,311,6491,1,2,0:0:0:0:
233,307,6589,1,8,1:0:0:0:
291,325,6687,1,8,1:0:0:0:
339,362,6785,5,4,1:2:0:0:
248,186,6981,1,2,0:0:0:0:
445,195,7177,1,2,1:0:0:0:
182,234,7373,2,0,P|165:187|178:141,1,81,2|0,0:0|1:0,0:0:0:0:
273,33,7765,1,2,0:0:0:0:
248,186,7961,1,2,1:0:0:0:
129,88,8158,1,2,0:0:0:0:
256,264,8354,5,2,1:2:0:0:
171,158,8550,1,0,0:0:0:0:
192,318,8746,1,2,1:0:0:0:
248,186,8942,1,0,0:0:0:0:
115,286,9138,1,2,1:2:0:0:
171,158,9334,1,2,0:0:0:0:
256,264,9530,1,2,1:0:0:0:
104,206,9726,2,0,P|87:161|104:115,1,81,2|0,0:0|1:0,0:0:0:0:
177,41,10118,5,0,0:0:0:0:
177,41,10216,1,0,0:0:0:0:
177,41,10314,2,0,B|263:38|263:38,1,81,2|0,1:0|0:0,0:0:0:0:
374,73,10707,2,0,P|312:74|258:118,1,121.5,0|0,1:0|0:0,0:0:0:0:
251,179,11099,2,0,L|255:268,1,81,2|0,1:0|0:0,0:0:0:0:
388,292,11491,5,0,1:0:0:0:
347,169,11687,1,0,0:0:0:0:
281,297,11883,2,0,L|277:386,1,81,2|0,1:0|0:0,0:0:0:0:
136,377,12275,2,0,L|129:255,1,121.5,0|0,1:0|0:0,0:0:0:0:
169,191,12667,6,0,L|172:141,1,40.5,8|0,1:0|0:2,0:0:0:0:
207,38,12863,2,0,L|209:78,1,40.5,8|8,1:0|1:0,0:0:0:0:
274,205,13060,6,0,L|278:124,1,81,4|2,1:2|0:0,0:0:0:0:
169,191,13452,1,2,1:0:0:0:
91,29,13648,2,0,L|94:109,1,81,2|0,0:0|1:0,0:0:0:0:
169,191,14040,1,2,0:0:0:0:
274,205,14236,1,2,1:0:0:0:
378,172,14432,1,2,0:0:0:0:
169,191,14628,5,2,1:2:0:0:
94,109,14824,1,0,0:0:0:0:
274,205,15020,1,2,1:0:0:0:
378,172,15216,1,0,0:0:0:0:
169,191,15412,1,2,1:2:0:0:
258,1,15609,1,2,0:0:0:0:
378,172,15805,2,0,B|389:253|389:253|380:305,1,121.5,2|0,1:0|3:0,0:0:0:0:
315,350,16197,6,0,P|262:358|210:336,1,81,2|0,1:2|3:0,0:0:0:0:
149,345,16491,2,0,P|168:295|213:261,1,81,2|0,1:2|3:0,0:0:0:0:
264,228,16785,2,0,P|273:246|277:266,1,40.5,2|0,1:2|3:0,0:0:0:0:
182,184,16981,6,0,P|166:139|185:80,1,81,2|0,1:2|3:0,0:0:0:0:
163,17,17275,2,0,P|209:25|251:71,1,81,2|0,1:2|3:0,0:0:0:0:
292,115,17569,2,0,P|275:126|256:132,1,40.5,2|0,1:2|3:0,0:0:0:0:
357,48,17765,6,0,P|384:93|367:170,2,121.5,2|2|2,1:2|0:0|0:0,0:0:0:0:
357,48,18746,5,0,0:0:0:0:
293,116,18942,1,0,0:0:0:0:
237,46,19138,1,0,0:0:0:0:
207,191,19334,6,0,P|211:238|222:290,1,81,4|0,1:2|0:0,0:0:0:0:
297,361,19726,1,8,1:0:0:0:
196,294,19922,1,0,0:0:0:0:
203,167,20118,1,0,1:0:0:0:
177,317,20314,1,0,0:0:0:0:
207,191,20511,1,8,1:0:0:0:
159,339,20707,1,0,0:0:0:0:
50,180,20903,5,0,1:0:0:0:
177,317,21099,1,0,0:0:0:0:
41,203,21295,1,8,1:0:0:0:
193,105,21491,2,0,P|198:64|184:18,1,81,0|0,0:0|1:0,0:0:0:0:
18,21,21883,1,0,0:0:0:0:
114,68,22079,1,8,1:0:0:0:
214,115,22275,2,0,L|310:110,1,81,0|2,0:0|1:2,0:0:0:0:
405,60,22667,5,0,0:0:0:0:
405,60,22765,1,0,0:0:0:0:
405,60,22863,1,8,1:0:0:0:
310,143,23060,1,0,0:0:0:0:
436,144,23256,1,0,1:0:0:0:
312,180,23452,1,0,0:0:0:0:
434,228,23648,1,8,1:0:0:0:
310,217,23844,1,0,0:0:0:0:
443,345,24040,5,0,1:0:0:0:
303,247,24236,1,0,0:0:0:0:
436,144,24432,1,8,1:0:0:0:
296,44,24628,2,0,L|215:48,1,81,0|0,0:0|1:0,0:0:0:0:
59,14,25020,1,0,0:0:0:0:
105,102,25216,1,8,1:0:0:0:
117,201,25412,6,0,L|112:291,1,81,0|2,0:0|1:2,0:0:0:0:
39,170,25805,1,0,0:0:0:0:
101,304,26001,1,8,1:0:0:0:
209,204,26197,2,0,L|289:199,1,81,0|0,0:0|1:0,0:0:0:0:
157,136,26589,1,0,0:0:0:0:
300,170,26785,1,8,1:0:0:0:
202,283,26981,2,0,P|201:326|226:371,1,81,0|0,0:0|1:0,0:0:0:0:
209,204,27373,5,0,0:0:0:0:
209,204,27471,1,0,0:0:0:0:
209,204,27569,1,8,1:0:0:0:
285,305,27765,1,0,0:0:0:0:
300,170,27961,1,0,1:0:0:0:
372,281,28158,2,0,P|373:324|348:369,1,81,0|8,0:0|1:0,0:0:0:0:
217,361,28550,1,0,0:0:0:0:
391,188,28746,6,0,P|447:235|460:329,1,162,2|0,1:0|0:0,0:0:0:0:
357,357,29334,1,8,1:0:0:0:
311,134,29530,2,0,P|381:98|458:126,1,162,2|0,1:0|0:0,0:0:0:0:
226,189,30118,6,0,P|212:133|268:36,1,162,4|2,1:2|0:0,0:0:0:0:
316,229,30707,1,2,1:2:0:0:
353,16,30903,1,0,0:0:0:0:
226,189,31099,2,0,P|217:249|235:286,1,81,2|0,1:2|0:0,0:0:0:0:
425,338,31491,1,2,1:2:0:0:
167,335,31687,1,8,1:0:0:0:
167,335,31785,1,8,1:0:0:0:
167,335,31883,6,0,L|79:329,1,81,4|0,1:2|0:0,0:0:0:0:
0,187,32275,2,0,L|88:181,1,81,8|0,1:0|0:0,0:0:0:0:
200,67,32667,1,0,1:0:0:0:
88,188,32863,1,0,0:0:0:0:
88,188,32961,1,0,0:0:0:0:
88,188,33060,1,8,1:0:0:0:
174,341,33256,1,2,0:0:0:0:
174,341,33354,1,0,0:0:0:0:
174,341,33452,5,2,1:2:0:0:
287,221,33648,1,2,3:2:0:0:
200,67,33844,1,8,1:0:0:0:
230,281,34040,2,0,P|271:304|314:298,1,81,2|0,3:2|1:0,0:0:0:0:
475,177,34432,1,0,0:0:0:0:
419,361,34628,1,8,1:0:0:0:
287,220,34824,2,0,P|271:176|282:135,1,81,0|0,0:0|1:0,0:0:0:0:
367,9,35216,5,0,0:0:0:0:
367,9,35314,1,0,0:0:0:0:
367,9,35412,1,8,1:0:0:0:
359,179,35609,1,0,0:0:0:0:
359,179,35707,1,0,0:0:0:0:
359,179,35805,1,0,1:0:0:0:
215,87,36001,1,0,0:0:0:0:
215,87,36099,1,0,0:0:0:0:
215,87,36197,2,0,L|117:86,1,81,8|0,1:0|0:0,0:0:0:0:
69,49,36491,1,0,0:0:0:0:
69,49,36589,6,0,P|83:102|71:147,1,81,2|2,1:2|3:2,0:0:0:0:
0,298,36981,1,8,1:0:0:0:
153,171,37177,2,0,L|233:171,1,81,2|0,3:2|1:0,0:0:0:0:
207,346,37569,2,0,P|193:307|196:267,1,81,0|8,0:0|1:0,0:0:0:0:
307,102,37961,1,0,0:0:0:0:
307,102,38060,1,0,0:0:0:0:
307,102,38158,6,0,P|310:61|296:23,1,81,0|0,1:0|0:0,0:0:0:0:
235,172,38550,1,8,1:0:0:0:
283,6,38746,2,0,L|240:0,1,40.5,2|2,0:0|0:0,0:0:0:0:
169,23,38942,1,2,1:2:0:0:
220,196,39138,1,2,3:2:0:0:
93,64,39334,1,8,1:0:0:0:
209,223,39530,1,2,3:2:0:0:
34,128,39726,5,0,1:0:0:0:
205,255,39922,1,0,0:0:0:0:
1,210,40118,1,8,1:0:0:0:
216,294,40314,1,2,0:0:0:0:
216,294,40412,1,2,0:0:0:0:
216,294,40511,5,2,1:2:0:0:
433,179,40707,2,0,P|435:219|436:260,1,81,2|8,3:2|1:0,0:0:0:0:
295,5,41099,2,0,P|293:45|292:85,1,81,2|0,3:2|1:0,0:0:0:0:
216,294,41491,2,0,P|215:253|213:213,1,81,2|8,3:2|1:0,0:0:0:0:
70,119,41883,1,0,0:0:0:0:
70,119,41981,1,0,0:0:0:0:
70,119,42079,2,0,P|71:79|74:39,2,81,0|0|8,1:2|1:0|1:0,0:0:0:0:
177,364,42667,6,0,P|227:374|264:359,1,81,8|0,3:1|0:0,0:0:0:0:
389,131,43060,2,0,P|389:104|387:84,1,40.5,8|0,1:0|3:0,0:0:0:0:
312,0,43256,2,0,P|312:27|314:47,1,40.5,8|0,1:0|3:0,0:0:0:0:
425,16,43452,2,0,P|398:16|378:18,1,40.5,2|0,0:0|3:0,0:0:0:0:
275,115,43648,2,0,P|302:115|322:113,2,40.5,8|2|2,1:0|3:1|3:1,0:0:0:0:
103,15,44040,2,0,P|82:13|62:13,2,40.5,8|0|0,1:0|0:1|0:1,0:0:0:0:
258,201,44432,6,0,P|267:251|253:287,1,81,4|2,1:2|0:0,0:0:0:0:
122,278,44824,1,2,1:0:0:0:
190,159,45020,1,2,0:0:0:0:
190,318,45216,1,0,1:0:0:0:
122,199,45412,1,2,0:0:0:0:
258,279,45609,1,2,1:0:0:0:
260,122,45805,1,2,0:0:0:0:
122,278,46001,5,0,1:0:0:0:
325,240,46197,1,0,0:0:0:0:
191,84,46393,1,2,1:0:0:0:
192,319,46589,1,0,0:0:0:0:
118,120,46785,2,0,P|109:74|130:32,2,81,2|8|8,1:2|3:2|3:2,0:0:0:0:
244,236,47373,6,0,L|325:240,1,81,0|0,0:0|1:0,0:0:0:0:
463,153,47765,1,0,0:0:0:0:
463,153,47863,1,0,0:0:0:0:
463,153,47961,2,0,L|382:157,1,81,2|0,1:0|0:0,0:0:0:0:
244,236,48354,1,0,1:0:0:0:
326,92,48550,1,0,0:0:0:0:
408,238,48746,2,0,P|417:283|399:336,1,81,2|0,1:0|0:0,0:0:0:0:
350,371,49040,1,0,0:0:0:0:
350,371,49138,5,0,1:0:0:0:
244,236,49334,1,0,0:0:0:0:
326,92,49530,1,2,1:0:0:0:
300,302,49726,1,0,0:0:0:0:
300,302,49824,1,0,0:0:0:0:
300,302,49922,2,0,P|258:323|215:317,1,81,0|8,1:0|3:2,0:0:0:0:
177,168,50314,1,8,3:2:0:0:
31,282,50510,1,0,0:0:0:0:
31,282,50609,1,0,0:0:0:0:
31,282,50707,6,0,P|17:232|35:184,1,81,4|0,1:2|0:0,0:0:0:0:
117,53,51099,1,2,1:0:0:0:
99,233,51295,1,2,0:0:0:0:
263,159,51491,1,0,1:0:0:0:
41,84,51687,2,0,P|35:44|48:6,1,81,2|2,0:0|1:0,0:0:0:0:
343,126,52079,2,0,P|348:165|335:203,1,81,2|0,0:0|1:0,0:0:0:0:
251,371,52471,5,0,0:0:0:0:
264,159,52667,1,2,1:0:0:0:
441,276,52863,1,2,0:0:0:0:
441,276,52961,1,0,0:0:0:0:
441,276,53060,2,0,L|448:363,2,81,0|8|8,1:0|3:2|3:2,0:0:0:0:
341,138,53648,1,0,0:0:0:0:
341,138,53746,1,0,0:0:0:0:
341,138,53844,6,0,L|347:57,1,81,0|0,1:0|0:0,0:0:0:0:
394,203,54236,2,0,P|348:223|304:212,1,81,2|0,1:0|0:0,0:0:0:0:
258,159,54530,1,0,0:0:0:0:
258,159,54628,1,0,1:0:0:0:
135,279,54824,2,0,L|141:360,1,81,0|2,0:0|1:0,0:0:0:0:
318,218,55216,2,0,P|342:174|336:124,1,81,0|0,0:0|1:0,0:0:0:0:
230,3,55609,5,0,0:0:0:0:
258,159,55805,1,2,1:0:0:0:
382,56,56001,1,0,0:0:0:0:
382,56,56099,1,0,0:0:0:0:
382,56,56197,2,0,L|465:51,2,81,0|8|8,1:0|3:2|3:2,0:0:0:0:
186,110,56785,1,0,0:0:0:0:
331,253,56981,6,0,P|343:303|328:345,1,81,2|0,1:2|3:0,0:0:0:0:
258,210,57275,2,0,P|295:174|339:166,1,81,2|0,1:2|3:0,0:0:0:0:
258,296,57569,2,0,P|208:281|197:267,1,40.5,2|0,1:2|3:0,0:0:0:0:
81,168,57765,6,0,B|78:115|78:115|93:79,1,81,2|0,1:2|3:0,0:0:0:0:
233,98,58060,2,0,B|188:127|188:127|149:132,1,81,2|0,1:2|3:0,0:0:0:0:
133,17,58354,2,0,B|144:22|144:22|161:45,1,40.5,2|0,1:2|3:0,0:0:0:0:
159,216,58550,37,6,1:2:0:0:
256,192,58648,12,0,59824,3:0:0:0:
85,205,59922,69,8,1:0:0:0:
110,190,60020,1,8,1:0:0:0:
137,175,60118,2,0,B|196:165|196:165|249:181,1,91.125003476143,4|0,0:0|3:0,0:0:0:0:
190,323,60510,6,0,P|174:282|188:240,1,89.1000027191163,4|0,1:2|0:0,0:0:0:0:
288,216,60805,1,0,0:0:0:0:
288,216,60903,2,0,P|303:175|289:133,1,89.1000027191163,0|0,1:0|0:0,0:0:0:0:
137,76,61295,1,2,1:0:0:0:
252,283,61491,2,0,B|281:292|281:292|342:282,1,89.1000027191163,0|0,0:0|1:0,0:0:0:0:
453,100,61883,5,0,0:0:0:0:
403,335,62079,1,2,1:0:0:0:
225,174,62275,1,2,0:0:0:0:
214,124,62373,1,2,0:0:0:0:
234,79,62471,2,0,L|284:69,1,44.5500013595581,2|0,1:2|3:0,0:0:0:0:
198,10,62667,2,0,L|248:0,1,44.5500013595581,2|0,0:0|3:0,0:0:0:0:
128,56,62863,2,0,L|78:46,1,44.5500013595581,2|0,1:0|3:0,0:0:0:0:
139,134,63060,2,0,L|89:124,1,44.5500013595581,2|0,0:2|3:0,0:0:0:0:
150,210,63256,54,0,P|154:258|129:306,1,89.1000027191163,0|0,1:0|0:0,0:0:0:0:
373,294,63648,2,0,P|357:253|362:210,1,89.1000027191163,2|0,1:0|0:0,0:0:0:0:
373,134,63942,1,0,0:0:0:0:
373,134,64040,2,0,L|473:113,1,89.1000027191163,0|0,1:0|0:0,0:0:0:0:
256,52,64432,1,2,1:0:0:0:
459,274,64628,6,0,P|459:321|390:382,1,133.650004078674,2|0,0:0|3:0,0:0:0:0:
314,341,65020,2,0,L|261:331,1,44.5500013595581,2|0,0:0|3:0,0:0:0:0:
288,184,65216,2,0,L|341:194,1,44.5500013595581,2|0,1:0|3:0,0:0:0:0:
219,275,65412,2,0,L|229:222,1,44.5500013595581,2|0,0:2|3:0,0:0:0:0:
381,250,65609,2,0,L|371:303,1,44.5500013595581,2|0,1:2|3:0,0:0:0:0:
288,184,65805,5,0,1:0:0:0:
252,122,65903,1,0,1:0:0:0:
279,56,66001,2,0,L|326:47,1,44.5500013595581,10|0,1:0|1:0,0:0:0:0:
181,122,66197,2,0,L|148:83,1,44.5500013595581,8|8,1:0|1:0,0:0:0:0:
287,184,66393,6,0,P|274:237|301:288,1,91.125003476143,4|0,1:2|3:0,0:0:0:0:
439,230,66785,6,0,B|380:219|380:219|351:226,1,89.1000027191163,4|0,1:2|0:0,0:0:0:0:
318,340,67079,1,0,0:0:0:0:
318,340,67177,2,0,B|289:347|289:347|230:336,1,89.1000027191163,0|0,1:2|0:0,0:0:0:0:
177,175,67569,1,2,1:0:0:0:
386,297,67765,2,0,P|398:340|385:385,1,89.1000027191163,0|0,0:0|1:0,0:0:0:0:
105,379,68158,5,0,0:0:0:0:
318,340,68354,1,2,1:0:0:0:
177,175,68550,2,0,L|133:171,1,44.5500013595581,2|0,0:0|3:0,0:0:0:0:
238,117,68746,2,0,L|340:107,1,89.1000027191163,2|0,1:2|0:0,0:0:0:0:
114,17,69138,1,2,1:0:0:0:
253,195,69334,2,0,P|270:258|252:298,1,89.1000027191163,0|0,0:0|1:0,0:0:0:0:
88,331,69726,53,0,0:0:0:0:
196,247,69922,1,2,1:0:0:0:
281,357,70118,1,0,0:0:0:0:
253,195,70314,1,0,1:0:0:0:
95,188,70511,1,2,0:0:0:0:
312,138,70707,1,2,1:0:0:0:
281,357,70903,2,0,L|188:364,1,89.1000027191163,2|0,0:0|1:0,0:0:0:0:
71,234,71295,5,2,0:0:0:0:
47,190,71393,1,2,0:0:0:0:
52,141,71491,2,0,L|60:97,1,44.5500013595581,2|0,1:0|3:0,0:0:0:0:
130,34,71687,2,0,L|138:78,1,44.5500013595581,2|0,0:0|3:0,0:0:0:0:
192,176,71883,2,0,L|200:132,1,44.5500013595581,2|0,1:2|3:0,0:0:0:0:
274,42,72079,2,0,L|282:86,1,44.5500013595581,2|0,0:0|3:0,0:0:0:0:
332,211,72275,2,0,L|340:167,1,44.5500013595581,2|0,1:0|3:0,0:0:0:0:
418,50,72471,6,0,L|445:187,1,133.650004078674,4|0,0:0|3:0,0:0:0:0:
295,281,72863,2,0,L|303:237,1,44.5500013595581,2|0,0:0|3:0,0:0:0:0:
457,212,73060,2,0,L|449:256,1,44.5500013595581,2|0,1:0|3:0,0:0:0:0:
339,167,73256,2,0,L|383:175,1,44.5500013595581,2|0,0:0|3:0,0:0:0:0:
408,329,73452,2,0,B|323:313|323:313|261:330,1,133.650004078674,2|0,1:2|3:0,0:0:0:0:
165,265,73844,6,0,P|187:266|208:261,1,44.5500013595581,0|0,1:0|1:0,0:0:0:0:
94,209,74040,2,0,P|81:227|74:248,1,44.5500013595581,8|8,1:0|1:0,0:0:0:0:
176,179,74236,6,0,P|166:158|49:141,1,133.650004078674,4|0,1:2|3:0,0:0:0:0:
165,265,74628,2,0,P|187:266|261:174,1,133.650004078674,4|0,1:2|3:0,0:0:0:0:
94,209,75020,2,0,P|81:227|89:305,1,89.1000027191163,4|0,1:2|3:0,0:0:0:0:
213,358,75314,2,0,B|256:347|256:347|300:358,1,89.1000027191163,8|0,1:0|3:0,0:0:0:0:
431,291,75609,2,0,B|449:245|417:209|417:209|380:166|409:114,1,178.200005438233,4|0,1:2|1:0,0:0:0:0:
500,59,76197,5,2,1:0:0:0:
355,263,76393,2,0,P|308:276|262:262,1,89.1000027191163,2|0,0:0|1:0,0:0:0:0:
62,109,76785,1,2,0:0:0:0:
62,109,76883,1,0,0:0:0:0:
62,109,76981,2,0,P|109:96|155:110,1,89.1000027191163,2|8,1:0|1:0,0:0:0:0:
105,310,77275,1,8,1:0:0:0:
105,310,77373,6,0,B|96:222|96:222|106:178,1,133.650004078674,4|0,1:2|3:0,0:0:0:0:
221,21,77765,2,0,B|230:109|230:109|220:153,1,133.650004078674,4|0,1:2|3:0,0:0:0:0:
18,233,78158,2,0,B|38:146|38:146|61:108,1,133.650004078674,4|0,1:2|1:0,0:0:0:0:
309,103,78550,2,0,B|288:189|288:189|265:227,1,133.650004078674,4|0,1:2|3:0,0:0:0:0:
264,227,78942,5,2,1:2:0:0:
264,227,79334,1,2,1:2:0:0:
309,103,79530,2,0,L|318:63,1,40.5,0|0,1:0|1:0,0:0:0:0:
353,185,79726,2,0,P|364:230|345:275,1,81,2|0,1:2|1:1,0:0:0:0:
156,232,80118,1,2,1:2:0:0:
426,163,80314,2,0,P|441:228|416:300,1,121.5,2|0,1:2|3:0,0:0:0:0:
289,334,80707,6,0,L|232:342,1,40.5,2|0,1:2|3:0,0:0:0:0:
453,323,80903,2,0,L|332:307,1,121.5,2|0,1:2|3:0,0:0:0:0:
138,187,81295,2,0,P|115:146|154:41,1,162,2|2,1:2|0:0,0:0:0:0:
190,24,81785,1,2,0:0:0:0:
246,19,81883,1,8,0:0:0:0:
314,14,81981,1,8,0:0:0:0:
394,9,82079,5,4,1:2:0:0:
223,120,82275,1,2,0:0:0:0:
405,213,82471,1,2,1:0:0:0:
234,324,82667,2,0,L|135:317,1,81,2|0,0:0|1:0,0:0:0:0:
24,196,83060,1,2,0:0:0:0:
90,368,83256,1,2,1:0:0:0:
206,225,83452,1,2,0:0:0:0:
0,298,83648,6,0,L|99:291,1,81,2|0,1:2|0:0,0:0:0:0:
277,195,84040,2,0,L|196:189,1,81,2|0,1:0|0:0,0:0:0:0:
81,82,84432,1,2,1:2:0:0:
196,189,84628,1,2,0:0:0:0:
80,292,84824,1,2,1:0:0:0:
176,92,85020,6,0,L|308:102,1,121.5,2|0,0:0|3:0,0:0:0:0:
371,147,85412,1,2,0:0:0:0:
245,12,85609,1,2,1:0:0:0:
196,189,85805,1,2,0:0:0:0:
68,59,86001,1,2,1:2:0:0:
297,102,86197,1,2,0:0:0:0:
145,278,86393,1,2,1:0:0:0:
245,12,86589,5,4,0:0:0:0:
