osu file format v14

[General]
AudioFilename: audio.mp3
AudioLeadIn: 0
PreviewTime: 59040
Countdown: 0
SampleSet: Soft
StackLeniency: 0.7
Mode: 0
LetterboxInBreaks: 0
WidescreenStoryboard: 1

[Editor]
Bookmarks: 31892,44441,50716,62872,82088
DistanceSpacing: 1
BeatDivisor: 4
GridSize: 4
TimelineZoom: 2.2

[Metadata]
Title:Alola!!
TitleUnicode:アローラ!!
Artist:Satoshi with Pikachu (CV:Matsumoto Rica/Otani Ikue)
ArtistUnicode:サトシwithピカチュウ (CV:松本梨香/大谷育江)
Creator:CrystilonZ
Version:Plaudible's Normal
Source:ポケットモンスター サン&ムーン
Tags:Saku Pokemon Pokémon Pocket Monsters the series Sun and Moon opening 佐香 智久 Sako Tomohisa ezek Hobbes2 Plaudible Kaitjuh PolkaMocha Nintendo GAME FREAK
BeatmapID:1154240
BeatmapSetID:535569

[Difficulty]
HPDrainRate:4
CircleSize:3
OverallDifficulty:4
ApproachRate:5
SliderMultiplier:1.2
SliderTickRate:1

[Events]
//Background and Video events
Video,0,"videos.avi"
0,0,"looollbg.jpg",0,0
//Break Periods
//Storyboard Layer 0 (Background)
//Storyboard Layer 1 (Fail)
//Storyboard Layer 2 (Pass)
//Storyboard Layer 3 (Foreground)
//Storyboard Sound Samples

[TimingPoints]
511,392.156862745098,4,2,1,30,1,0
6393,-100,4,2,1,40,0,0
16197,-100,4,2,2,45,0,0
18746,-100,4,2,1,20,0,0
19334,-100,4,2,1,25,0,0
28746,-100,4,2,1,40,0,0
44432,-100,4,2,1,45,0,0
46981,-100,4,2,2,45,0,0
47373,-100,4,2,1,45,0,0
50118,-100,4,2,2,45,0,0
50511,-100,4,2,1,45,0,0
53256,-100,4,2,2,45,0,0
53648,-100,4,2,1,45,0,0
56393,-100,4,2,2,45,0,0
56785,-100,4,2,1,45,0,0
56981,-100,4,2,2,45,0,0
58648,-100,4,2,1,45,0,0
59922,-100,4,2,1,58,0,0
60118,-100,4,2,1,58,0,1
66001,-100,4,2,1,58,0,0
66393,-100,4,2,1,58,0,1
73844,-100,4,2,1,58,0,1
74236,-100,4,2,1,58,0,0
78942,-100,4,2,2,58,0,1
79530,-100,4,2,1,58,0,1
79726,-100,4,2,2,58,0,1
79922,-100,4,2,1,58,0,1
80118,-100,4,2,2,58,0,1
81687,-100,4,2,1,58,0,1
82079,-100,4,2,1,40,0,0
86785,-100,4,2,1,5,0,0

[Colours]
Combo1 : 245,140,35
Combo2 : 254,240,65
Combo3 : 87,87,87
Combo4 : 33,67,201
Combo5 : 237,67,18
Combo6 : 207,207,207

[HitObjects]
296,100,6393,6,0,P|300:152|292:180,1,60,8|8,1:0|1:0,0:0:0:0:
276,216,6785,6,0,B|324:212|324:212|368:220|368:220|420:216,1,120,4|2,1:2|1:0,0:0:0:0:
456,220,7373,1,2,0:0:0:0:
380,312,7765,2,0,L|384:376,2,60,2|2|2,0:0|1:0|0:0,0:0:0:0:
320,328,8354,2,0,B|256:349|256:308|188:336,1,120,2|2,1:2|1:0,0:0:0:0:
82,339,9138,1,2,1:2:0:0:
82,339,9334,2,0,P|48:336|16:336,2,60,2|10|0,0:0|0:0|0:0,0:0:0:0:
60,284,9922,6,0,P|54:217|92:162,1,120,0|8,0:0|0:0,0:0:0:0:
184,114,10707,1,0,1:0:0:0:
303,121,11099,1,2,1:0:0:0:
366,217,11491,2,0,P|370:281|366:345,2,120,0|2|0,1:0|1:0|1:0,0:0:0:0:
396,104,12667,2,0,P|352:100|324:108,1,60,8|8,1:0|1:0,0:0:0:0:
280,80,13060,6,0,B|240:80|240:80|204:88|204:88|160:88,1,120,4|2,1:2|1:0,0:0:0:0:
100,88,13648,1,2,0:0:0:0:
124,204,14040,2,0,L|52:208,2,60,2|2|2,0:0|1:0|0:0,0:0:0:0:
176,232,14628,2,0,P|200:300|172:356,1,120,2|2,1:2|1:0,0:0:0:0:
304,352,15412,1,2,1:2:0:0:
304,352,15609,2,0,L|388:356,1,60,2|2,0:0|1:0,0:0:0:0:
396,240,16197,6,0,B|388:180|388:180|356:136,2,90,2|2|2,1:2|1:2|1:2,0:0:0:0:
423,293,16981,2,0,B|478:316|478:316|508:312,2,90,2|2|2,1:2|1:2|1:2,0:0:0:0:
363,288,17765,2,0,B|315:324|315:324|303:351,2,90,2|2|2,1:2|0:0|0:0,0:0:0:0:
284,196,18746,2,0,L|288:124,2,60,0|0|0,0:0|0:0|0:0,0:0:0:0:
232,168,19334,6,0,B|184:164|184:164|140:172|140:172|88:168,1,120,4|8,1:2|1:0,0:0:0:0:
15,240,20118,1,0,1:0:0:0:
102,322,20511,1,8,1:0:0:0:
215,274,20903,1,0,1:0:0:0:
215,274,21099,2,0,L|218:345,2,60,0|8|0,0:0|1:0|0:0,0:0:0:0:
296,186,21883,2,0,L|299:107,2,60,0|8|0,0:0|1:0|0:0,0:0:0:0:
242,159,22471,6,0,B|163:150|163:150|122:159,1,120,2|8,1:2|1:0,0:0:0:0:
55,257,23256,1,0,1:0:0:0:
153,325,23648,1,8,1:0:0:0:
260,283,24040,1,0,1:0:0:0:
260,283,24236,2,0,L|261:342,2,60,0|8|0,0:0|1:0|0:0,0:0:0:0:
367,230,25020,2,0,L|426:230,2,60,0|8|0,0:0|1:0|0:0,0:0:0:0:
318,194,25609,6,0,P|304:127|322:81,1,120,2|8,1:2|1:0,0:0:0:0:
371,46,26197,1,0,0:0:0:0:
461,118,26589,2,0,P|458:172|460:191,1,60,0|8,0:0|1:0,0:0:0:0:
485,231,26981,2,0,B|448:227|448:227|401:235|401:235|354:228,2,120,0|0|0,0:0|0:0|0:0,0:0:0:0:
452,348,28158,2,0,L|516:356,2,60,0|8|0,0:0|1:0|0:0,0:0:0:0:
392,344,28746,5,2,1:0:0:0:
216,304,29334,2,0,L|283:307,1,60,8|2,1:0|1:0,0:0:0:0:
335,139,30118,2,0,L|212:146,1,120,4|2,1:2|0:0,0:0:0:0:
158,124,30707,2,0,L|71:119,1,60,2|2,1:2|0:0,0:0:0:0:
44,93,31099,1,2,1:2:0:0:
78,209,31491,2,0,P|84:262|80:282,1,60,2|8,1:2|1:0,0:0:0:0:
51,319,31883,6,0,B|114:311|114:311|193:326,1,120,4|8,1:2|1:0,0:0:0:0:
227,336,32471,1,0,0:0:0:0:
227,336,32667,2,0,L|226:211,1,120,0|8,1:0|1:0,0:0:0:0:
308,128,33452,1,2,1:2:0:0:
308,128,33648,2,0,L|312:55,2,60,2|8|2,3:2|1:0|3:2,0:0:0:0:
372,228,34432,2,0,L|376:301,2,60,0|8|0,0:0|1:0|0:0,0:0:0:0:
323,262,35020,6,0,B|251:276|251:276|203:265,1,120,0|8,1:0|1:0,0:0:0:0:
148,248,35609,1,0,0:0:0:0:
148,248,35805,2,0,L|144:368,1,120,0|8,1:0|1:0,0:0:0:0:
44,304,36589,1,2,1:2:0:0:
44,304,36785,2,0,L|40:244,2,60,2|8|2,3:2|1:0|3:2,0:0:0:0:
148,248,37569,2,0,L|216:252,2,60,0|8|0,0:0|1:0|0:0,0:0:0:0:
184,200,38158,6,0,B|184:156|184:156|196:120|196:120|196:76,1,120,0|8,1:0|1:0,0:0:0:0:
316,80,38942,2,0,B|316:118|316:118|328:154|328:154|328:198,1,120,2|8,1:2|1:0,0:0:0:0:
316,316,39726,2,0,P|240:332|180:308,1,120,0|8,1:0|1:0,0:0:0:0:
252,212,40511,1,2,1:2:0:0:
252,212,40707,2,0,B|252:176|252:176|248:152|248:152|252:128|252:128|252:84|252:84,1,120,2|2,3:2|3:2,0:0:0:0:
256,32,41295,6,0,P|316:12|368:32,1,120,0|8,1:0|1:0,0:0:0:0:
408,144,42079,2,0,L|408:212,1,60,0|0,1:2|1:0,0:0:0:0:
440,256,42471,1,8,1:0:0:0:
440,256,42667,2,0,L|317:263,1,120,8|8,3:1|1:0,0:0:0:0:
263,241,43256,2,0,L|176:236,1,60,8|2,1:0|0:0,0:0:0:0:
149,210,43648,1,8,1:0:0:0:
32,240,44040,2,0,P|36:272|32:320,1,60,8|0,1:0|0:1,0:0:0:0:
16,356,44432,6,0,B|76:340|76:340|144:352|144:352,1,120,4|2,1:2|1:0,0:0:0:0:
184,320,45020,1,2,0:0:0:0:
184,320,45216,2,0,L|188:392,2,60,0|2|2,1:0|0:0|1:0,0:0:0:0:
292,268,46001,1,0,1:0:0:0:
396,328,46393,1,2,1:0:0:0:
396,328,46589,2,0,L|400:184,1,120,0|8,0:0|3:2,0:0:0:0:
388,148,47177,1,8,3:2:0:0:
288,80,47569,6,0,P|216:64|156:92,1,120,0|2,1:0|1:0,0:0:0:0:
128,120,48158,1,0,0:0:0:0:
128,120,48354,2,0,L|124:204,2,60,0|0|2,1:0|0:0|1:0,0:0:0:0:
36,196,49138,1,0,1:0:0:0:
128,276,49530,1,2,1:0:0:0:
128,276,49726,2,0,B|204:252|204:296|264:268,1,120,0|8,0:0|3:2,0:0:0:0:
304,264,50314,1,8,3:2:0:0:
424,240,50707,6,0,L|420:364,2,120,4|2|0,1:2|1:0|1:0,0:0:0:0:
372,132,51883,1,2,1:0:0:0:
372,132,52079,2,0,B|312:112|312:112|228:128,1,120,2|0,0:0|0:0,0:0:0:0:
204,152,52667,2,0,L|200:216,2,60,2|2|0,1:0|0:0|1:0,0:0:0:0:
167,112,53256,1,8,0:0:0:0:
167,112,53452,1,8,3:2:0:0:
64,172,53844,6,0,B|48:236|84:236|56:300,2,120,0|2|0,1:0|1:0|1:0,0:0:0:0:
120,68,55020,1,2,1:0:0:0:
120,68,55216,2,0,B|184:40|257:88,1,120
268,125,55805,2,0,L|268:205,2,60,2|0|0,1:0|0:0|1:0,0:0:0:0:
331,123,56393,1,8,0:0:0:0:
331,123,56589,1,8,3:2:0:0:
420,200,56981,6,0,P|470:180|503:144,2,90,2|2|2,1:2|1:2|1:2,0:0:0:0:
376,244,57765,2,0,P|365:298|382:344,2,90,2|2|2,1:2|1:2|1:2,0:0:0:0:
367,184,58550,1,6,1:2:0:0:
192,228,59334,6,0,B|149:227|149:227|136:232|136:232|116:224|116:224|104:229|104:229|52:232,1,120,0|0,0:0|0:0,0:0:0:0:
12,220,59922,1,8,1:0:0:0:
12,220,60118,38,0,P|-4:164|12:100,1,120,4|4,0:0|1:2,0:0:0:0:
124,64,60903,2,0,B|184:48|184:88|244:68,1,120,0|2,1:0|1:0,0:0:0:0:
300,52,61491,2,0,P|272:116|304:176,1,120,0|0,0:0|0:0,0:0:0:0:
324,208,62079,2,0,L|320:276,2,60,2|2|2,1:0|0:0|1:2,0:0:0:0:
228,280,62863,1,2,1:0:0:0:
228,280,63060,6,0,B|168:292|168:292|92:272,1,120,2|0,0:2|0:0,0:0:0:0:
56,252,63648,2,0,L|60:324,2,60,2|0|0,1:0|0:0|1:0,0:0:0:0:
56,132,64432,1,2,1:0:0:0:
56,132,64628,2,0,B|120:112|120:148|192:120,1,120,2|2,0:0|0:0,0:0:0:0:
228,152,65216,2,0,L|232:80,2,60,2|2|2,1:0|0:2|1:2,0:0:0:0:
300,248,66001,2,0,P|340:244|360:232,1,60,10|8,1:0|1:0,0:0:0:0:
389,184,66393,22,0,P|385:273|412:316,1,120,4|4,1:2|1:2,0:0:0:0:
500,232,67177,2,0,L|492:100,1,120,0|2,1:2|1:0,0:0:0:0:
484,52,67765,2,0,P|424:24|356:48,1,120,0|0,0:0|0:0,0:0:0:0:
328,76,68354,2,0,L|244:72,2,60,2|2|2,1:0|0:0|1:2,0:0:0:0:
296,192,69138,1,2,1:0:0:0:
296,192,69334,6,0,B|252:192|252:192|212:200|212:200|168:196,1,120,0|0,0:0|0:0,0:0:0:0:
116,200,69922,2,0,L|120:136,1,60,2|0,1:0|0:0,0:0:0:0:
104,84,70314,1,0,1:0:0:0:
224,64,70707,1,2,1:0:0:0:
224,64,70903,2,0,B|288:76|288:44|348:64,1,120,2|2,0:0|0:0,0:0:0:0:
400,80,71491,2,0,P|424:140|400:188,1,120,2|2,1:0|1:2,0:0:0:0:
308,260,72275,1,2,1:0:0:0:
308,260,72471,6,0,L|185:267,1,120,4|2,0:0|0:0,0:0:0:0:
131,245,73060,2,0,L|44:240,1,60,2|2,1:0|0:0,0:0:0:0:
17,214,73452,1,2,1:2:0:0:
16,96,73844,2,0,P|64:104|84:120,1,60,0|8,1:0|1:0,0:0:0:0:
116,152,74236,6,0,P|172:124|232:128,1,120,4|4,1:2|1:2,0:0:0:0:
328,196,75020,2,0,L|444:200,2,90,4|8|4,1:2|1:0|1:2,0:0:0:0:
152,360,76393,6,0,B|152:312|152:312|156:292|156:292|152:276|152:276|152:228,1,120,2|2,0:0|0:0,0:0:0:0:
176,184,76981,2,0,L|172:120,1,60,2|8,1:0|1:0,0:0:0:0:
140,72,77373,6,0,B|228:80|228:80|272:68,2,120,4|4|4,1:2|1:2|1:2,0:0:0:0:
64,164,78550,1,4,1:2:0:0:
148,248,78942,6,0,L|144:372,1,120,2|2,1:2|1:2,0:0:0:0:
264,360,79726,2,0,L|256:280,1,60,2|0,1:2|1:1,0:0:0:0:
256,240,80118,1,2,1:2:0:0:
256,240,80314,1,2,1:2:0:0:
360,300,80707,1,2,1:2:0:0:
360,300,80903,2,0,L|360:160,1,120,2|2,1:2|1:2,0:0:0:0:
264,108,81687,2,0,L|264:196,1,60,2|8,0:0|0:0,0:0:0:0:
240,224,82079,6,0,B|192:220|192:220|148:228|148:228|96:224,1,120,4|2,1:2|1:0,0:0:0:0:
60,228,82667,1,2,0:0:0:0:
136,320,83060,2,0,L|132:384,2,60,2|2|2,0:0|1:0|0:0,0:0:0:0:
188,348,83648,2,0,B|252:360|252:328|320:348,1,120,2|2,1:2|1:0,0:0:0:0:
424,360,84432,1,2,1:2:0:0:
424,360,84628,2,0,L|416:284,1,60,2|2,0:0|1:0,0:0:0:0:
388,248,85020,6,0,L|392:116,1,120,2|0,0:0|0:0,0:0:0:0:
408,72,85609,1,2,1:0:0:0:
296,28,86001,1,2,1:2:0:0:
296,28,86197,2,0,L|232:32,1,60,2|10,0:0|1:0,0:0:0:0:
180,56,86589,1,4,1:2:0:0:
