osu file format v14

[General]
AudioFilename: audio.mp3
AudioLeadIn: 0
PreviewTime: 59040
Countdown: 0
SampleSet: Soft
StackLeniency: 0.7
Mode: 0
LetterboxInBreaks: 0
WidescreenStoryboard: 1

[Editor]
Bookmarks: 31892,44441,50716,62872,82088
DistanceSpacing: 2
BeatDivisor: 4
GridSize: 4
TimelineZoom: 1.2

[Metadata]
Title:Alola!!
TitleUnicode:アローラ!!
Artist:Satoshi with Pikachu (CV:Matsumoto Rica/Otani Ikue)
ArtistUnicode:サトシwithピカチュウ (CV:松本梨香/大谷育江)
Creator:CrystilonZ
Version:Hobbes2's Insane
Source:ポケットモンスター サン&ムーン
Tags:Saku Pokemon Pokémon Pocket Monsters the series Sun and Moon opening 佐香 智久 Sako Tomohisa ezek Hobbes2 Plaudible Kaitjuh PolkaMocha Nintendo GAME FREAK
BeatmapID:1166151
BeatmapSetID:535569

[Difficulty]
HPDrainRate:6
CircleSize:4
OverallDifficulty:8
ApproachRate:8.8
SliderMultiplier:1.6
SliderTickRate:1

[Events]
//Background and Video events
Video,0,"videos.avi"
0,0,"literally alola.jpg",0,0
//Break Periods
//Storyboard Layer 0 (Background)
//Storyboard Layer 1 (Fail)
//Storyboard Layer 2 (Pass)
//Storyboard Layer 3 (Foreground)
//Storyboard Sound Samples

[TimingPoints]
511,392.156862745098,4,2,1,30,1,0
6393,-100,4,2,1,40,0,0
6785,-100,4,2,1,40,0,0
16197,-100,4,2,2,45,0,0
18746,-133.333333333333,4,2,1,20,0,0
19334,-117.647058823529,4,2,1,30,0,0
28746,-83.3333333333333,4,2,1,40,0,0
29530,-71.4285714285714,4,2,1,40,0,0
31883,-100,4,2,1,40,0,0
44432,-100,4,2,1,45,0,0
46981,-100,4,2,2,45,0,0
47373,-100,4,2,1,45,0,0
50118,-100,4,2,2,45,0,0
50511,-100,4,2,1,45,0,0
53256,-100,4,2,2,45,0,0
53648,-100,4,2,1,45,0,0
56393,-100,4,2,2,45,0,0
56785,-100,4,2,1,45,0,0
56981,-100,4,2,2,45,0,0
58550,-200,4,2,2,45,0,0
58648,-100,4,2,1,45,0,0
59040,-100,4,2,1,5,0,0
59138,-100,4,2,1,25,0,0
59236,-100,4,2,1,45,0,0
59922,-100,4,2,1,58,0,0
60118,-90.9090909090909,4,2,1,58,0,1
66001,-90.9090909090909,4,2,1,58,0,0
66393,-90.9090909090909,4,2,1,58,0,1
72471,-76.9230769230769,4,2,1,58,0,1
73844,-90.9090909090909,4,2,1,58,0,1
74236,-71.4285714285714,4,2,1,58,0,0
75609,-100,4,2,1,58,0,0
77373,-71.4285714285714,4,2,1,58,0,0
78942,-100,4,2,2,58,0,1
79530,-100,4,2,1,58,0,1
79726,-100,4,2,2,58,0,1
79922,-100,4,2,1,58,0,1
80118,-100,4,2,2,58,0,1
81687,-100,4,2,1,58,0,1
82079,-100,4,2,1,40,0,0
86785,-100,4,2,1,5,0,0

[Colours]
Combo1 : 206,206,0
Combo2 : 136,136,255
Combo3 : 60,255,60
Combo4 : 60,255,255
Combo5 : 241,106,67
Combo6 : 207,207,207

[HitObjects]
161,181,6393,5,8,1:0:0:0:
122,168,6491,1,2,0:0:0:0:
122,128,6589,1,8,1:0:0:0:
161,116,6687,1,8,1:0:0:0:
184,148,6785,6,0,P|209:208|206:242,1,80,4|2,1:2|0:0,0:0:0:0:
140,300,7177,1,2,1:0:0:0:
309,241,7373,2,0,P|317:298|372:334,1,120,2|0,0:0|3:0,0:0:0:0:
381,261,7765,1,2,0:0:0:0:
145,220,7961,2,0,P|138:280|142:319,1,80,2|2,1:0|0:0,0:0:0:0:
246,86,8354,6,0,P|197:49|161:33,1,80,2|0,1:2|0:0,0:0:0:0:
311,241,8746,2,0,P|366:217|398:194,1,80,2|0,1:0|0:0,0:0:0:0:
246,86,9138,1,2,1:2:0:0:
145,220,9334,1,2,0:0:0:0:
355,100,9530,1,2,1:0:0:0:
158,125,9726,1,2,0:0:0:0:
319,328,9922,6,0,P|315:261|389:205,2,160,0|2|0,1:0|1:0|1:0,0:0:0:0:
393,288,10903,1,0,0:0:0:0:
270,181,11099,1,2,1:0:0:0:
233,336,11295,1,0,0:0:0:0:
398,208,11491,6,0,P|397:250|391:295,1,80,0|0,1:0|0:0,0:0:0:0:
161,142,11883,2,0,P|162:184|168:229,1,80,2|0,1:0|0:0,0:0:0:0:
370,102,12275,2,0,P|302:110|248:76,1,120,0|0,1:0|0:0,0:0:0:0:
196,35,12667,2,0,P|224:7|247:-3,1,40,8|0,1:0|0:2,0:0:0:0:
161,142,12863,2,0,P|133:170|110:180,1,40,8|8,1:0|1:0,0:0:0:0:
94,17,13060,6,0,P|89:73|96:111,1,80,4|2,1:2|0:0,0:0:0:0:
196,35,13452,1,2,1:0:0:0:
5,65,13648,2,0,B|2:113|8:130|8:130|29:153|37:190,1,120,2|0,0:0|3:0,0:0:0:0:
73,243,14040,1,2,0:0:0:0:
252,184,14236,1,2,1:0:0:0:
95,111,14432,1,2,0:0:0:0:
259,263,14628,6,0,L|250:170,1,80,2|0,1:2|0:0,0:0:0:0:
65,322,15020,2,0,L|74:229,1,80,2|0,1:0|0:0,0:0:0:0:
276,360,15412,2,0,P|226:360|186:365,2,80,2|2|2,1:2|0:0|1:0,0:0:0:0:
406,90,16197,5,2,1:2:0:0:
276,360,16491,1,2,1:2:0:0:
107,112,16785,1,2,1:2:0:0:
110,287,16981,5,2,1:2:0:0:
240,17,17275,1,2,1:2:0:0:
409,265,17569,1,2,1:2:0:0:
406,90,17765,5,2,1:2:0:0:
107,112,18060,1,2,0:0:0:0:
276,360,18354,2,0,P|232:333|276:295,1,120,2|0,0:0|3:0,0:0:0:0:
268,293,18746,6,0,P|269:241|265:217,2,60.0000022888184,0|0|0,0:0|0:0|0:0,0:0:0:0:
165,227,19334,5,4,1:2:0:0:
223,127,19530,2,0,L|209:41,2,68.0000012969971,0|8|0,0:0|1:0|0:0,0:0:0:0:
336,147,20118,1,0,1:0:0:0:
347,262,20314,1,0,0:0:0:0:
347,262,20412,1,0,0:0:0:0:
347,262,20511,2,0,L|343:329,1,68.0000012969971,8|0,1:0|0:0,0:0:0:0:
413,369,20805,1,0,0:0:0:0:
413,369,20903,6,0,P|419:335|426:302,1,68.0000012969971,0|0,1:0|0:0,0:0:0:0:
500,159,21295,1,8,1:0:0:0:
496,241,21491,2,0,P|431:206|422:188,1,68.0000012969971,0|0,0:0|1:0,0:0:0:0:
403,73,21883,1,0,0:0:0:0:
500,159,22079,1,8,1:0:0:0:
303,122,22275,1,0,0:0:0:0:
503,24,22471,5,0,1:0:0:0:
401,140,22667,1,0,0:0:0:0:
401,140,22765,1,0,0:0:0:0:
401,140,22863,2,0,P|403:106|403:73,1,68.0000012969971,8|0,1:0|0:0,0:0:0:0:
305,55,23158,1,0,0:0:0:0:
305,55,23256,2,0,P|304:121|301:150,1,68.0000012969971,0|0,1:0|0:0,0:0:0:0:
114,185,23648,1,8,1:0:0:0:
182,83,23844,1,0,0:0:0:0:
251,199,24040,6,0,P|241:271|235:291,1,68.0000012969971,0|0,1:0|0:0,0:0:0:0:
114,185,24432,2,0,P|107:151|105:117,1,68.0000012969971,8|0,1:0|0:0,0:0:0:0:
303,122,24824,1,0,1:0:0:0:
153,265,25020,2,0,P|83:283|66:284,1,68.0000012969971,0|8,0:0|1:0,0:0:0:0:
25,178,25412,1,0,0:0:0:0:
117,51,25609,5,0,1:0:0:0:
162,169,25805,1,0,0:0:0:0:
162,169,25903,1,0,0:0:0:0:
162,169,26001,1,8,1:0:0:0:
262,235,26197,2,0,P|298:240|338:233,1,68.0000012969971,0|0,0:0|1:0,0:0:0:0:
262,125,26589,1,0,0:0:0:0:
262,125,26785,1,8,1:0:0:0:
428,142,26981,6,0,P|429:108|421:75,1,68.0000012969971,0|0,0:0|1:0,0:0:0:0:
262,125,27373,2,0,P|253:157|255:191,1,68.0000012969971,0|8,0:0|1:0,0:0:0:0:
414,300,27765,1,0,0:0:0:0:
428,142,27961,1,0,1:0:0:0:
255,119,28158,2,0,P|246:151|248:185,1,68.0000012969971,0|8,0:0|1:0,0:0:0:0:
316,37,28550,1,0,0:0:0:0:
112,73,28746,6,0,B|93:140|93:140|105:185|105:185|80:262,1,191.999994140625,2|0,1:0|0:0,0:0:0:0:
256,192,29334,1,8,1:0:0:0:
116,60,29530,6,0,B|93:142|93:142|105:184|105:184|69:298,1,223.999993164063,2|0,1:0|0:0,0:0:0:0:
257,298,30118,6,0,P|320:276|341:129,1,223.999993164063,4|2,1:2|0:0,0:0:0:0:
165,240,30707,2,0,P|202:280|255:296,1,111.999996582031,2|0,1:2|0:0,0:0:0:0:
345,135,31099,2,0,P|307:94|254:78,1,111.999996582031,2|0,1:2|0:0,0:0:0:0:
256,192,31491,1,2,1:2:0:0:
430,312,31687,2,0,P|437:263|437:235,1,55.9999982910157,8|8,1:0|1:0,0:0:0:0:
437,89,31883,6,0,P|434:193|436:202,1,80,4|0,1:2|0:0,0:0:0:0:
430,168,32177,1,0,0:0:0:0:
430,168,32275,1,8,1:0:0:0:
349,234,32471,1,0,0:0:0:0:
349,234,32569,1,0,0:0:0:0:
349,234,32667,1,0,1:0:0:0:
260,293,32863,1,0,0:0:0:0:
260,293,32961,1,0,0:0:0:0:
260,293,33060,1,8,1:0:0:0:
169,344,33256,2,0,P|155:296|155:288,1,40,2|0,0:0|0:0,0:0:0:0:
206,146,33452,6,0,L|199:227,1,80,2|2,1:2|3:2,0:0:0:0:
116,162,33844,1,8,1:0:0:0:
58,93,34040,2,0,L|131:58,1,80,2|0,3:2|1:0,0:0:0:0:
87,248,34432,2,0,L|20:201,1,80,0|8,0:0|1:0,0:0:0:0:
130,59,34824,1,0,0:0:0:0:
199,225,35020,5,0,1:0:0:0:
301,127,35216,2,0,L|300:72,1,40,0|0,0:0|0:0,0:0:0:0:
311,7,35412,1,8,1:0:0:0:
395,181,35609,2,0,L|394:126,1,40,0|0,0:0|0:0,0:0:0:0:
405,61,35805,1,0,1:0:0:0:
489,235,36001,2,0,L|488:180,1,40,0|0,0:0|0:0,0:0:0:0:
499,115,36197,1,8,1:0:0:0:
394,284,36393,1,0,0:0:0:0:
394,284,36491,1,0,0:0:0:0:
394,284,36589,6,0,P|319:287|286:282,2,80,2|2|8,1:2|3:2|1:0,0:0:0:0:
243,238,37177,2,0,P|231:283|236:318,1,80,2|0,3:2|1:0,0:0:0:0:
465,332,37569,2,0,P|477:287|472:252,1,80,0|8,0:0|1:0,0:0:0:0:
314,286,37961,1,0,0:0:0:0:
415,116,38158,6,0,L|418:205,1,80,0|0,1:0|0:0,0:0:0:0:
262,60,38550,2,0,L|259:149,1,80,8|2,1:0|0:0,0:0:0:0:
452,84,38942,2,0,L|455:173,1,80,2|2,1:2|3:2,0:0:0:0:
217,40,39334,2,0,L|214:129,1,80,8|2,1:0|3:2,0:0:0:0:
489,52,39726,6,0,L|492:141,1,80,0|0,1:0|0:0,0:0:0:0:
172,20,40118,2,0,L|169:109,1,80,8|2,1:0|0:0,0:0:0:0:
415,116,40511,1,2,1:2:0:0:
308,235,40707,2,0,P|223:249|201:247,1,80,2|8,3:2|1:0,0:0:0:0:
99,245,41099,1,2,3:2:0:0:
99,245,41197,1,0,0:0:0:0:
99,245,41295,6,0,B|26:224|2:178|2:178,1,120,0|0,1:0|0:0,0:0:0:0:
24,101,41687,2,0,P|30:82|35:62,1,40,8|0,1:0|0:0,0:0:0:0:
169,114,41883,2,0,P|179:147|193:179,1,40
255,290,42079,2,0,P|257:222|261:183,1,80,0|0,1:2|1:0,0:0:0:0:
341,92,42471,1,8,1:0:0:0:
158,261,42667,6,8,P|162:333|178:356,1,80,8|0,3:1|0:3,1:0:0:0:
361,242,43060,1,8,1:0:0:0:
239,86,43256,1,8,1:0:0:0:
255,290,43452,1,2,0:0:0:0:
153,148,43648,6,0,L|222:179,1,40,8|2,1:0|3:1,0:0:0:0:
361,242,43844,2,0,L|265:197,1,80,2|8,3:1|1:0,0:0:0:0:
153,148,44236,1,0,0:1:0:0:
341,92,44432,6,0,P|405:81|447:87,1,80,4|2,1:2|0:0,0:0:0:0:
361,242,44824,2,0,P|321:241|282:231,1,80,2|2,1:0|0:0,0:0:0:0:
472,196,45216,2,0,L|456:297,1,80,0|2,1:0|0:0,0:0:0:0:
230,138,45609,2,0,L|246:37,1,80,2|2,1:0|0:0,0:0:0:0:
159,265,46001,5,0,1:0:0:0:
18,233,46197,1,0,0:0:0:0:
115,127,46393,1,2,1:0:0:0:
18,233,46589,2,0,P|14:193|18:154,1,80,0|2,0:0|1:2,0:0:0:0:
246,85,46981,5,8,3:2:0:0:
246,85,47177,1,8,3:2:0:0:
318,209,47373,6,0,P|250:256|222:267,1,80,0|0,0:0|1:0,0:0:0:0:
124,319,47765,1,0,0:0:0:0:
124,319,47863,1,0,0:0:0:0:
124,319,47961,2,0,P|115:249|113:220,1,80,2|0,1:0|0:0,0:0:0:0:
246,85,48354,2,0,P|242:124|236:164,1,80,0|0,1:0|0:0,0:0:0:0:
112,125,48746,1,2,1:0:0:0:
318,209,48942,1,0,0:0:0:0:
124,319,49138,6,0,P|63:320|33:316,1,80,0|0,1:0|0:0,0:0:0:0:
236,164,49530,1,2,1:0:0:0:
365,303,49726,1,0,0:0:0:0:
365,303,49824,1,0,0:0:0:0:
365,303,49922,1,0,1:0:0:0:
481,172,50118,5,8,3:2:0:0:
481,172,50314,1,8,3:2:0:0:
236,164,50510,6,0,P|172:173|134:167,1,80,2|4,0:0|1:2,0:0:0:0:
54,122,50903,1,0,0:0:0:0:
184,18,51099,2,0,P|248:9|286:15,1,80,2|2,1:0|0:2,0:0:0:0:
391,8,51491,1,0,1:0:0:0:
340,134,51687,1,2,0:0:0:0:
184,18,51883,1,2,1:0:0:0:
436,107,52079,6,0,P|425:188|343:235,1,160,2|0,0:0|0:0,0:0:0:0:
365,38,52667,1,2,1:0:0:0:
508,202,52863,2,0,P|509:273|504:313,1,80,2|0,0:0|1:0,0:0:0:0:
340,134,53256,5,8,3:2:0:0:
340,134,53452,1,8,3:2:0:0:
242,238,53648,6,0,P|179:246|171:251,1,40
187,83,53844,2,0,P|211:153|194:260,1,160,2|2,1:2|1:0,0:0:0:0:
340,134,54432,2,0,P|403:126|411:121,1,40
396,290,54628,2,0,P|372:220|389:113,1,160,2|2,1:2|1:0,0:0:0:0:
243,234,55216,2,0,L|195:238,1,40
54,273,55412,2,0,B|91:244|91:244|214:237,1,160,2|2,1:2|1:0,0:0:0:0:
78,61,56001,2,0,L|123:58,1,40
258,53,56197,1,2,1:2:0:0:
221,314,56393,5,8,3:2:0:0:
221,314,56589,1,8,3:2:0:0:
319,152,56785,5,0,0:0:0:0:
376,329,56981,5,2,1:2:0:0:
106,199,57275,1,2,1:2:0:0:
354,30,57569,1,2,1:2:0:0:
179,33,57765,5,2,1:2:0:0:
449,163,58059,1,2,1:2:0:0:
201,332,58353,1,2,1:2:0:0:
376,329,58550,6,0,P|359:276|337:231,1,100,2|0,1:2|3:0,0:0:0:0:
281,181,59138,5,8,3:2:0:0:
281,181,59236,1,8,3:2:0:0:
208,75,59432,1,8,3:2:0:0:
208,75,59530,1,8,3:2:0:0:
66,206,59726,1,8,3:2:0:0:
79,91,59922,6,0,P|73:139|73:149,1,40,8|8,1:0|1:0,0:0:0:0:
60,338,60118,6,0,P|64:256|68:184,1,132.00000402832,4|0,0:0|3:0,0:0:0:0:
143,162,60510,2,0,P|150:231|159:259,1,88.000002685547,2|0,1:1|0:0,0:0:0:0:
272,182,60903,2,0,P|282:139|284:95,1,88.000002685547,0|0,1:0|0:0,0:0:0:0:
79,91,61295,1,2,1:0:0:0:
19,206,61491,1,0,0:0:0:0:
19,206,61589,1,0,0:0:0:0:
19,206,61687,6,0,P|15:270|12:309,1,88.000002685547,0|0,1:0|0:0,0:0:0:0:
143,162,62079,1,2,1:0:0:0:
15,20,62275,1,2,0:0:0:0:
103,246,62471,1,2,1:2:0:0:
183,78,62667,1,2,0:0:0:0:
19,206,62863,1,2,1:0:0:0:
187,286,63060,6,0,P|266:288|344:201,1,176.000005371094,2|0,0:2|0:0,0:0:0:0:
337,78,63648,1,2,1:0:0:0:
460,177,63844,1,0,0:0:0:0:
460,177,63942,1,0,0:0:0:0:
460,177,64040,2,0,B|482:238|459:301|459:301|423:285|417:248,1,176.000005371094,0|2,1:0|1:0,0:0:0:0:
369,152,64628,1,2,0:0:0:0:
466,89,64824,6,0,L|459:183,1,88.000002685547,0|2,1:0|0:0,0:0:0:0:
252,61,65216,2,0,L|259:155,1,88.000002685547,2|2,1:0|0:2,0:0:0:0:
491,63,65609,2,0,L|484:157,1,88.000002685547,2|0,1:2|1:0,0:0:0:0:
481,194,65903,1,0,1:0:0:0:
477,237,66001,1,10,1:0:0:0:
214,148,66197,2,0,L|280:148,1,44.0000013427735,8|8,1:0|1:0,0:0:0:0:
484,150,66393,6,0,L|331:150,1,132.00000402832,4|0,1:2|3:0,0:0:0:0:
268,60,66785,2,0,P|260:134|254:168,1,88.000002685547,4|0,1:2|0:0,0:0:0:0:
126,264,67177,2,0,P|119:220|115:176,1,88.000002685547,0|0,1:2|0:0,0:0:0:0:
232,255,67569,1,2,1:0:0:0:
3,104,67765,6,0,B|7:164|-7:195|-7:195|20:237|12:299,1,176.000005371094,0|0,0:0|0:0,0:0:0:0:
232,255,68354,1,2,1:0:0:0:
140,126,68550,1,2,0:0:0:0:
140,126,68648,1,0,0:0:0:0:
140,126,68746,1,2,1:2:0:0:
283,147,68942,1,0,0:0:0:0:
13,274,69138,1,2,1:0:0:0:
137,82,69334,2,0,L|141:153,1,44.0000013427735,0|0,0:0|3:0,0:0:0:0:
139,289,69530,6,0,P|149:240|146:193,1,88.000002685547,0|0,1:0|0:0,0:0:0:0:
274,60,69922,2,0,P|273:103|282:146,1,88.000002685547,2|0,1:0|0:0,0:0:0:0:
381,186,70314,1,0,1:0:0:0:
147,203,70511,1,2,0:0:0:0:
378,98,70707,1,2,1:0:0:0:
233,307,70903,1,2,0:0:0:0:
255,89,71099,6,0,L|252:183,1,88.000002685547,0|2,1:0|0:0,0:0:0:0:
381,186,71393,1,2,0:0:0:0:
381,186,71491,2,0,L|378:92,1,88.000002685547,2|2,1:0|0:0,0:0:0:0:
322,24,71785,1,0,0:0:0:0:
322,24,71883,1,2,1:2:0:0:
252,176,72079,1,2,0:0:0:0:
451,45,72275,1,2,1:0:0:0:
225,292,72471,6,0,B|184:207|227:137|227:137|255:167|265:219,1,207.999990478516,4|2,0:0|0:0,0:0:0:0:
294,339,73060,2,0,P|231:376|171:358,1,103.999995239258,2|2,1:0|0:0,0:0:0:0:
159,97,73452,2,0,P|222:60|282:78,1,103.999995239258,2|0,1:2|0:0,0:0:0:0:
103,230,73844,2,0,L|95:187,1,44.0000013427735,0|0,1:0|1:0,0:0:0:0:
266,143,74040,2,0,L|275:187,1,44.0000013427735,8|8,1:0|1:0,0:0:0:0:
159,97,74236,6,0,B|146:94|126:78|126:78|178:50|254:55,1,167.999994873047,4|0,1:2|3:0,0:0:0:0:
371,154,74628,2,0,B|395:78|339:38|339:38|347:74|327:102,1,167.999994873047,4|0,1:2|3:0,0:0:0:0:
199,190,75020,2,0,P|275:166|295:138,1,111.999996582031,4|0,1:2|3:0,0:0:0:0:
223,6,75314,2,0,P|205:83|220:115,1,111.999996582031,8|0,1:0|3:0,0:0:0:0:
414,51,75609,6,0,P|359:9|338:74,1,160,4|0,1:2|1:0,0:0:0:0:
396,208,76197,1,2,1:1:0:0:
414,51,76393,1,2,0:0:0:0:
490,178,76589,2,0,L|493:257,1,80,0|2,1:0|0:0,0:0:0:0:
412,324,76981,1,2,1:0:0:0:
313,357,77177,1,8,1:0:0:0:
313,357,77275,1,8,1:0:0:0:
313,357,77373,6,0,B|281:358|249:371|249:371|268:315|241:256,1,167.999994873047,4|0,1:2|3:0,0:0:0:0:
90,318,77765,2,0,P|152:364|162:287,1,167.999994873047,4|0,1:2|3:0,0:0:0:0:
74,234,78158,2,0,B|36:242|16:276|16:276|0:211|32:158,1,167.999994873047,4|0,1:2|1:0,0:0:0:0:
184,192,78550,2,0,P|189:247|173:301,1,111.999996582031,4|0,1:2|0:0,0:0:0:0:
69,83,78942,5,2,1:2:0:0:
379,44,79334,5,2,1:2:0:0:
456,135,79530,2,0,P|443:192|440:200,1,40,0|0,1:0|1:0,0:0:0:0:
424,254,79726,1,2,1:2:0:0:
91,299,80118,5,2,1:2:0:0:
143,191,80314,1,2,1:2:0:0:
459,224,80707,5,2,1:2:0:0:
346,264,80903,2,0,P|315:205|355:257,1,160,2|2,1:2|1:2,0:0:0:0:
128,266,81687,5,2,0:0:0:0:
115,305,81785,1,2,0:0:0:0:
75,305,81883,1,8,0:0:0:0:
63,266,81981,1,8,0:0:0:0:
95,243,82079,6,0,P|155:218|189:221,1,80,4|2,1:2|0:0,0:0:0:0:
202,333,82471,1,2,1:0:0:0:
68,148,82667,2,0,P|66:88|100:40,1,120,2|0,0:0|3:0,0:0:0:0:
176,15,83060,1,2,0:0:0:0:
310,79,83256,1,2,1:0:0:0:
68,148,83452,1,2,0:0:0:0:
310,79,83648,6,0,L|322:179,1,80,2|0,1:2|0:0,0:0:0:0:
102,119,84040,2,0,L|90:219,1,80,2|0,1:0|0:0,0:0:0:0:
348,94,84432,2,0,L|360:194,1,80,2|2,1:2|0:0,0:0:0:0:
93,198,84824,1,2,1:0:0:0:
375,256,85020,6,0,B|414:197|393:147|393:147|368:157|357:177,1,160,2|0,0:0|0:0,0:0:0:0:
211,313,85609,2,0,P|268:337|302:343,1,80,2|0,1:0|0:0,0:0:0:0:
168,170,86001,2,0,P|130:180|94:197,1,80,2|2,1:2|0:0,0:0:0:0:
90,316,86393,1,10,1:0:0:0:
358,174,86589,1,4,1:2:0:0:
