osu file format v14

[General]
AudioFilename: audio.mp3
AudioLeadIn: 0
PreviewTime: 58741
Countdown: 1
SampleSet: Normal
StackLeniency: 0.7
Mode: 1
LetterboxInBreaks: 0
WidescreenStoryboard: 1

[Editor]
DistanceSpacing: 0.8
BeatDivisor: 4
GridSize: 4
TimelineZoom: 2.999998

[Metadata]
Title:Alola!!
TitleUnicode:アローラ!!
Artist:Satoshi with Pikachu (CV: Matsumoto Rica/Otani Ikue)
ArtistUnicode:サトシwithピカチュウ (松本梨香/大谷育江)
Creator:XYousoro
Version:Muzukashii
Source:ポケットモンスター サン&ムーン
Tags:pocket monsters pokemon sun and moon anime opening nintendo
BeatmapID:1272723
BeatmapSetID:602558

[Difficulty]
HPDrainRate:3
CircleSize:2
OverallDifficulty:4
ApproachRate:5
SliderMultiplier:1.3999999666214
SliderTickRate:1

[Events]
//Background and Video events
0,0,"wallpaper1024 (19).jpg",0,0
//Break Periods
//Storyboard Layer 0 (Background)
//Storyboard Layer 1 (Fail)
//Storyboard Layer 2 (Pass)
//Storyboard Layer 3 (Foreground)
//Storyboard Sound Samples

[TimingPoints]
310,392.156862745098,4,1,0,100,1,0
59917,-100,4,1,0,100,0,1
81878,-100,4,1,0,100,0,0
128937,-100,4,1,0,100,0,1
150898,-100,4,1,0,100,0,0
213643,-100,4,1,0,100,0,1
254427,-100,4,1,0,100,0,0

[HitObjects]
256,192,310,5,0,0:0:0:0:
256,192,702,1,8,0:0:0:0:
256,192,1094,1,0,0:0:0:0:
256,192,1290,1,0,0:0:0:0:
256,192,1486,1,8,0:0:0:0:
256,192,1878,1,0,0:0:0:0:
256,192,2270,1,8,0:0:0:0:
256,192,2662,1,0,0:0:0:0:
256,192,2859,1,0,0:0:0:0:
256,192,3054,1,8,0:0:0:0:
256,192,3447,1,0,0:0:0:0:
256,192,3839,1,8,0:0:0:0:
256,192,4231,1,0,0:0:0:0:
256,192,4427,1,0,0:0:0:0:
256,192,4623,1,8,0:0:0:0:
256,192,5016,1,0,0:0:0:0:
256,192,5408,1,8,0:0:0:0:
256,192,5669,1,8,0:0:0:0:
256,192,5930,1,8,0:0:0:0:
256,192,6192,1,8,0:0:0:0:
256,192,6584,1,0,0:0:0:0:
256,192,6780,1,0,0:0:0:0:
256,192,6976,1,8,0:0:0:0:
256,192,7172,1,0,0:0:0:0:
256,192,7564,1,0,0:0:0:0:
256,192,7760,1,8,0:0:0:0:
256,192,7957,1,0,0:0:0:0:
256,192,8153,1,0,0:0:0:0:
256,192,8545,1,8,0:0:0:0:
256,192,8937,1,0,0:0:0:0:
256,192,9329,1,8,0:0:0:0:
256,192,9525,1,0,0:0:0:0:
256,192,9917,1,0,0:0:0:0:
256,192,10113,1,8,0:0:0:0:
256,192,10506,1,0,0:0:0:0:
256,192,10898,1,8,0:0:0:0:
256,192,11094,1,0,0:0:0:0:
256,192,11290,1,0,0:0:0:0:
256,192,11682,1,8,0:0:0:0:
256,192,11878,1,0,0:0:0:0:
256,192,12270,1,8,0:0:0:0:
256,192,12466,1,8,0:0:0:0:
256,192,12859,1,0,0:0:0:0:
256,192,13055,1,0,0:0:0:0:
256,192,13251,1,8,0:0:0:0:
256,192,13447,1,0,0:0:0:0:
256,192,13839,1,0,0:0:0:0:
256,192,14035,1,8,0:0:0:0:
256,192,14427,1,0,0:0:0:0:
256,192,14819,1,8,0:0:0:0:
256,192,15211,1,0,0:0:0:0:
256,192,15408,1,0,0:0:0:0:
256,192,15604,1,8,0:0:0:0:
256,192,15996,1,12,0:0:0:0:
256,192,16290,1,4,0:0:0:0:
256,192,16584,1,4,0:0:0:0:
256,192,16780,1,12,0:0:0:0:
256,192,17074,1,4,0:0:0:0:
256,192,17368,1,4,0:0:0:0:
256,192,17564,1,12,0:0:0:0:
256,192,17859,1,12,0:0:0:0:
256,192,18153,1,12,0:0:0:0:
256,192,18545,1,8,0:0:0:0:
256,192,18741,1,8,0:0:0:0:
256,192,18937,1,8,0:0:0:0:
256,192,19329,1,0,0:0:0:0:
256,192,19525,1,8,0:0:0:0:
256,192,19721,1,0,0:0:0:0:
256,192,19917,1,8,0:0:0:0:
256,192,20310,1,8,0:0:0:0:
256,192,20506,1,0,0:0:0:0:
256,192,20702,1,8,0:0:0:0:
256,192,21094,1,8,0:0:0:0:
256,192,21290,1,8,0:0:0:0:
256,192,21682,1,0,0:0:0:0:
256,192,21878,1,8,0:0:0:0:
256,192,22074,1,8,0:0:0:0:
256,192,22466,1,0,0:0:0:0:
256,192,22662,1,8,0:0:0:0:
256,192,23054,1,8,0:0:0:0:
256,192,23251,1,8,0:0:0:0:
256,192,23447,1,0,0:0:0:0:
256,192,23839,1,8,0:0:0:0:
256,192,24231,1,8,0:0:0:0:
256,192,24427,1,8,0:0:0:0:
256,192,24819,1,0,0:0:0:0:
256,192,25015,1,0,0:0:0:0:
256,192,25211,1,8,0:0:0:0:
256,192,25604,1,0,0:0:0:0:
256,192,25800,1,0,0:0:0:0:
256,192,25996,1,8,0:0:0:0:
256,192,26388,1,8,0:0:0:0:
256,192,26584,1,0,0:0:0:0:
256,192,26780,1,8,0:0:0:0:
256,192,27172,1,8,0:0:0:0:
256,192,27368,1,0,0:0:0:0:
256,192,27564,1,8,0:0:0:0:
256,192,27957,1,8,0:0:0:0:
256,192,28349,1,0,0:0:0:0:
256,192,28545,1,12,0:0:0:0:
256,192,29133,1,0,0:0:0:0:
256,192,29329,1,12,0:0:0:0:
256,192,29917,1,12,0:0:0:0:
256,192,30309,1,12,0:0:0:0:
256,192,30506,1,12,0:0:0:0:
256,192,30702,1,12,0:0:0:0:
256,192,30898,1,12,0:0:0:0:
256,192,31290,1,8,0:0:0:0:
256,192,31486,1,8,0:0:0:0:
256,192,31682,1,0,0:0:0:0:
256,192,32074,1,8,0:0:0:0:
256,192,32466,1,8,0:0:0:0:
256,192,32662,1,8,0:0:0:0:
256,192,32760,1,8,0:0:0:0:
256,192,32859,1,8,0:0:0:0:
256,192,33055,1,8,0:0:0:0:
256,192,33251,1,0,0:0:0:0:
256,192,33643,1,8,0:0:0:0:
256,192,33839,1,0,0:0:0:0:
256,192,34231,1,8,0:0:0:0:
256,192,34427,1,8,0:0:0:0:
256,192,34623,1,0,0:0:0:0:
256,192,35015,1,8,0:0:0:0:
256,192,35211,1,0,0:0:0:0:
256,192,35603,1,8,0:0:0:0:
256,192,35799,1,8,0:0:0:0:
256,192,35897,1,8,0:0:0:0:
256,192,35996,1,8,0:0:0:0:
256,192,36192,1,8,0:0:0:0:
256,192,36388,1,0,0:0:0:0:
256,192,36780,1,8,0:0:0:0:
256,192,36976,1,8,0:0:0:0:
256,192,37368,1,8,0:0:0:0:
256,192,37564,1,0,0:0:0:0:
256,192,37760,1,8,0:0:0:0:
256,192,38153,1,8,0:0:0:0:
256,192,38349,1,8,0:0:0:0:
256,192,38545,1,0,0:0:0:0:
256,192,38741,1,8,0:0:0:0:
256,192,39133,1,8,0:0:0:0:
256,192,39329,1,0,0:0:0:0:
256,192,39525,1,8,0:0:0:0:
256,192,39917,1,8,0:0:0:0:
256,192,40113,1,0,0:0:0:0:
256,192,40310,1,8,0:0:0:0:
256,192,40506,1,8,0:0:0:0:
264,192,40898,1,8,0:0:0:0:
264,192,41290,1,8,0:0:0:0:
264,192,41486,1,0,0:0:0:0:
264,192,41878,1,8,0:0:0:0:
264,192,41976,1,8,0:0:0:0:
264,192,42074,1,8,0:0:0:0:
264,192,42270,1,8,0:0:0:0:
264,192,42466,1,12,0:0:0:0:
264,192,42859,1,12,0:0:0:0:
264,192,43055,1,12,0:0:0:0:
264,192,43251,1,12,0:0:0:0:
264,192,43447,1,12,0:0:0:0:
264,192,43839,1,8,0:0:0:0:
264,192,44035,1,0,0:0:0:0:
264,192,44427,1,0,0:0:0:0:
264,192,44623,1,8,0:0:0:0:
264,192,44819,1,0,0:0:0:0:
264,192,45015,1,0,0:0:0:0:
264,192,45211,1,0,0:0:0:0:
264,192,45408,1,8,0:0:0:0:
264,192,45604,1,0,0:0:0:0:
264,192,45800,1,0,0:0:0:0:
264,192,46192,1,8,0:0:0:0:
264,192,46388,1,0,0:0:0:0:
264,192,46780,1,0,0:0:0:0:
264,192,46976,1,8,0:0:0:0:
264,192,47172,1,0,0:0:0:0:
264,192,47564,1,0,0:0:0:0:
264,192,47760,1,8,0:0:0:0:
264,192,47956,1,0,0:0:0:0:
264,192,48152,1,0,0:0:0:0:
264,192,48349,1,0,0:0:0:0:
264,192,48545,1,8,0:0:0:0:
264,192,48741,1,0,0:0:0:0:
264,192,48937,1,0,0:0:0:0:
264,192,49329,1,8,0:0:0:0:
264,192,49525,1,0,0:0:0:0:
264,192,49917,1,8,0:0:0:0:
264,192,50113,1,8,0:0:0:0:
264,192,50309,1,0,0:0:0:0:
264,192,50702,1,0,0:0:0:0:
264,192,50898,1,8,0:0:0:0:
264,192,51094,1,0,0:0:0:0:
264,192,51192,1,0,0:0:0:0:
264,192,51290,1,0,0:0:0:0:
264,192,51486,1,0,0:0:0:0:
264,192,51878,1,0,0:0:0:0:
264,192,52270,1,0,0:0:0:0:
264,192,52466,1,8,0:0:0:0:
264,192,52662,1,0,0:0:0:0:
264,192,52760,1,0,0:0:0:0:
264,192,52859,1,0,0:0:0:0:
264,192,53251,1,8,0:0:0:0:
264,192,53447,1,0,0:0:0:0:
264,192,53839,1,0,0:0:0:0:
264,192,54035,1,8,0:0:0:0:
264,192,54231,1,0,0:0:0:0:
264,192,54329,1,0,0:0:0:0:
264,192,54427,1,0,0:0:0:0:
264,192,54623,1,0,0:0:0:0:
256,192,55015,1,0,0:0:0:0:
264,192,55407,1,0,0:0:0:0:
264,192,55603,1,8,0:0:0:0:
264,192,55799,1,0,0:0:0:0:
264,192,55897,1,0,0:0:0:0:
264,192,55996,1,0,0:0:0:0:
264,192,56388,1,0,0:0:0:0:
264,192,56584,1,0,0:0:0:0:
264,192,56780,1,12,0:0:0:0:
264,192,57074,1,12,0:0:0:0:
264,192,57368,1,12,0:0:0:0:
264,192,57564,1,12,0:0:0:0:
264,192,57859,1,12,0:0:0:0:
264,192,58153,1,12,0:0:0:0:
264,192,58349,1,12,0:0:0:0:
264,192,58741,1,0,0:0:0:0:
264,192,59002,1,8,0:0:0:0:
264,192,59264,1,8,0:0:0:0:
264,192,59525,1,8,0:0:0:0:
264,192,59917,1,0,0:0:0:0:
264,192,60309,1,8,0:0:0:0:
264,192,60702,1,0,0:0:0:0:
264,192,61094,1,8,0:0:0:0:
264,192,61290,1,0,0:0:0:0:
264,192,61682,1,0,0:0:0:0:
264,192,61878,1,8,0:0:0:0:
264,192,62074,1,0,0:0:0:0:
264,192,62270,1,0,0:0:0:0:
264,192,62368,1,0,0:0:0:0:
264,192,62466,1,0,0:0:0:0:
264,192,62662,1,8,0:0:0:0:
264,192,62859,1,0,0:0:0:0:
264,192,63251,1,0,0:0:0:0:
264,192,63447,1,8,0:0:0:0:
264,192,63643,1,0,0:0:0:0:
264,192,63741,1,0,0:0:0:0:
264,192,63839,1,0,0:0:0:0:
264,192,64231,1,8,0:0:0:0:
264,192,64427,1,0,0:0:0:0:
264,192,64819,1,0,0:0:0:0:
264,192,65015,1,8,0:0:0:0:
264,192,65211,1,0,0:0:0:0:
264,192,65408,1,0,0:0:0:0:
264,192,65800,1,12,0:0:0:0:
264,192,66192,1,0,0:0:0:0:
264,192,66584,1,8,0:0:0:0:
264,192,66977,1,0,0:0:0:0:
264,192,67369,1,8,0:0:0:0:
264,192,67565,1,0,0:0:0:0:
264,192,67957,1,0,0:0:0:0:
264,192,68153,1,8,0:0:0:0:
264,192,68349,1,0,0:0:0:0:
264,192,68545,1,0,0:0:0:0:
264,192,68643,1,0,0:0:0:0:
264,192,68741,1,0,0:0:0:0:
264,192,68937,1,8,0:0:0:0:
264,192,69134,1,0,0:0:0:0:
264,192,69526,1,0,0:0:0:0:
264,192,69722,1,8,0:0:0:0:
264,192,69918,1,0,0:0:0:0:
264,192,70016,1,0,0:0:0:0:
264,192,70114,1,0,0:0:0:0:
264,192,70309,1,0,0:0:0:0:
264,192,70506,1,8,0:0:0:0:
264,192,70702,1,0,0:0:0:0:
264,192,71094,1,0,0:0:0:0:
264,192,71290,1,8,0:0:0:0:
264,192,71682,1,0,0:0:0:0:
264,192,71780,1,0,0:0:0:0:
264,192,71878,1,0,0:0:0:0:
264,192,72074,1,8,0:0:0:0:
264,192,72270,1,12,0:0:0:0:
264,192,72662,1,12,0:0:0:0:
264,192,72859,1,12,0:0:0:0:
264,192,73055,1,12,0:0:0:0:
264,192,73251,1,12,0:0:0:0:
264,192,73643,1,8,0:0:0:0:
264,192,74035,1,0,0:0:0:0:
264,192,74427,1,8,0:0:0:0:
264,192,74819,1,0,0:0:0:0:
264,192,75113,1,0,0:0:0:0:
264,192,75408,1,8,0:0:0:0:
264,192,75800,1,0,0:0:0:0:
264,192,75996,1,8,0:0:0:0:
264,192,76192,1,0,0:0:0:0:
264,192,76584,1,0,0:0:0:0:
264,192,76780,1,8,0:0:0:0:
264,192,77172,1,0,0:0:0:0:
264,192,77564,1,8,0:0:0:0:
264,192,77957,1,8,0:0:0:0:
264,192,78349,1,8,0:0:0:0:
264,192,78741,1,12,0:0:0:0:
264,192,79133,1,12,0:0:0:0:
264,192,79329,1,4,0:0:0:0:
264,192,79525,1,12,0:0:0:0:
264,192,79917,1,12,0:0:0:0:
264,192,80113,1,12,0:0:0:0:
264,192,80506,1,12,0:0:0:0:
264,192,80702,1,12,0:0:0:0:
264,192,81094,1,12,0:0:0:0:
256,192,81486,1,0,0:0:0:0:
256,192,81682,1,0,0:0:0:0:
256,192,81878,1,0,0:0:0:0:
256,192,82074,1,0,0:0:0:0:
256,192,82270,1,8,0:0:0:0:
256,192,82466,1,0,0:0:0:0:
256,192,82858,1,0,0:0:0:0:
256,192,83054,1,8,0:0:0:0:
256,192,83251,1,0,0:0:0:0:
256,192,83447,1,0,0:0:0:0:
256,192,83839,1,8,0:0:0:0:
256,192,84231,1,0,0:0:0:0:
256,192,84623,1,8,0:0:0:0:
256,192,84819,1,0,0:0:0:0:
256,192,85211,1,0,0:0:0:0:
256,192,85407,1,8,0:0:0:0:
256,192,85800,1,0,0:0:0:0:
256,192,85996,1,0,0:0:0:0:
256,192,86192,1,8,0:0:0:0:
256,192,86388,1,0,0:0:0:0:
256,192,86584,1,12,0:0:0:0:
256,192,86879,1,12,0:0:0:0:
256,192,87173,1,12,0:0:0:0:
256,192,87564,1,8,0:0:0:0:
256,192,87760,1,8,0:0:0:0:
256,192,87956,1,8,0:0:0:0:
256,192,88348,1,0,0:0:0:0:
256,192,88544,1,8,0:0:0:0:
256,192,88740,1,0,0:0:0:0:
256,192,88936,1,8,0:0:0:0:
256,192,89329,1,8,0:0:0:0:
256,192,89525,1,0,0:0:0:0:
256,192,89721,1,8,0:0:0:0:
256,192,90113,1,8,0:0:0:0:
256,192,90309,1,8,0:0:0:0:
256,192,90701,1,0,0:0:0:0:
256,192,90897,1,8,0:0:0:0:
256,192,91093,1,8,0:0:0:0:
256,192,91485,1,0,0:0:0:0:
256,192,91681,1,8,0:0:0:0:
256,192,92073,1,8,0:0:0:0:
256,192,92270,1,0,0:0:0:0:
256,192,92466,1,8,0:0:0:0:
256,192,92662,1,8,0:0:0:0:
256,192,92760,1,8,0:0:0:0:
256,192,92858,1,8,0:0:0:0:
256,192,93250,1,8,0:0:0:0:
256,192,93446,1,8,0:0:0:0:
256,192,93838,1,0,0:0:0:0:
256,192,94034,1,0,0:0:0:0:
256,192,94230,1,8,0:0:0:0:
256,192,94623,1,0,0:0:0:0:
256,192,94819,1,0,0:0:0:0:
256,192,95015,1,8,0:0:0:0:
256,192,95407,1,8,0:0:0:0:
256,192,95603,1,0,0:0:0:0:
256,192,95799,1,8,0:0:0:0:
256,192,96191,1,8,0:0:0:0:
256,192,96387,1,0,0:0:0:0:
256,192,96583,1,8,0:0:0:0:
256,192,96976,1,8,0:0:0:0:
256,192,97368,1,0,0:0:0:0:
256,192,97564,1,12,0:0:0:0:
256,192,98152,1,0,0:0:0:0:
256,192,98348,1,12,0:0:0:0:
256,192,98936,1,12,0:0:0:0:
256,192,99328,1,12,0:0:0:0:
256,192,99525,1,12,0:0:0:0:
256,192,99721,1,12,0:0:0:0:
256,192,99917,1,12,0:0:0:0:
256,192,100309,1,8,0:0:0:0:
256,192,100505,1,8,0:0:0:0:
256,192,100702,1,0,0:0:0:0:
256,192,100996,1,8,0:0:0:0:
256,192,101290,1,8,0:0:0:0:
256,192,101682,1,8,0:0:0:0:
256,192,101780,1,8,0:0:0:0:
256,192,101878,1,8,0:0:0:0:
256,192,102074,1,8,0:0:0:0:
256,192,102270,1,0,0:0:0:0:
256,192,102564,1,8,0:0:0:0:
256,192,102859,1,8,0:0:0:0:
256,192,103251,1,0,0:0:0:0:
256,192,103447,1,0,0:0:0:0:
256,192,103643,1,8,0:0:0:0:
256,192,103839,1,0,0:0:0:0:
256,192,104133,1,8,0:0:0:0:
256,192,104427,1,8,0:0:0:0:
256,192,104819,1,8,0:0:0:0:
256,192,104917,1,8,0:0:0:0:
256,192,105015,1,8,0:0:0:0:
256,192,105211,1,8,0:0:0:0:
256,192,105407,1,0,0:0:0:0:
256,192,105701,1,8,0:0:0:0:
256,192,105996,1,8,0:0:0:0:
256,192,106388,1,8,0:0:0:0:
256,192,106584,1,0,0:0:0:0:
256,192,106780,1,8,0:0:0:0:
256,192,106976,1,0,0:0:0:0:
256,192,107270,1,8,0:0:0:0:
256,192,107565,1,8,0:0:0:0:
256,192,107957,1,0,0:0:0:0:
256,192,108153,1,8,0:0:0:0:
256,192,108545,1,8,0:0:0:0:
256,192,108839,1,8,0:0:0:0:
256,192,109133,1,8,0:0:0:0:
256,192,109330,1,0,0:0:0:0:
256,192,109526,1,8,0:0:0:0:
264,192,109721,1,8,0:0:0:0:
264,192,110113,1,0,0:0:0:0:
264,192,110408,1,8,0:0:0:0:
264,192,110702,1,8,0:0:0:0:
264,192,110898,1,0,0:0:0:0:
264,192,111094,1,0,0:0:0:0:
264,192,111290,1,8,0:0:0:0:
264,192,111486,1,12,0:0:0:0:
264,192,111879,1,12,0:0:0:0:
264,192,112075,1,12,0:0:0:0:
264,192,112271,1,12,0:0:0:0:
264,192,112467,1,12,0:0:0:0:
264,192,112859,1,8,0:0:0:0:
264,192,113055,1,0,0:0:0:0:
264,192,113447,1,0,0:0:0:0:
264,192,113643,1,8,0:0:0:0:
264,192,113839,1,0,0:0:0:0:
264,192,114035,1,0,0:0:0:0:
264,192,114231,1,0,0:0:0:0:
264,192,114428,1,8,0:0:0:0:
264,192,114624,1,0,0:0:0:0:
264,192,114820,1,0,0:0:0:0:
264,192,115212,1,8,0:0:0:0:
264,192,115408,1,0,0:0:0:0:
264,192,115800,1,0,0:0:0:0:
264,192,115996,1,8,0:0:0:0:
264,192,116192,1,0,0:0:0:0:
264,192,116584,1,0,0:0:0:0:
264,192,116780,1,8,0:0:0:0:
264,192,116976,1,0,0:0:0:0:
264,192,117172,1,0,0:0:0:0:
264,192,117369,1,0,0:0:0:0:
264,192,117565,1,8,0:0:0:0:
264,192,117761,1,0,0:0:0:0:
264,192,117957,1,0,0:0:0:0:
264,192,118349,1,8,0:0:0:0:
264,192,118545,1,0,0:0:0:0:
264,192,118937,1,8,0:0:0:0:
264,192,119133,1,8,0:0:0:0:
264,192,119329,1,0,0:0:0:0:
264,192,119722,1,0,0:0:0:0:
264,192,119918,1,8,0:0:0:0:
264,192,120114,1,0,0:0:0:0:
264,192,120212,1,0,0:0:0:0:
264,192,120310,1,0,0:0:0:0:
264,192,120506,1,0,0:0:0:0:
264,192,120898,1,0,0:0:0:0:
264,192,121290,1,0,0:0:0:0:
264,192,121486,1,8,0:0:0:0:
264,192,121682,1,0,0:0:0:0:
264,192,121780,1,0,0:0:0:0:
264,192,121879,1,0,0:0:0:0:
264,192,122271,1,8,0:0:0:0:
264,192,122467,1,0,0:0:0:0:
264,192,122859,1,0,0:0:0:0:
264,192,123055,1,8,0:0:0:0:
264,192,123251,1,0,0:0:0:0:
264,192,123349,1,0,0:0:0:0:
264,192,123447,1,0,0:0:0:0:
264,192,123643,1,0,0:0:0:0:
256,192,124035,1,0,0:0:0:0:
264,192,124427,1,0,0:0:0:0:
264,192,124623,1,8,0:0:0:0:
264,192,124819,1,0,0:0:0:0:
264,192,124917,1,0,0:0:0:0:
264,192,125016,1,0,0:0:0:0:
264,192,125408,1,0,0:0:0:0:
264,192,125604,1,0,0:0:0:0:
264,192,125800,1,12,0:0:0:0:
264,192,126094,1,12,0:0:0:0:
264,192,126388,1,12,0:0:0:0:
264,192,126584,1,12,0:0:0:0:
264,192,126879,1,12,0:0:0:0:
264,192,127173,1,12,0:0:0:0:
264,192,127369,1,12,0:0:0:0:
264,192,127761,1,0,0:0:0:0:
264,192,128022,1,8,0:0:0:0:
264,192,128284,1,8,0:0:0:0:
264,192,128545,1,8,0:0:0:0:
264,192,128937,1,0,0:0:0:0:
264,192,129329,1,8,0:0:0:0:
264,192,129722,1,0,0:0:0:0:
264,192,130114,1,8,0:0:0:0:
264,192,130310,1,0,0:0:0:0:
264,192,130702,1,0,0:0:0:0:
264,192,130898,1,8,0:0:0:0:
264,192,131094,1,0,0:0:0:0:
264,192,131290,1,0,0:0:0:0:
264,192,131388,1,0,0:0:0:0:
264,192,131486,1,0,0:0:0:0:
264,192,131682,1,8,0:0:0:0:
264,192,131879,1,0,0:0:0:0:
264,192,132271,1,0,0:0:0:0:
264,192,132467,1,8,0:0:0:0:
264,192,132663,1,0,0:0:0:0:
264,192,132761,1,0,0:0:0:0:
264,192,132859,1,0,0:0:0:0:
264,192,133251,1,8,0:0:0:0:
264,192,133447,1,0,0:0:0:0:
264,192,133839,1,0,0:0:0:0:
264,192,134035,1,8,0:0:0:0:
264,192,134231,1,0,0:0:0:0:
264,192,134428,1,0,0:0:0:0:
264,192,134820,1,12,0:0:0:0:
264,192,135212,1,0,0:0:0:0:
264,192,135604,1,8,0:0:0:0:
264,192,135997,1,0,0:0:0:0:
264,192,136389,1,8,0:0:0:0:
264,192,136585,1,0,0:0:0:0:
264,192,136977,1,0,0:0:0:0:
264,192,137173,1,8,0:0:0:0:
264,192,137369,1,0,0:0:0:0:
264,192,137565,1,0,0:0:0:0:
264,192,137663,1,0,0:0:0:0:
264,192,137761,1,0,0:0:0:0:
264,192,137957,1,8,0:0:0:0:
264,192,138154,1,0,0:0:0:0:
264,192,138546,1,0,0:0:0:0:
264,192,138742,1,8,0:0:0:0:
264,192,138938,1,0,0:0:0:0:
264,192,139036,1,0,0:0:0:0:
264,192,139134,1,0,0:0:0:0:
264,192,139329,1,0,0:0:0:0:
264,192,139526,1,8,0:0:0:0:
264,192,139722,1,0,0:0:0:0:
264,192,140114,1,0,0:0:0:0:
264,192,140310,1,8,0:0:0:0:
264,192,140702,1,0,0:0:0:0:
264,192,140800,1,0,0:0:0:0:
264,192,140898,1,0,0:0:0:0:
264,192,141094,1,8,0:0:0:0:
264,192,141290,1,12,0:0:0:0:
264,192,141682,1,12,0:0:0:0:
264,192,141879,1,12,0:0:0:0:
264,192,142075,1,12,0:0:0:0:
264,192,142271,1,12,0:0:0:0:
264,192,142663,1,8,0:0:0:0:
264,192,143055,1,0,0:0:0:0:
264,192,143447,1,8,0:0:0:0:
264,192,143839,1,0,0:0:0:0:
264,192,144133,1,0,0:0:0:0:
264,192,144428,1,8,0:0:0:0:
264,192,144820,1,0,0:0:0:0:
264,192,145016,1,8,0:0:0:0:
264,192,145212,1,0,0:0:0:0:
264,192,145604,1,0,0:0:0:0:
264,192,145800,1,8,0:0:0:0:
264,192,146192,1,0,0:0:0:0:
264,192,146584,1,8,0:0:0:0:
264,192,146977,1,8,0:0:0:0:
264,192,147369,1,8,0:0:0:0:
264,192,147761,1,12,0:0:0:0:
264,192,148153,1,12,0:0:0:0:
264,192,148349,1,4,0:0:0:0:
264,192,148545,1,12,0:0:0:0:
264,192,148937,1,12,0:0:0:0:
264,192,149133,1,12,0:0:0:0:
264,192,149526,1,12,0:0:0:0:
264,192,149722,1,12,0:0:0:0:
264,192,150114,1,12,0:0:0:0:
256,192,150898,1,0,0:0:0:0:
256,192,151290,1,0,0:0:0:0:
256,192,151682,1,0,0:0:0:0:
256,192,152074,1,0,0:0:0:0:
256,192,152466,1,0,0:0:0:0:
256,192,152858,1,0,0:0:0:0:
256,192,153250,1,0,0:0:0:0:
256,192,153642,1,0,0:0:0:0:
256,192,154035,1,0,0:0:0:0:
256,192,154427,1,0,0:0:0:0:
256,192,154819,1,0,0:0:0:0:
256,192,155211,1,0,0:0:0:0:
32,200,155604,2,0,L|456:200,1,419.99998998642
256,192,157172,1,0,0:0:0:0:
256,192,157564,1,8,0:0:0:0:
256,192,157760,1,8,0:0:0:0:
256,192,158153,1,0,0:0:0:0:
256,192,158349,1,8,0:0:0:0:
256,192,158741,1,0,0:0:0:0:
256,192,159133,1,8,0:0:0:0:
256,192,159329,1,8,0:0:0:0:
256,192,159722,1,0,0:0:0:0:
256,192,159918,1,8,0:0:0:0:
256,192,160310,1,0,0:0:0:0:
256,192,160702,1,8,0:0:0:0:
256,192,160898,1,8,0:0:0:0:
256,192,161291,1,0,0:0:0:0:
256,192,161487,1,8,0:0:0:0:
256,192,161878,1,0,0:0:0:0:
256,192,162270,1,8,0:0:0:0:
256,192,162466,1,8,0:0:0:0:
256,192,162859,1,0,0:0:0:0:
256,192,163055,1,8,0:0:0:0:
256,192,163447,1,0,0:0:0:0:
256,192,163839,1,8,0:0:0:0:
256,192,164035,1,8,0:0:0:0:
256,192,164428,1,0,0:0:0:0:
256,192,164624,1,8,0:0:0:0:
256,192,165015,1,0,0:0:0:0:
256,192,165407,1,8,0:0:0:0:
256,192,165603,1,8,0:0:0:0:
256,192,165996,1,0,0:0:0:0:
256,192,166192,1,8,0:0:0:0:
256,192,166584,1,0,0:0:0:0:
256,192,166976,1,8,0:0:0:0:
256,192,167172,1,8,0:0:0:0:
256,192,167565,1,0,0:0:0:0:
256,192,167761,1,8,0:0:0:0:
256,192,168153,1,0,0:0:0:0:
256,192,168545,1,8,0:0:0:0:
256,192,168741,1,8,0:0:0:0:
256,192,169134,1,0,0:0:0:0:
256,192,169330,1,8,0:0:0:0:
256,192,169525,1,0,0:0:0:0:
256,192,169623,1,0,0:0:0:0:
256,192,169721,1,0,0:0:0:0:
256,192,170113,1,8,0:0:0:0:
256,192,170309,1,8,0:0:0:0:
256,192,170702,1,0,0:0:0:0:
256,192,170898,1,8,0:0:0:0:
256,192,171290,1,0,0:0:0:0:
256,192,171682,1,8,0:0:0:0:
256,192,171878,1,8,0:0:0:0:
256,192,172074,1,0,0:0:0:0:
256,192,172271,1,0,0:0:0:0:
256,192,172467,1,8,0:0:0:0:
256,192,172859,1,0,0:0:0:0:
256,192,173251,1,8,0:0:0:0:
256,192,173447,1,8,0:0:0:0:
256,192,173840,1,0,0:0:0:0:
256,192,174036,1,8,0:0:0:0:
256,192,174427,1,0,0:0:0:0:
256,192,174819,1,8,0:0:0:0:
256,192,175015,1,8,0:0:0:0:
256,192,175211,1,0,0:0:0:0:
256,192,175408,1,0,0:0:0:0:
256,192,175604,1,8,0:0:0:0:
256,192,175996,1,0,0:0:0:0:
256,192,176388,1,8,0:0:0:0:
256,192,176584,1,8,0:0:0:0:
256,192,176977,1,0,0:0:0:0:
256,192,177173,1,8,0:0:0:0:
256,192,177564,1,0,0:0:0:0:
256,192,177956,1,8,0:0:0:0:
256,192,178152,1,8,0:0:0:0:
256,192,178348,1,0,0:0:0:0:
256,192,178545,1,0,0:0:0:0:
256,192,178741,1,8,0:0:0:0:
256,192,179133,1,0,0:0:0:0:
256,192,179525,1,8,0:0:0:0:
256,192,179721,1,8,0:0:0:0:
256,192,180114,1,0,0:0:0:0:
256,192,180310,1,8,0:0:0:0:
256,192,180702,1,0,0:0:0:0:
256,192,181094,1,8,0:0:0:0:
256,192,181290,1,8,0:0:0:0:
256,192,181486,1,0,0:0:0:0:
256,192,181683,1,0,0:0:0:0:
256,192,181879,1,8,0:0:0:0:
264,192,182074,1,12,0:0:0:0:
264,192,182467,1,12,0:0:0:0:
264,192,182663,1,12,0:0:0:0:
264,192,182859,1,12,0:0:0:0:
264,192,183055,1,12,0:0:0:0:
264,192,183447,1,8,0:0:0:0:
264,192,183643,1,0,0:0:0:0:
264,192,184035,1,0,0:0:0:0:
264,192,184231,1,8,0:0:0:0:
264,192,184427,1,0,0:0:0:0:
264,192,184623,1,0,0:0:0:0:
264,192,184819,1,0,0:0:0:0:
264,192,185016,1,8,0:0:0:0:
264,192,185212,1,0,0:0:0:0:
264,192,185408,1,0,0:0:0:0:
264,192,185800,1,8,0:0:0:0:
264,192,185996,1,0,0:0:0:0:
264,192,186388,1,0,0:0:0:0:
264,192,186584,1,8,0:0:0:0:
264,192,186780,1,0,0:0:0:0:
264,192,187172,1,0,0:0:0:0:
264,192,187368,1,8,0:0:0:0:
264,192,187564,1,0,0:0:0:0:
264,192,187760,1,0,0:0:0:0:
264,192,187957,1,0,0:0:0:0:
264,192,188153,1,8,0:0:0:0:
264,192,188349,1,0,0:0:0:0:
264,192,188545,1,0,0:0:0:0:
264,192,188937,1,8,0:0:0:0:
264,192,189133,1,0,0:0:0:0:
264,192,189525,1,8,0:0:0:0:
264,192,189721,1,8,0:0:0:0:
264,192,189917,1,0,0:0:0:0:
264,192,190310,1,0,0:0:0:0:
264,192,190506,1,8,0:0:0:0:
264,192,190702,1,0,0:0:0:0:
264,192,190800,1,0,0:0:0:0:
264,192,190898,1,0,0:0:0:0:
264,192,191094,1,0,0:0:0:0:
264,192,191486,1,0,0:0:0:0:
264,192,191878,1,0,0:0:0:0:
264,192,192074,1,8,0:0:0:0:
264,192,192270,1,0,0:0:0:0:
264,192,192368,1,0,0:0:0:0:
264,192,192467,1,0,0:0:0:0:
264,192,192859,1,8,0:0:0:0:
264,192,193055,1,0,0:0:0:0:
264,192,193447,1,0,0:0:0:0:
264,192,193643,1,8,0:0:0:0:
264,192,193839,1,0,0:0:0:0:
264,192,193937,1,0,0:0:0:0:
264,192,194035,1,0,0:0:0:0:
264,192,194231,1,0,0:0:0:0:
256,192,194623,1,0,0:0:0:0:
264,192,195015,1,0,0:0:0:0:
264,192,195211,1,8,0:0:0:0:
264,192,195407,1,0,0:0:0:0:
264,192,195505,1,0,0:0:0:0:
264,192,195604,1,0,0:0:0:0:
264,192,195996,1,0,0:0:0:0:
264,192,196192,1,0,0:0:0:0:
264,192,196388,1,12,0:0:0:0:
264,192,196682,1,12,0:0:0:0:
264,192,196976,1,12,0:0:0:0:
264,192,197172,1,12,0:0:0:0:
264,192,197467,1,12,0:0:0:0:
264,192,197761,1,12,0:0:0:0:
264,192,197957,1,12,0:0:0:0:
256,192,199525,1,4,0:0:0:0:
256,192,200898,1,0,0:0:0:0:
256,188,202074,1,0,0:0:0:0:
256,188,202662,1,4,0:0:0:0:
256,188,202859,1,4,0:0:0:0:
256,188,203447,1,4,0:0:0:0:
256,188,203643,1,4,0:0:0:0:
256,188,204231,1,4,0:0:0:0:
256,188,204427,1,4,0:0:0:0:
256,188,204819,1,0,0:0:0:0:
256,188,205211,1,8,0:0:0:0:
256,188,205408,1,8,0:0:0:0:
256,188,205800,1,0,0:0:0:0:
256,188,206192,1,0,0:0:0:0:
256,188,206584,1,8,0:0:0:0:
256,188,206976,1,0,0:0:0:0:
256,188,207172,1,0,0:0:0:0:
256,188,207564,1,8,0:0:0:0:
256,188,207760,1,0,0:0:0:0:
256,188,207957,1,8,0:0:0:0:
256,188,208153,1,8,0:0:0:0:
256,188,208545,1,0,0:0:0:0:
256,188,208741,1,8,0:0:0:0:
256,188,209133,1,0,0:0:0:0:
256,188,209329,1,8,0:0:0:0:
256,188,209525,1,8,0:0:0:0:
256,188,209721,1,0,0:0:0:0:
256,188,209917,1,8,0:0:0:0:
256,188,210113,1,8,0:0:0:0:
256,188,210310,1,0,0:0:0:0:
256,188,210702,1,0,0:0:0:0:
256,188,210898,1,0,0:0:0:0:
256,188,211290,1,0,0:0:0:0:
256,188,211682,1,0,0:0:0:0:
264,192,211878,1,12,0:0:0:0:
264,192,212271,1,12,0:0:0:0:
264,192,212467,1,12,0:0:0:0:
264,192,212663,1,12,0:0:0:0:
264,192,212859,1,12,0:0:0:0:
264,192,213251,1,8,0:0:0:0:
264,192,213447,1,8,0:0:0:0:
264,192,213643,1,0,0:0:0:0:
264,192,214035,1,8,0:0:0:0:
264,192,214428,1,0,0:0:0:0:
264,192,214820,1,8,0:0:0:0:
264,192,215016,1,0,0:0:0:0:
264,192,215408,1,0,0:0:0:0:
264,192,215604,1,8,0:0:0:0:
264,192,215800,1,0,0:0:0:0:
264,192,215996,1,0,0:0:0:0:
264,192,216094,1,0,0:0:0:0:
264,192,216192,1,0,0:0:0:0:
264,192,216388,1,8,0:0:0:0:
264,192,216585,1,0,0:0:0:0:
264,192,216977,1,0,0:0:0:0:
264,192,217173,1,8,0:0:0:0:
264,192,217369,1,0,0:0:0:0:
264,192,217467,1,0,0:0:0:0:
264,192,217565,1,0,0:0:0:0:
264,192,217957,1,8,0:0:0:0:
264,192,218153,1,0,0:0:0:0:
264,192,218545,1,0,0:0:0:0:
264,192,218741,1,8,0:0:0:0:
264,192,218937,1,0,0:0:0:0:
264,192,219134,1,0,0:0:0:0:
264,192,219526,1,12,0:0:0:0:
264,192,219918,1,0,0:0:0:0:
264,192,220310,1,8,0:0:0:0:
264,192,220703,1,0,0:0:0:0:
264,192,221095,1,8,0:0:0:0:
264,192,221291,1,0,0:0:0:0:
264,192,221683,1,0,0:0:0:0:
264,192,221879,1,8,0:0:0:0:
264,192,222075,1,0,0:0:0:0:
264,192,222271,1,0,0:0:0:0:
264,192,222369,1,0,0:0:0:0:
264,192,222467,1,0,0:0:0:0:
264,192,222663,1,8,0:0:0:0:
264,192,222860,1,0,0:0:0:0:
264,192,223252,1,0,0:0:0:0:
264,192,223448,1,8,0:0:0:0:
264,192,223644,1,0,0:0:0:0:
264,192,223742,1,0,0:0:0:0:
264,192,223840,1,0,0:0:0:0:
264,192,224035,1,0,0:0:0:0:
264,192,224232,1,8,0:0:0:0:
264,192,224428,1,0,0:0:0:0:
264,192,224820,1,0,0:0:0:0:
264,192,225016,1,8,0:0:0:0:
264,192,225408,1,0,0:0:0:0:
264,192,225506,1,0,0:0:0:0:
264,192,225604,1,0,0:0:0:0:
264,192,225800,1,8,0:0:0:0:
264,192,225996,1,12,0:0:0:0:
264,192,226388,1,12,0:0:0:0:
264,192,226585,1,12,0:0:0:0:
264,192,226781,1,12,0:0:0:0:
264,192,226977,1,12,0:0:0:0:
264,192,227369,1,8,0:0:0:0:
264,192,227761,1,0,0:0:0:0:
264,192,228153,1,8,0:0:0:0:
264,192,228545,1,0,0:0:0:0:
264,192,228839,1,0,0:0:0:0:
264,192,229134,1,8,0:0:0:0:
264,192,229526,1,0,0:0:0:0:
264,192,229722,1,8,0:0:0:0:
264,192,229918,1,0,0:0:0:0:
264,192,230310,1,0,0:0:0:0:
264,192,230506,1,8,0:0:0:0:
264,192,230898,1,0,0:0:0:0:
264,192,231290,1,8,0:0:0:0:
264,192,231682,1,0,0:0:0:0:
264,192,231976,1,0,0:0:0:0:
264,192,232271,1,8,0:0:0:0:
264,192,232663,1,0,0:0:0:0:
264,192,232859,1,8,0:0:0:0:
264,192,233055,1,0,0:0:0:0:
264,192,233447,1,0,0:0:0:0:
264,192,233643,1,8,0:0:0:0:
264,192,233839,1,0,0:0:0:0:
264,192,234035,1,0,0:0:0:0:
264,192,234427,1,8,0:0:0:0:
264,192,234819,1,0,0:0:0:0:
264,192,235113,1,0,0:0:0:0:
264,192,235408,1,8,0:0:0:0:
264,192,235800,1,0,0:0:0:0:
264,192,235996,1,8,0:0:0:0:
264,192,236192,1,0,0:0:0:0:
264,192,236584,1,8,0:0:0:0:
264,192,236780,1,8,0:0:0:0:
264,192,236976,1,8,0:0:0:0:
264,192,237172,1,0,0:0:0:0:
264,192,237564,1,8,0:0:0:0:
264,192,237957,1,8,0:0:0:0:
264,192,238349,1,8,0:0:0:0:
264,192,238741,1,12,0:0:0:0:
264,192,239133,1,12,0:0:0:0:
264,192,239329,1,4,0:0:0:0:
264,192,239525,1,12,0:0:0:0:
264,192,239917,1,12,0:0:0:0:
264,192,240113,1,12,0:0:0:0:
264,192,240506,1,12,0:0:0:0:
264,192,240702,1,12,0:0:0:0:
264,192,241094,1,12,0:0:0:0:
256,192,241486,1,0,0:0:0:0:
256,192,241682,1,0,0:0:0:0:
256,192,241878,1,0,0:0:0:0:
256,192,242074,1,0,0:0:0:0:
256,192,242270,1,8,0:0:0:0:
256,192,242466,1,0,0:0:0:0:
256,192,242858,1,0,0:0:0:0:
256,192,243054,1,8,0:0:0:0:
256,192,243251,1,0,0:0:0:0:
256,192,243447,1,0,0:0:0:0:
256,192,243839,1,8,0:0:0:0:
256,192,244231,1,0,0:0:0:0:
256,192,244623,1,8,0:0:0:0:
256,192,244819,1,0,0:0:0:0:
256,192,245211,1,0,0:0:0:0:
256,192,245407,1,8,0:0:0:0:
256,192,245800,1,0,0:0:0:0:
256,192,246192,1,8,0:0:0:0:
256,192,246388,1,0,0:0:0:0:
256,192,246584,1,0,0:0:0:0:
256,192,246976,1,8,0:0:0:0:
256,192,247172,1,0,0:0:0:0:
256,192,247564,1,8,0:0:0:0:
256,192,247760,1,8,0:0:0:0:
256,192,248153,1,0,0:0:0:0:
256,192,248349,1,0,0:0:0:0:
256,192,248545,1,8,0:0:0:0:
256,192,248741,1,0,0:0:0:0:
256,192,249133,1,0,0:0:0:0:
256,192,249329,1,8,0:0:0:0:
256,192,249721,1,0,0:0:0:0:
256,192,250113,1,8,0:0:0:0:
256,192,250505,1,0,0:0:0:0:
256,192,250702,1,0,0:0:0:0:
256,192,250898,1,8,0:0:0:0:
256,192,251290,1,12,0:0:0:0:
256,192,251584,1,4,0:0:0:0:
256,192,251878,1,4,0:0:0:0:
256,192,252074,1,12,0:0:0:0:
256,192,252368,1,4,0:0:0:0:
256,192,252662,1,4,0:0:0:0:
256,192,252858,5,12,0:0:0:0:
256,192,253153,1,12,0:0:0:0:
256,192,253447,1,12,0:0:0:0:
256,192,254035,12,0,257564,0:0:0:0:
