osu file format v14

[General]
AudioFilename: audio.mp3
AudioLeadIn: 0
PreviewTime: 55416
Countdown: 0
SampleSet: Soft
StackLeniency: 0.5
Mode: 0
LetterboxInBreaks: 0
WidescreenStoryboard: 1

[Editor]
Bookmarks: 383,8491,14977,27950,34437,40923,50653,57139,70112,76599,81464
DistanceSpacing: 0.9
BeatDivisor: 4
GridSize: 8
TimelineZoom: 1.1

[Metadata]
Title:Isekai Quartet (TV Size)
TitleUnicode:異世界かるてっと (TV Size)
Artist:Satoshi Hino, Jun Fukushima, Yuusuke Kobayashi, Aoi Yuuki
ArtistUnicode:アインズ(CV:日野 聡)、カズマ(CV:福島 潤)、スバル(CV:小林裕介)、ターニャ(CV:悠木 碧)
Creator:[Mad]
Version:Hard
Source:異世界かるてっと
Tags:Creamy Candy Ainz Ooal Gown Kazuma Satou Subaru Natsuki Tonya von Degurechaff anime ver RE:Zero OVERLORD Konosuba Youjo Senki
BeatmapID:2008836
BeatmapSetID:955641

[Difficulty]
HPDrainRate:4
CircleSize:3.5
OverallDifficulty:6
ApproachRate:7.5
SliderMultiplier:1.4
SliderTickRate:1

[Events]
//Background and Video events
0,0,"isekai bg.jpg",0,0
Video,-235,"isekai op.mp4"
//Break Periods
//Storyboard Layer 0 (Background)
//Storyboard Layer 1 (Fail)
//Storyboard Layer 2 (Pass)
//Storyboard Layer 3 (Foreground)
//Storyboard Layer 4 (Overlay)
//Storyboard Sound Samples

[TimingPoints]
383,405.405405405405,4,2,1,50,1,0
383,-133.333333333333,4,2,1,50,0,0
3220,-100,4,2,1,65,0,0
4031,-83.3333333333333,4,2,1,65,0,0
4437,-71.4285714285714,4,2,1,65,0,0
4842,-62.5,4,2,1,65,0,0
5247,-76.9230769230769,4,2,1,75,0,0
6869,-100,4,2,1,50,0,0
8085,-66.6666666666667,4,2,1,70,0,0
8491,-100,4,2,1,50,0,0
13355,-66.6666666666667,4,2,1,60,0,0
14572,-66.6666666666667,4,2,1,40,0,0
14977,-100,4,2,1,50,0,0
27950,-100,4,2,1,55,0,0
32815,-80,4,2,1,70,0,0
34031,-80,4,2,3,50,0,0
34437,-100,4,2,1,55,0,0
40518,-66.6666666666667,4,2,1,70,0,0
40923,-100,4,2,1,50,0,0
50653,-100,4,2,1,55,0,0
56734,-66.6666666666667,4,2,1,65,0,0
57139,-66.6666666666667,4,2,1,80,0,1
62004,-62.5,4,2,1,80,0,1
62410,-62.5,4,2,1,80,0,1
62815,-62.5,4,2,1,80,0,1
63423,-66.6666666666667,4,2,1,80,0,0
63626,-66.6666666666667,4,2,1,80,0,1
68491,-62.5,4,2,1,80,0,1
70112,-100,4,2,1,50,0,0
73761,-83.3333333333333,4,2,1,50,0,0
74166,-71.4285714285714,4,2,1,50,0,0
74572,-62.5,4,2,1,50,0,0
74977,-66.6666666666667,4,2,1,65,0,0
76599,-80,4,2,1,70,0,0
86328,-80,4,2,1,80,0,0
86937,-50,4,2,1,80,0,0
87545,-50,4,2,1,50,0,0

[Colours]
Combo1 : 236,208,15
Combo2 : 255,128,128
Combo3 : 192,192,192

[HitObjects]
100,112,383,6,0,P|131:96|166:88,2,52.5000020027161,10|2|2,0:2|0:2|0:2,0:0:0:0:
62,187,991,2,0,B|103:200|139:188|139:188|175:174|227:188,1,157.500006008148,2|2,0:2|0:2,0:0:0:0:
289,227,1801,1,2,0:2:0:0:
216,269,2004,6,0,P|242:298|274:309,1,52.5000020027161,2|2,0:2|0:2,0:0:0:0:
338,300,2410,1,2,0:2:0:0:
376,225,2612,2,0,P|380:180|418:121,1,105.000004005432,2|2,0:2|0:2,0:0:0:0:
476,71,3220,5,6,1:2:0:0:
385,42,3423,1,8,0:2:0:0:
321,114,3626,6,0,P|300:115|263:111,3,35,10|2|2|2,0:2|0:2|0:2|0:2,0:0:0:0:
256,72,4031,6,0,P|234:71|206:74,3,41.9999987182618,2|2|10|2,1:2|0:2|0:2|0:2,0:0:0:0:
182,114,4437,6,0,P|161:115|105:97,3,48.9999985046387,2|2|10|2,1:2|0:2|0:2|0:2,0:0:0:0:
105,71,4842,6,0,P|83:70|50:74,3,56,2|2|2|2,1:2|0:2|1:2|1:2,0:0:0:0:
24,119,5247,6,0,P|44:169|22:243,1,90.9999958343508,2|2,0:2|0:2,0:0:0:0:
126,291,5653,2,0,P|119:239|138:191,1,90.9999958343508,2|2,0:2|0:2,0:0:0:0:
210,281,6058,2,0,P|185:354|101:374,2,136.499993751526,10|2|2,0:2|0:2|0:2,0:0:0:0:
224,198,6869,6,0,P|276:182|353:190,2,105,0|0|0,3:2|3:2|3:2,0:0:0:0:
311,266,7680,1,0,1:2:0:0:
311,266,7882,1,8,3:2:0:0:
413,254,8085,2,0,B|408:220|408:220|413:192|413:192|405:141,1,105.000004005432,6|0,0:2|0:0,0:0:0:0:
358,62,8491,6,0,P|316:54|235:75,1,105,2|2,1:2|3:2,0:0:0:0:
59,17,9099,2,0,B|106:28|106:28|151:1|209:7,1,140,10|2,3:3|3:2,0:0:0:0:
174,93,9707,1,2,3:2:0:0:
92,116,9910,1,8,0:2:0:0:
92,116,10011,1,8,0:2:0:0:
92,116,10112,6,0,L|71:231,1,105,2|10,1:2|3:2,0:0:0:0:
0,318,10720,2,0,P|66:299|131:322,1,140,10|2,3:3|3:2,0:0:0:0:
205,366,11328,2,0,P|240:373|280:365,1,70,2|2,3:2|0:2,0:0:0:0:
355,294,11734,6,0,B|304:299|313:275|252:285,1,105,2|10,1:2|3:2,0:0:0:0:
261,117,12342,2,0,P|334:166|343:214,1,140,10|2,3:3|3:2,0:0:0:0:
257,202,12950,1,2,3:2:0:0:
171,200,13153,1,0,1:2:0:0:
171,200,13254,1,8,0:2:0:0:
171,200,13355,6,0,B|184:161|184:161|173:88,1,105.000004005432,10|2,3:2|1:2,0:0:0:0:
103,53,13761,2,0,B|90:92|90:92|101:165,1,105.000004005432,10|2,3:2|1:2,0:0:0:0:
184,81,14166,1,10,3:2:0:0:
331,28,14572,5,0,1:2:0:0:
331,28,14977,6,0,L|346:108,1,70,10|2,0:2|0:2,0:0:0:0:
427,112,15382,2,0,L|411:192,1,70,10|2,0:2|0:2,0:0:0:0:
331,196,15788,2,0,L|346:276,2,70,10|2|10,0:2|0:2|0:2,0:0:0:0:
421,198,16396,1,2,0:2:0:0:
421,198,16497,1,2,0:2:0:0:
421,198,16599,6,0,L|436:278,1,70,10|2,2:2|2:2,0:0:0:0:
494,324,17004,2,0,P|466:344|419:346,1,70,10|2,0:2|0:2,0:0:0:0:
348,345,17410,1,8,0:0:0:0:
273,312,17612,1,2,0:2:0:0:
273,312,17815,1,10,0:2:0:0:
171,349,18018,1,2,0:2:0:0:
171,349,18119,1,2,0:2:0:0:
171,349,18220,6,0,P|185:309|181:250,1,70,10|2,0:2|0:2,0:0:0:0:
116,235,18626,2,0,P|102:195|106:136,1,70,10|2,0:2|0:2,0:0:0:0:
202,107,19031,2,0,P|188:147|192:206,1,70,10|2,0:2|0:2,0:0:0:0:
288,227,19437,2,0,P|284:192|272:159,1,70,10|2,0:2|0:2,0:0:0:0:
290,75,19842,6,0,L|443:91,2,140,10|10|10,0:2|0:2|0:2,0:0:0:0:
219,11,20855,1,8,0:3:0:0:
141,56,21058,1,4,1:2:0:0:
61,22,21261,1,2,0:2:0:0:
61,22,21362,1,2,0:2:0:0:
61,22,21464,6,0,P|41:68|48:108,1,70,10|2,0:2|0:2,0:0:0:0:
93,152,21869,2,0,L|79:223,1,70,10|2,0:2|0:2,0:0:0:0:
181,273,22274,2,0,L|167:204,1,70,10|2,0:2|0:2,0:0:0:0:
200,179,22578,1,0,1:2:0:0:
200,179,22680,2,0,L|212:110,1,70,10|2,0:3|1:2,0:0:0:0:
204,28,23085,6,0,P|243:32|284:64,1,70,10|2,0:2|0:2,0:0:0:0:
296,126,23491,2,0,P|326:108|346:80,1,70,10|2,0:2|0:2,0:0:0:0:
351,0,23896,1,8,0:0:0:0:
432,55,24099,1,2,0:2:0:0:
432,55,24301,1,10,0:2:0:0:
411,144,24504,1,10,0:3:0:0:
411,144,24605,1,10,0:3:0:0:
411,144,24707,6,0,P|414:187|407:215,1,70,14|2,0:2|0:2,0:0:0:0:
319,276,25112,2,0,P|316:233|323:205,1,70,10|2,0:2|0:2,0:0:0:0:
403,298,25518,2,0,L|389:371,1,70,10|10,0:2|0:3,0:0:0:0:
287,362,25923,1,10,1:2:0:0:
287,362,26024,1,0,1:2:0:0:
287,362,26126,1,10,0:3:0:0:
203,287,26328,6,0,B|166:278|132:290|132:290|97:304|55:290,2,140,10|10|10,0:2|0:2|0:2,0:0:0:0:
169,370,27342,2,0,P|148:378|111:384,4,35,0|0|0|0|0,1:2|1:2|1:2|1:2|1:2,0:0:0:0:
203,287,27950,6,0,P|221:281|261:282,2,35,6|2|2,1:2|0:2|0:2,0:0:0:0:
164,273,28254,2,0,P|156:228|176:158,1,105,10|10,0:3|0:3,0:0:0:0:
283,151,28761,2,0,P|265:145|225:146,2,35,6|2|10,1:2|0:2|0:3,0:0:0:0:
322,137,29065,2,0,P|330:92|310:22,1,105,2|10,0:3|0:3,0:0:0:0:
196,21,29572,6,0,P|162:23|125:34,1,70,6|2,1:2|0:2,0:0:0:0:
86,61,29876,2,0,B|78:87|86:113|86:113|94:140|84:167,1,105,10|10,0:3|0:3,0:0:0:0:
24,267,30382,2,0,B|30:303|30:303|24:338|24:338|32:379,2,105,6|2|2,1:2|0:2|0:2,0:0:0:0:
132,298,31193,6,0,L|122:353,2,35,6|2|2,1:2|0:2|0:2,0:0:0:0:
162,274,31497,2,0,L|267:255,1,105,10|10,0:3|0:3,0:0:0:0:
333,343,32004,2,0,P|372:294|375:266,1,70,6|2,1:2|1:2,0:0:0:0:
405,258,32308,1,2,1:2:0:0:
405,258,32410,2,0,L|448:250,2,35,0|0|10,1:2|0:0|0:3,0:0:0:0:
340,158,32815,6,0,P|385:157|438:187,1,87.5,10|2,0:3|1:2,0:0:0:0:
306,238,33220,2,0,P|261:239|208:209,1,87.5,10|2,0:3|1:2,0:0:0:0:
215,106,33626,2,0,B|246:80|246:80|335:63,1,131.25,2|0,1:2|0:0,0:0:0:0:
363,32,34031,6,0,P|415:29|470:97,1,131.25,4|0,1:2|0:0,0:0:0:0:
495,113,34437,6,0,L|480:196,1,70,6|2,0:2|0:2,0:0:0:0:
494,265,34842,2,0,L|479:348,1,70,10|2,0:2|1:2,0:0:0:0:
451,365,35146,1,2,0:2:0:0:
451,365,35247,2,0,P|415:377|372:363,1,70,10|2,0:2|0:2,0:0:0:0:
310,316,35653,1,8,0:3:0:0:
400,280,35855,1,10,0:3:0:0:
400,280,35957,1,2,0:2:0:0:
400,280,36058,6,0,L|388:212,1,70,10|2,0:2|0:2,0:0:0:0:
280,164,36464,2,0,L|292:239,1,70,10|2,0:2|1:2,0:0:0:0:
221,290,36869,1,8,0:2:0:0:
195,202,37072,2,0,P|189:183|178:164,2,35,2|10|10,0:2|0:3|0:2,0:0:0:0:
133,271,37477,1,10,0:3:0:0:
133,271,37578,1,10,0:3:0:0:
133,271,37680,6,0,P|95:277|51:275,1,70,10|2,0:2|0:2,0:0:0:0:
43,238,37984,1,2,0:2:0:0:
43,238,38085,2,0,L|58:160,1,70,10|0,0:2|1:2,0:0:0:0:
85,79,38491,2,0,P|51:76|18:86,1,70,10|2,0:2|0:2,0:0:0:0:
142,154,38896,2,0,P|163:166|186:169,2,35,2|0|10,1:2|1:2|0:3,0:0:0:0:
225,92,39301,6,0,B|273:83|273:83|313:89|313:89|372:78,2,140,10|10|10,0:2|0:2|0:2,0:0:0:0:
439,121,40518,2,0,P|446:52|383:0,1,157.500006008148,4|0,0:2|0:2,0:0:0:0:
357,27,40923,6,0,P|321:33|272:29,1,70,8|0,0:2|0:2,0:0:0:0:
225,91,41328,2,0,P|189:85|140:89,1,70,10|2,0:2|0:2,0:0:0:0:
186,173,41734,2,0,B|199:208|185:244|185:244|171:282|187:317,1,140,10|10,0:2|0:2,0:0:0:0:
395,281,42545,6,0,P|315:256|264:281,1,140,8|10,0:2|0:2,0:0:0:0:
329,342,43153,1,2,0:2:0:0:
416,365,43355,2,0,P|455:348|478:309,1,70,10|0,0:2|0:0,0:0:0:0:
501,298,43660,1,0,1:2:0:0:
501,298,43761,2,0,L|501:245,2,35,2|0|10,1:2|1:2|0:3,0:0:0:0:
481,179,44166,6,0,B|436:171|436:171|397:184|397:184|339:175,1,140,14|8,0:2|0:2,0:0:0:0:
288,10,44977,2,0,P|285:59|263:91,1,70,10|10,0:2|0:3,0:0:0:0:
246,109,45281,1,2,0:2:0:0:
246,109,45382,2,0,P|248:158|270:190,1,70,10|10,0:2|0:3,0:0:0:0:
342,269,45788,6,0,P|264:263|192:294,1,140,14|8,0:2|0:2,0:0:0:0:
80,367,46599,2,0,P|95:302|91:281,1,70,10|10,0:3|0:3,0:0:0:0:
39,230,47004,2,0,P|23:165|27:144,1,70,10|10,0:3|0:3,0:0:0:0:
79,93,47410,6,0,L|222:119,1,140,14|8,0:2|0:2,0:0:0:0:
212,296,48220,2,0,P|185:255|200:186,2,105,10|2|2,0:2|0:2|1:2,0:0:0:0:
291,333,49031,6,0,B|340:324|340:324|378:335|378:335|436:325,1,140,6|8,1:2|0:2,0:0:0:0:
479,255,49639,1,2,0:2:0:0:
393,241,49842,2,0,P|409:201|483:173,1,105,10|2,0:3|1:2,0:0:0:0:
486,150,50247,2,0,P|491:126|485:106,2,35,2|2|10,1:2|1:2|0:3,0:0:0:0:
402,101,50653,6,0,P|363:95|307:103,1,70,10|10,0:2|0:2,0:0:0:0:
283,170,51058,2,0,P|244:176|156:115,1,140,2|10,1:2|0:3,0:0:0:0:
148,39,51666,1,8,0:2:0:0:
80,94,51869,2,0,L|62:193,1,70,2|0,1:2|0:2,0:0:0:0:
102,243,52274,6,0,L|178:257,1,70,10|10,0:2|0:2,0:0:0:0:
189,285,52578,1,2,0:2:0:0:
189,285,52680,2,0,L|265:299,1,70,2|8,1:2|0:2,0:0:0:0:
317,361,53085,2,0,L|393:346,1,70,10|10,0:2|0:3,0:0:0:0:
404,319,53389,1,2,0:2:0:0:
404,319,53491,2,0,L|480:304,1,70,2|0,1:2|0:2,0:0:0:0:
256,192,53896,12,0,55112,0:0:0:0:
311,179,55518,6,0,L|189:159,2,105,2|2|2,1:1|1:1|1:1,0:0:0:0:
385,233,56328,2,0,P|401:199|400:167,1,70,2|8,1:1|0:2,0:0:0:0:
386,83,56734,6,0,B|356:83|333:96|333:96|311:83|280:82,1,105.000004005432,2|2,1:2|1:2,0:0:0:0:
218,25,57139,6,0,L|99:45,1,105.000004005432,10|2,0:2|1:2,0:0:0:0:
59,126,57545,2,0,L|177:146,1,105.000004005432,10|0,0:2|1:2,0:0:0:0:
178,233,57950,2,0,P|157:281|189:353,2,105.000004005432,10|2|10,0:2|1:2|0:2,0:0:0:0:
244,291,58558,1,2,1:2:0:0:
262,208,58761,6,0,L|377:195,2,105.000004005432,10|0|10,0:2|1:2|0:2,0:0:0:0:
282,120,59369,2,0,L|397:107,1,105.000004005432,2|8,1:2|0:2,0:0:0:0:
454,51,59774,2,0,P|474:101|448:168,1,105.000004005432,2|10,1:2|1:2,0:0:0:0:
442,234,60180,1,2,1:2:0:0:
366,196,60382,6,0,P|346:246|372:313,1,105.000004005432,14|2,0:2|1:2,0:0:0:0:
426,341,60788,2,0,L|304:362,1,105.000004005432,10|2,0:2|1:2,0:0:0:0:
220,371,61193,2,0,P|240:321|214:254,1,105.000004005432,10|2,0:2|1:2,0:0:0:0:
160,226,61599,2,0,L|281:204,1,105.000004005432,10|2,0:2|1:2,0:0:0:0:
270,118,62004,6,0,B|217:96|155:123|155:123|103:148|41:120,1,224,14|14,0:2|0:2,0:0:0:0:
8,354,62815,2,0,P|83:272|-17:211,1,224,14|14,0:2|0:2,0:0:0:0:
162,223,63626,6,0,B|241:237|241:237|274:223|274:223|400:245,1,210.000008010865,14|10,0:2|0:2,0:0:0:0:
512,142,64437,2,0,P|464:174|449:227,1,105.000004005432,10|2,0:2|1:2,0:0:0:0:
456,251,64741,1,0,1:2:0:0:
456,251,64842,2,0,P|436:298|392:325,1,105.000004005432,10|2,0:2|1:2,0:0:0:0:
302,341,65247,6,0,L|187:319,2,105.000004005432,10|0|10,0:2|1:2|0:2,0:0:0:0:
337,261,65855,2,0,P|350:212|320:135,1,105.000004005432,2|8,1:2|0:2,0:0:0:0:
270,103,66261,1,0,1:2:0:0:
270,103,66362,1,0,1:2:0:0:
270,103,66464,2,0,P|266:73|268:45,2,52.5000020027161,10|0|2,0:2|1:2|1:2,0:0:0:0:
360,76,66869,6,0,P|416:81|471:135,1,105.000004005432,10|0,0:2|1:2,0:0:0:0:
486,192,67274,1,10,0:2:0:0:
378,169,67477,1,2,1:2:0:0:
425,255,67680,2,0,B|372:280|319:253|319:253|275:228|211:249,1,210.000008010865,10|10,0:2|0:2,0:0:0:0:
200,272,68187,1,0,1:2:0:0:
200,272,68288,1,8,3:2:0:0:
137,335,68491,6,0,P|111:284|136:207,1,112,6|10,1:2|0:2,0:0:0:0:
187,160,68896,2,0,P|213:109|188:32,1,112,6|10,1:2|0:2,0:0:0:0:
129,11,69301,1,6,1:2:0:0:
123,98,69504,1,8,3:2:0:0:
123,98,69707,1,8,0:2:0:0:
327,150,70112,6,0,P|314:192|316:245,2,70,14|2|10,0:2|0:2|0:3,0:0:0:0:
394,93,70720,2,0,P|440:89|499:13,1,140,10|8,0:3|0:2,0:0:0:0:
406,6,71328,1,2,1:2:0:0:
406,6,71531,1,10,0:2:0:0:
320,43,71734,6,0,L|246:57,1,70,14|2,0:2|0:2,0:0:0:0:
170,17,72139,1,10,0:3:0:0:
177,100,72342,2,0,P|204:168|164:253,1,140,2|10,0:2|0:2,0:0:0:0:
116,173,72950,2,0,P|82:176|50:190,1,70,2|10,1:2|0:2,0:0:0:0:
33,286,73355,6,0,L|70:292,3,35,14|2|10|2,0:2|0:2|0:2|0:2,0:0:0:0:
96,317,73761,6,0,L|138:323,3,41.9999987182618,2|2|2|2,1:2|0:2|1:2|1:2,0:0:0:0:
169,348,74166,6,0,L|221:338,3,48.9999985046387,10|2|2|2,0:2|0:2|1:2|1:2,0:0:0:0:
240,312,74572,6,0,L|300:301,3,56,10|2|2|2,0:2|0:2|1:2|0:2,0:0:0:0:
312,280,74977,6,0,P|359:263|430:279,1,105.000004005432,2|2,1:2|0:2,0:0:0:0:
474,337,75382,2,0,P|427:354|356:338,1,105.000004005432,2|2,0:2|0:2,0:0:0:0:
412,270,75788,2,0,L|430:164,1,105.000004005432,2|8,0:2|0:2,0:0:0:0:
406,131,76092,1,10,0:2:0:0:
406,131,76193,2,0,B|366:112|325:131|325:131|291:147|252:129,1,157.500006008148,8|0,0:3|0:0,0:0:0:0:
219,99,76599,6,0,P|222:158|183:220,1,131.25,14|2,0:2|0:2,0:0:0:0:
85,338,77207,2,0,B|117:305|157:300|157:300|254:332,1,175,10|2,0:2|0:2,0:0:0:0:
287,310,77714,1,0,1:2:0:0:
287,310,77815,2,0,P|312:316|347:313,2,43.75,2|0|8,1:2|1:2|0:3,0:0:0:0:
320,233,78220,6,0,B|326:194|326:194|345:164|345:164|355:107,1,131.25,14|2,0:2|0:2,0:0:0:0:
474,21,78828,2,0,P|435:97|485:176,1,175,2|2,0:2|0:2,0:0:0:0:
434,249,79437,2,0,P|442:292|431:354,1,87.5,2|0,1:2|0:2,0:0:0:0:
361,375,79842,6,0,L|267:359,1,87.5,14|0,0:2|0:2,0:0:0:0:
255,331,80146,1,2,1:2:0:0:
255,331,80247,2,0,L|161:315,1,87.5,8|2,0:2|1:2,0:0:0:0:
90,271,80653,6,0,P|62:224|180:241,1,262.5,10|10,0:2|0:3,0:0:0:0:
270,238,81464,6,0,P|268:186|212:103,2,131.25,6|2|10,1:2|0:2|0:2,0:0:0:0:
408,336,82477,2,0,P|393:302|392:233,1,87.5,2|2,0:2|1:2,0:0:0:0:
442,185,82882,1,10,0:2:0:0:
492,112,83085,6,0,P|431:98|362:146,2,131.25,6|10|10,1:2|0:2|0:2,0:0:0:0:
306,225,84099,2,0,L|288:119,1,87.5,2|2,1:2|1:2,0:0:0:0:
230,75,84504,1,10,0:2:0:0:
206,159,84707,6,0,P|162:169|99:155,1,87.5,6|0,1:2|0:2,0:0:0:0:
97,133,85011,2,0,P|53:127|11:137,1,87.5,2|0,1:2|0:2,0:0:0:0:
0,175,85315,1,10,0:3:0:0:
42,256,85518,2,0,P|63:255|92:248,3,43.75,0|0|2|0,1:2|1:2|1:2|1:2,0:0:0:0:
126,278,85923,2,0,P|147:273|169:272,2,43.75,2|0|0,1:2|1:2|1:2,0:0:0:0:
166,369,86328,5,14,0:2:0:0:
166,369,86430,1,2,0:2:0:0:
166,369,86531,1,2,1:2:0:0:
251,342,86734,1,10,0:3:0:0:
336,315,86937,1,10,0:3:0:0:
282,130,87342,5,8,0:2:0:0:
282,130,87443,1,8,0:2:0:0:
282,130,87545,2,0,B|282:167|264:194|264:194|280:198|280:198|267:225|275:275,1,140,6|0,1:2|0:2,0:0:0:0:
