osu file format v14

[General]
AudioFilename: audio.mp3
AudioLeadIn: 0
PreviewTime: 44876
Countdown: 0
SampleSet: Soft
StackLeniency: 0.7
Mode: 0
LetterboxInBreaks: 0
WidescreenStoryboard: 0

[Editor]
DistanceSpacing: 1
BeatDivisor: 4
GridSize: 4
TimelineZoom: 1.1

[Metadata]
Title:XY&Z
TitleUnicode:XY&Z
Artist:Satoshi (CV:Rica Matsumoto)
ArtistUnicode:サトシ(CV:松本 梨香)
Creator:ktgster
Version:Z
Source:ポケットモンスターXY&Z
Tags:XY and Z Xerneas Yveltal Zygarde Opening Ash Ketchum Pokemon Pokémon Pocket Monsters ジガルデ Rika 佐香智久 XYZ Tomohisa Sako Saku Puni-chan
BeatmapID:889177
BeatmapSetID:409649

[Difficulty]
HPDrainRate:6
CircleSize:4.5
OverallDifficulty:9
ApproachRate:9.8
SliderMultiplier:2.2
SliderTickRate:1

[Events]
//Background and Video events
0,0,"BG.png",0,0
//Break Periods
2,140272,147153
//Storyboard Layer 0 (Background)
//Storyboard Layer 1 (Fail)
//Storyboard Layer 2 (Pass)
//Storyboard Layer 3 (Foreground)
//Storyboard Sound Samples

[TimingPoints]
231,236.220472440945,4,2,1,60,1,0
4010,-100,4,2,1,70,0,0
11805,-125,4,2,1,60,0,0
19128,-111.111111111111,4,2,1,70,0,0
26687,-142.857142857143,4,3,1,60,0,0
34246,-111.111111111111,4,2,1,70,0,0
45585,-83.3333333333333,4,2,1,80,0,1
45821,-90.9090909090909,4,2,1,80,0,1
49364,-83.3333333333333,4,2,1,80,0,1
49837,-90.9090909090909,4,2,1,80,0,1
51254,-83.3333333333333,4,2,1,80,0,1
52199,-90.9090909090909,4,2,1,80,0,1
53144,-83.3333333333333,4,2,1,80,0,1
53380,-90.9090909090909,4,2,1,80,0,1
65900,-125,4,2,1,60,0,0
73459,-111.111111111111,4,2,1,65,0,0
73931,-100,4,2,1,70,0,0
81490,-200,4,3,1,60,0,0
89049,-166.666666666667,4,2,1,70,0,0
92829,-142.857142857143,4,2,1,70,0,0
94719,-125,4,2,1,70,0,0
96608,-111.111111111111,4,2,1,75,0,0
98498,-100,4,2,1,80,0,0
100388,-83.3333333333333,4,2,1,80,0,1
100624,-90.9090909090909,4,2,1,80,0,1
104168,-83.3333333333333,4,2,1,80,0,1
104404,-90.9090909090909,4,2,1,80,0,1
106057,-83.3333333333333,4,2,1,80,0,1
107002,-90.9090909090909,4,2,1,80,0,1
107947,-83.3333333333333,4,2,1,80,0,1
108183,-90.9090909090909,4,2,1,80,0,1
121175,-100,4,2,1,70,0,0
139128,-142.857142857143,4,2,1,70,0,0
147632,-200,4,2,1,50,0,0
151412,-100,4,2,1,60,0,0
153301,-142.857142857143,4,2,1,70,0,0
155664,-100,4,2,1,80,0,0
157081,-71.4285714285714,4,2,1,90,0,1
157317,-83.3333333333333,4,2,1,90,0,1
160860,-71.4285714285714,4,2,1,90,0,1
161097,-83.3333333333333,4,2,1,90,0,1
162750,-71.4285714285714,4,2,1,90,0,1
163695,-83.3333333333333,4,2,1,90,0,1
164640,-71.4285714285714,4,2,1,90,0,1
164876,-83.3333333333333,4,2,1,90,0,1
172199,-100,4,2,1,80,0,0
172435,-111.111111111111,4,2,1,70,0,0
175979,-99.9999999999999,4,2,1,70,0,0
176215,-111.111111111111,4,2,1,70,0,0
179758,-71.4285714285714,4,2,1,90,0,1
179994,-83.3333333333333,4,2,1,90,0,1
194758,-71.4285714285714,4,2,1,90,0,1
196766,-83.3333333333333,4,2,1,90,0,1
198538,-90.9090909090909,4,2,1,80,0,1
204089,-90.9090909090909,4,2,1,90,0,0
205034,-90.9090909090909,4,2,1,5,0,0

[Colours]
Combo1 : 255,192,0
Combo2 : 128,128,255
Combo3 : 0,213,106
Combo4 : 244,74,100

[HitObjects]
104,40,231,6,0,B|60:106|60:106|108:276,1,220,4|8,1:0|0:1,0:0:0:0:
351,148,585,2,0,P|305:105|151:138,1,220,4|8,1:0|0:1,0:0:0:0:
152,350,939,2,0,B|217:332|217:332|276:275|276:275|365:251,1,220,4|8,1:0|0:1,0:0:0:0:
207,28,1293,2,0,P|164:90|213:221,1,220,4|8,1:0|0:1,0:0:0:0:
46,354,1648,2,0,L|64:229,1,110,4|0,1:1|0:1,0:0:0:0:
76,136,1884,1,8,0:1:0:0:
76,136,2002,1,0,0:1:0:0:
317,77,2120,6,0,B|346:104|346:104|444:86,1,110,4|0,1:0|0:1,0:0:0:0:
492,13,2356,1,8,0:1:0:0:
503,245,2475,2,0,B|474:272|474:272|376:254,1,110,4|0,1:1|0:1,0:0:0:0:
328,181,2711,1,8,0:1:0:0:
127,356,2829,2,0,L|237:344,1,110,4|0,1:1|0:1,0:0:0:0:
314,266,3065,1,8,0:1:0:0:
148,52,3183,2,0,P|112:71|68:148,1,110,4|0,1:1|0:1,0:0:0:0:
71,236,3419,1,8,0:1:0:0:
328,181,3538,1,4,1:1:0:0:
328,181,4010,6,0,B|263:163|263:163|204:106|204:106|115:82,1,220,4|8,1:1|0:1,0:0:0:0:
58,165,4364,1,0,0:1:0:0:
292,68,4482,2,0,P|249:33|193:23,1,110,4|0,0:3|0:1,0:0:0:0:
65,275,4719,1,8,0:1:0:0:
256,364,4837,6,4,B|291:302|291:302|292:220|292:220|325:162,1,220,4|0,1:1|0:1,0:0:0:0:
128,28,5191,2,0,P|116:80|136:148,1,110,8|0,0:1|0:1,0:0:0:0:
354,314,5427,2,0,P|271:252|158:320,1,220,4|8,0:3|0:1,0:0:0:0:
92,369,5782,1,0,0:1:0:0:
135,87,5900,6,0,B|204:106|204:106|263:163|263:163|328:181,1,220,4|8,1:1|0:1,0:0:0:0:
424,127,6254,1,0,0:1:0:0:
486,352,6372,2,0,P|435:324|369:333,1,110,4|0,0:3|0:1,0:0:0:0:
279,358,6608,1,8,0:1:0:0:
74,222,6727,6,0,P|154:242|266:150,1,220,4|0,1:1|0:1,0:0:0:0:
314,71,7081,2,0,B|349:51|349:51|440:63,1,110,8|0,0:1|0:1,0:0:0:0:
486,246,7317,2,0,L|370:226,1,110,4|0,0:3|0:1,0:0:0:0:
170,376,7553,2,0,L|286:356,1,110,8|0,0:1|0:1,0:0:0:0:
186,107,7790,6,0,B|168:172|168:172|111:231|111:231|87:320,1,220,4|8,1:1|0:1,0:0:0:0:
170,376,8144,1,0,0:1:0:0:
62,137,8262,2,0,L|39:20,1,110,4|0,0:3|0:1,0:0:0:0:
186,107,8498,1,8,0:1:0:0:
225,293,8616,6,0,P|281:322|414:237,1,220,4|0,1:1|0:1,0:0:0:0:
153,193,8971,2,0,L|23:184,1,110,8|0,0:1|0:1,0:0:0:0:
350,130,9207,2,0,B|419:117|419:117|448:144,1,110,4|0,0:3|0:1,0:0:0:0:
191,42,9443,2,0,B|122:59|122:59|108:96,1,110,8|0,0:1|0:1,0:0:0:0:
256,348,9679,6,0,L|400:332,1,110,4|0,1:1|0:1,0:0:0:0:
475,327,9916,1,8,0:1:0:0:
102,182,10033,2,0,L|246:166,1,110,4|0,1:1|0:1,0:0:0:0:
321,161,10270,1,8,0:1:0:0:
179,265,10388,2,0,L|323:249,1,110,4|0,1:1|0:1,0:0:0:0:
398,244,10625,1,8,0:1:0:0:
25,99,10742,2,0,L|169:83,1,110,4|0,1:1|0:1,0:0:0:0:
244,78,10979,1,8,0:1:0:0:
398,244,11097,5,8,0:1:0:0:
179,265,11215,1,8,0:1:0:0:
440,347,11333,1,8,0:1:0:0:
231,198,11451,1,8,0:1:0:0:
499,258,11569,6,0,P|521:156|475:46,1,220,4|8,1:1|0:1,0:0:0:0:
386,25,11923,1,0,0:1:0:0:
302,74,12042,2,0,L|292:172,1,88,0|0,3:0|0:1,0:0:0:0:
208,184,12278,2,0,L|218:86,1,88,8|0,0:1|0:1,0:0:0:0:
28,32,12514,6,0,B|45:97|45:97|79:117|79:117|104:210,1,176,0|8,3:0|0:1,0:0:0:0:
50,257,12868,2,0,P|98:213|214:238,1,176,0|0,0:1|0:1,0:0:0:0:
261,291,13223,1,8,0:1:0:0:
421,99,13341,6,0,L|326:109,1,88,0|0,0:1|3:0,0:0:0:0:
246,119,13577,1,0,0:1:0:0:
281,38,13695,1,8,0:1:0:0:
298,189,13813,1,0,0:1:0:0:
158,128,13931,2,0,P|126:118|63:125,1,88,0|0,3:1|3:1,0:0:0:0:
9,183,14168,1,8,0:1:0:0:
9,183,14404,6,0,L|23:283,1,88,0|0,3:1|0:1,0:0:0:0:
105,293,14640,2,0,L|119:193,1,88,8|0,0:1|0:1,0:0:0:0:
158,128,14876,2,0,P|240:189|240:288,1,176,0|8,3:1|0:1,0:0:0:0:
188,321,15231,1,0,0:1:0:0:
395,362,15349,6,0,L|497:358,1,88,4|0,1:1|0:1,0:0:0:0:
305,193,15585,2,0,P|269:218|249:257,1,88,8|0,0:1|0:1,0:0:0:0:
274,341,15821,1,0,3:0:0:0:
333,276,15939,1,0,0:1:0:0:
185,189,16057,2,0,L|95:203,1,88,8|0,0:1|0:1,0:0:0:0:
153,37,16293,6,0,B|218:54|218:54|238:88|238:88|331:113,1,176,0|8,3:0|0:1,0:0:0:0:
484,206,16648,2,0,B|418:223|418:223|398:257|398:257|305:282,1,176,0|0,0:1|0:1,0:0:0:0:
133,169,17002,6,0,P|77:315|238:349,1,352,8|8,0:1|0:1,0:0:0:0:
332,275,17593,1,0,0:1:0:0:
332,275,17711,2,0,L|341:167,1,88,0|0,3:0|0:1,0:0:0:0:
426,177,17947,2,0,L|418:264,1,88,8|0,0:1|0:1,0:0:0:0:
262,151,18183,6,0,P|288:118|334:102,1,88,0|0,3:0|0:1,0:0:0:0:
496,301,18419,2,0,P|470:334|424:350,1,88,8|0,0:1|0:1,0:0:0:0:
194,356,18656,1,4,3:3:0:0:
98,341,18774,1,8,3:1:0:0:
249,282,18892,1,8,3:1:0:0:
80,355,19010,1,8,3:1:0:0:
285,366,19128,6,0,P|359:353|438:256,1,197.99999395752,4|8,1:1|0:1,0:0:0:0:
451,165,19482,1,0,0:1:0:0:
405,76,19601,2,0,L|301:65,1,98.9999969787599,4|0,0:3|0:1,0:0:0:0:
187,204,19837,2,0,P|247:199|310:170,1,98.9999969787599,8|0,0:1|0:1,0:0:0:0:
49,41,20073,6,0,L|33:160,1,98.9999969787599,4|0,0:3|0:1,0:0:0:0:
21,237,20309,1,8,0:1:0:0:
214,380,20427,2,0,L|198:261,1,98.9999969787599,0|4,0:1|0:3,0:0:0:0:
186,183,20663,1,0,0:1:0:0:
431,318,20782,2,0,P|384:334|331:331,1,98.9999969787599,8|0,0:1|0:1,0:0:0:0:
174,85,21018,6,0,L|285:107,1,98.9999969787599,4|0,0:3|0:1,0:0:0:0:
112,255,21254,2,0,L|1:277,1,98.9999969787599,8|0,0:1|0:1,0:0:0:0:
230,364,21490,1,4,0:3:0:0:
431,318,21608,1,0,0:1:0:0:
268,268,21727,2,0,P|252:241|241:171,1,98.9999969787599,8|0,0:1|0:1,0:0:0:0:
456,35,21963,6,0,L|443:166,1,98.9999969787599,4|0,0:3|0:1,0:0:0:0:
344,352,22199,2,0,L|353:253,1,98.9999969787599,8|0,0:1|0:1,0:0:0:0:
187,10,22435,2,0,P|168:55|170:105,1,98.9999969787599,4|0,0:3|0:1,0:0:0:0:
240,175,22671,1,8,0:1:0:0:
77,285,22790,2,0,B|142:267|142:267|201:284|201:284|301:257,1,197.99999395752,0|0,0:1|0:1,0:0:0:0:
446,133,23144,6,0,L|349:108,1,98.9999969787599,8|0,0:1|0:1,0:0:0:0:
131,190,23380,2,0,L|227:165,1,98.9999969787599,4|0,0:3|0:1,0:0:0:0:
458,260,23616,2,0,P|405:245|341:259,1,98.9999969787599,8|0,0:1|0:1,0:0:0:0:
150,380,23853,6,0,B|132:315|132:315|149:256|149:256|122:156,1,197.99999395752,4|8,0:3|0:1,0:0:0:0:
381,59,24207,2,0,B|363:124|363:124|380:183|380:183|353:283,1,197.99999395752,0|0,0:1|0:1,0:0:0:0:
50,155,24561,2,0,P|88:115|134:103,1,98.9999969787599,8|0,0:1|0:1,0:0:0:0:
276,235,24797,5,4,0:3:0:0:
40,265,24916,1,0,0:1:0:0:
211,166,25034,2,0,P|254:142|318:149,1,98.9999969787599,8|0,0:1|0:1,0:0:0:0:
450,323,25270,2,0,L|352:311,1,98.9999969787599,4|0,0:3|0:1,0:0:0:0:
112,178,25506,2,0,L|211:166,1,98.9999969787599,8|0,0:1|0:1,0:0:0:0:
469,133,25742,5,4,3:3:0:0:
310,57,25860,1,0,3:1:0:0:
310,57,25919,1,0,3:1:0:0:
310,57,25979,1,8,3:1:0:0:
501,117,26097,1,0,3:1:0:0:
290,156,26215,1,0,3:1:0:0:
439,160,26333,1,0,3:1:0:0:
326,110,26451,1,8,3:1:0:0:
419,78,26569,1,0,3:1:0:0:
459,242,26687,6,0,P|474:286|383:361,1,153.999995300293,4|8,1:1|0:1,0:0:0:0:
333,358,27042,2,0,L|247:349,1,76.9999976501466,0|0,0:1|3:1,0:0:0:0:
202,295,27278,1,0,0:1:0:0:
276,275,27396,1,8,0:1:0:0:
130,217,27514,6,0,B|152:165|152:165|273:145,1,153.999995300293,0|0,3:1|0:1,0:0:0:0:
320,176,27868,2,0,L|337:95,1,76.9999976501466,8|0,0:1|0:1,0:0:0:0:
446,251,28105,2,0,L|429:170,1,76.9999976501466,0|0,0:1|0:1,0:0:0:0:
294,315,28341,2,0,P|333:304|376:309,1,76.9999976501466,8|0,0:1|0:1,0:0:0:0:
505,159,28577,6,0,L|430:175,1,76.9999976501466,0|0,0:1|0:1,0:0:0:0:
219,299,28813,2,0,L|294:315,1,76.9999976501466,8|0,0:1|0:1,0:0:0:0:
279,128,29049,1,0,0:1:0:0:
246,198,29168,1,0,0:1:0:0:
177,163,29286,2,0,P|150:151|88:152,1,76.9999976501466,8|0,0:1|0:1,0:0:0:0:
24,348,29522,5,0,0:1:0:0:
100,338,29640,1,0,0:1:0:0:
154,283,29758,1,8,0:1:0:0:
230,273,29876,2,0,B|273:267|273:267|329:232|329:232|397:224,1,153.999995300293,0|0,0:1|0:1,0:0:0:0:
467,341,30231,2,0,P|427:351|376:338,1,76.9999976501466,8|0,0:1|0:1,0:0:0:0:
482,250,30467,6,0,B|476:206|476:206|441:150|441:150|433:82,1,153.999995300293,4|8,0:1|0:1,0:0:0:0:
375,58,30821,2,0,P|360:91|379:158,1,76.9999976501466,0|0,0:1|0:1,0:0:0:0:
381,205,31057,1,0,0:1:0:0:
234,170,31175,1,8,0:1:0:0:
313,261,31293,2,0,P|274:260|235:271,1,76.9999976501466,0|0,0:1|0:1,0:0:0:0:
85,355,31530,5,0,0:1:0:0:
85,355,31648,2,0,L|97:257,1,76.9999976501466,8|0,0:1|0:1,0:0:0:0:
234,170,31884,2,0,L|143:208,1,76.9999976501466,0|0,0:1|0:1,0:0:0:0:
0,134,32120,2,0,L|78:193,1,76.9999976501466,8|0,0:1|0:1,0:0:0:0:
225,347,32356,6,0,B|269:341|269:341|325:306|325:306|393:298,1,153.999995300293,4|8,1:1|0:1,0:0:0:0:
501,173,32711,2,0,P|464:132|356:136,1,153.999995300293,4|8,1:1|0:1,0:0:0:0:
228,249,33065,2,0,L|153:231,1,76.9999976501466,4|0,1:1|0:1,0:0:0:0:
31,187,33301,5,8,0:1:0:0:
155,147,33419,1,0,0:1:0:0:
155,147,33479,1,0,0:1:0:0:
155,147,33538,1,8,0:1:0:0:
0,102,33656,1,8,0:1:0:0:
161,69,33774,1,8,0:1:0:0:
285,120,33892,1,8,0:3:0:0:
119,155,34010,1,8,0:1:0:0:
252,213,34128,1,8,0:1:0:0:
92,288,34246,6,0,P|187:280|285:329,1,197.99999395752,4|8,1:1|0:1,0:0:0:0:
355,383,34601,1,0,0:1:0:0:
486,169,34719,2,0,L|379:178,1,98.9999969787599,4|0,0:3|0:1,0:0:0:0:
317,107,34955,1,8,0:1:0:0:
412,82,35073,1,0,0:1:0:0:
362,272,35191,6,0,L|461:264,1,98.9999969787599,4|0,0:3|0:1,0:0:0:0:
387,177,35427,1,8,0:1:0:0:
292,202,35545,1,0,0:1:0:0:
436,359,35664,2,0,L|329:368,1,98.9999969787599,4|0,0:3|0:1,0:0:0:0:
267,297,35900,1,8,0:1:0:0:
362,272,36018,1,0,0:1:0:0:
420,96,36136,6,0,P|325:104|227:55,1,197.99999395752,4|8,0:1|0:1,0:0:0:0:
157,1,36491,1,0,0:1:0:0:
26,215,36609,2,0,L|133:206,1,98.9999969787599,4|0,0:3|0:1,0:0:0:0:
195,277,36845,1,8,0:1:0:0:
100,302,36963,1,0,0:1:0:0:
149,111,37081,6,0,L|51:120,1,98.9999969787599,4|0,0:3|0:1,0:0:0:0:
125,207,37317,1,8,0:1:0:0:
220,182,37435,1,0,0:1:0:0:
76,25,37554,2,0,L|183:16,1,98.9999969787599,4|0,0:3|0:1,0:0:0:0:
245,87,37790,1,8,0:1:0:0:
150,112,37908,1,0,0:1:0:0:
414,166,38026,6,0,L|307:157,1,98.9999969787599,4|0,1:1|0:1,0:0:0:0:
245,87,38262,1,8,0:1:0:0:
51,261,38380,2,0,L|158:252,1,98.9999969787599,0|4,0:1|0:3,0:0:0:0:
220,182,38616,1,0,0:1:0:0:
414,356,38734,2,0,L|307:347,1,98.9999969787599,8|0,0:1|0:1,0:0:0:0:
245,277,38970,5,4,0:3:0:0:
439,233,39089,1,0,0:1:0:0:
220,182,39207,2,0,L|327:173,1,98.9999969787599,8|0,0:1|0:1,0:0:0:0:
455,330,39443,2,0,L|348:321,1,98.9999969787599,4|0,0:3|0:1,0:0:0:0:
112,384,39679,2,0,L|219:375,1,98.9999969787599,8|0,0:1|0:1,0:0:0:0:
160,237,39916,6,0,P|105:249|15:128,1,197.99999395752,4|8,1:1|0:1,0:0:0:0:
273,73,40270,2,0,L|387:88,1,98.9999969787599,4|4,1:1|0:3,0:0:0:0:
462,48,40506,1,0,0:1:0:0:
497,211,40624,2,0,P|445:201|384:217,1,98.9999969787599,8|0,0:1|0:1,0:0:0:0:
172,348,40860,6,0,L|297:335,1,98.9999969787599,4|0,0:3|0:1,0:0:0:0:
111,168,41097,2,0,L|-14:155,1,98.9999969787599,8|0,0:1|0:1,0:0:0:0:
273,73,41333,1,4,0:3:0:0:
419,134,41451,1,0,0:1:0:0:
234,175,41569,1,8,0:1:0:0:
425,159,41687,1,0,0:1:0:0:
196,272,41805,6,0,L|97:282,1,98.9999969787599,4|0,1:1|0:1,0:0:0:0:
12,229,42042,1,8,0:1:0:0:
234,175,42160,2,0,L|135:185,1,98.9999969787599,4|0,1:1|0:1,0:0:0:0:
50,132,42397,1,8,0:1:0:0:
272,78,42514,2,0,L|173:88,1,98.9999969787599,4|0,1:1|0:1,0:0:0:0:
12,229,42751,5,4,0:3:0:0:
196,272,42868,1,0,0:1:0:0:
50,132,42986,2,0,L|149:122,1,98.9999969787599,8|0,0:1|0:1,0:0:0:0:
382,310,43223,1,4,0:3:0:0:
198,353,43340,1,0,0:1:0:0:
344,213,43458,2,0,L|245:203,1,98.9999969787599,8|0,0:1|0:1,0:0:0:0:
134,36,43695,5,4,3:1:0:0:
168,30,43754,1,0,3:1:0:0:
202,36,43813,1,0,3:1:0:0:
228,58,43872,1,0,3:1:0:0:
254,80,43931,1,8,3:1:0:0:
288,86,43990,1,0,3:1:0:0:
322,80,44049,2,0,L|378:59,5,49.4999984893799,0|0|4|0|0|0,3:3|3:1|3:3|3:1|3:0|3:0,3:0:0:0:
410,75,44404,2,0,L|466:54,3,49.4999984893799,8|0|0|0,3:1|3:1|3:1|3:1,3:0:0:0:
494,77,44640,1,4,3:3:0:0:
494,77,45585,6,0,B|402:101|402:101|374:167|374:167|281:192,1,263.99999194336,4|8,1:1|0:1,0:0:0:0:
194,106,45939,1,0,0:1:0:0:
0,280,46057,2,0,P|52:272|138:293,1,121.000003692627,4|0,0:3|0:1,0:0:0:0:
222,346,46293,1,8,0:1:0:0:
305,257,46412,1,0,0:1:0:0:
33,88,46530,6,0,L|161:68,1,121.000003692627,4|0,0:3|0:1,0:0:0:0:
424,275,46766,2,0,L|295:255,1,121.000003692627,8|0,0:1|0:1,0:0:0:0:
0,344,47002,2,0,P|52:336|137:355,1,121.000003692627,4|0,0:3|0:1,0:0:0:0:
453,98,47238,2,0,L|297:128,1,121.000003692627,8|0,0:1|0:1,0:0:0:0:
33,51,47475,6,0,B|54:132|54:132|121:164|121:164|152:279,1,242.000007385254,4|8,0:3|0:1,0:0:0:0:
394,276,47829,2,0,P|388:211|342:164,1,121.000003692627,0|4,0:1|0:3,0:0:0:0:
240,380,48065,2,0,L|254:241,1,121.000003692627,0|8,0:1|0:1,0:0:0:0:
28,324,48301,6,0,B|49:242|49:242|116:210|116:210|147:95,1,242.000007385254,0|0,0:1|0:1,0:0:0:0:
61,22,48656,1,8,0:1:0:0:
8,143,48774,1,0,0:1:0:0:
192,251,48892,1,4,0:3:0:0:
139,130,49010,1,0,0:1:0:0:
28,324,49128,2,0,P|90:325|171:356,1,121.000003692627,8|0,0:1|0:1,0:0:0:0:
352,245,49364,6,0,B|260:221|260:221|232:155|232:155|139:130,1,263.99999194336,4|8,1:1|0:1,0:0:0:0:
8,143,49719,1,0,0:1:0:0:
313,33,49837,2,0,P|341:93|330:160,1,121.000003692627,4|0,0:3|0:1,0:0:0:0:
89,344,50073,2,0,L|119:186,1,121.000003692627,8|0,0:1|0:1,0:0:0:0:
427,303,50309,6,0,P|370:339|299:322,1,121.000003692627,4|0,0:3|0:1,0:0:0:0:
112,226,50545,2,0,L|255:218,1,121.000003692627,8|0,0:1|0:1,0:0:0:0:
490,152,50782,2,0,L|342:144,1,121.000003692627,4|0,0:3|0:1,0:0:0:0:
17,62,51018,2,0,P|58:42|154:51,1,121.000003692627,8|0,0:1|0:1,0:0:0:0:
313,33,51254,6,0,B|291:125|291:125|226:154|226:154|201:247,1,263.99999194336,4|8,1:1|0:1,0:0:0:0:
501,356,51608,2,0,B|479:263|479:263|414:234|414:234|389:141,1,263.99999194336,4|8,1:1|0:1,0:0:0:0:
139,24,51963,2,0,P|119:84|137:160,1,131.99999597168,4|0,1:0|0:0,0:0:0:0:
236,216,52199,5,4,0:3:0:0:
457,153,52317,1,0,3:1:0:0:
240,94,52435,2,0,P|290:106|357:186,1,121.000003692627,8|0,0:1|0:0,0:0:0:0:
422,331,52672,1,4,3:3:0:0:
388,344,52731,1,0,3:0:0:0:
353,353,52790,1,0,3:0:0:0:
316,351,52849,1,0,3:0:0:0:
280,344,52908,2,0,L|226:316,3,60.5000018463135,8|0|0|0,3:1|3:1|3:1|3:1,0:0:0:0:
206,282,53144,6,0,B|180:191|180:191|224:133|224:133|199:40,1,263.99999194336,4|8,1:1|0:1,0:0:0:0:
99,108,53498,1,0,0:1:0:0:
293,207,53616,2,0,L|430:182,1,121.000003692627,4|0,0:3|0:1,0:0:0:0:
498,271,53853,1,8,0:1:0:0:
381,302,53971,1,0,0:1:0:0:
512,96,54089,6,0,L|375:71,1,121.000003692627,4|0,0:3|0:1,0:0:0:0:
272,52,54325,1,8,0:1:0:0:
314,166,54443,1,0,0:1:0:0:
75,210,54561,2,0,L|212:185,1,121.000003692627,4|0,0:3|0:1,0:0:0:0:
314,166,54797,1,8,0:1:0:0:
273,280,54915,1,0,0:1:0:0:
424,215,55034,6,0,P|437:157|416:101,1,121.000003692627,4|0,0:3|0:1,0:0:0:0:
314,166,55270,1,8,0:1:0:0:
308,46,55388,1,0,0:1:0:0:
84,237,55506,2,0,P|70:179|91:123,1,121.000003692627,4|0,0:3|0:1,0:0:0:0:
194,188,55742,1,8,0:1:0:0:
200,68,55860,1,0,0:1:0:0:
424,215,55979,6,0,L|418:335,1,121.000003692627,4|0,0:3|0:1,0:0:0:0:
194,188,56215,2,0,L|199:67,1,121.000003692627,8|0,0:1|0:1,0:0:0:0:
298,235,56451,2,0,L|292:355,1,121.000003692627,4|0,0:3|0:1,0:0:0:0:
68,208,56687,2,0,L|73:87,1,121.000003692627,8|0,0:1|0:1,0:0:0:0:
301,29,56923,6,0,B|321:110|321:110|278:171|278:171|299:252,1,242.000007385254,4|8,1:1|0:1,0:0:0:0:
453,352,57278,2,0,P|475:291|452:200,1,121.000003692627,0|4,0:1|0:3,0:0:0:0:
164,35,57514,2,0,L|195:163,1,121.000003692627,0|8,0:1|0:1,0:0:0:0:
87,364,57750,6,0,B|66:282|66:282|109:221|109:221|88:140,1,242.000007385254,4|0,1:1|0:1,0:0:0:0:
352,39,58105,2,0,P|360:97|325:167,1,121.000003692627,8|0,0:1|0:1,0:0:0:0:
208,298,58341,1,4,0:3:0:0:
481,333,58459,2,0,L|457:198,1,121.000003692627,0|8,0:1|0:1,0:0:0:0:
255,85,58695,1,0,0:1:0:0:
208,298,58813,6,0,B|180:352|180:352|108:364,1,121.000003692627,4|0,1:1|0:1,0:0:0:0:
113,197,59049,1,8,0:1:0:0:
371,180,59168,2,0,B|432:177|432:177|478:234,1,121.000003692627,4|0,1:1|0:1,0:0:0:0:
331,313,59404,1,8,0:1:0:0:
188,97,59521,2,0,B|155:46|155:46|181:-22,1,121.000003692627,4|0,1:1|0:1,0:0:0:0:
323,65,59757,5,4,3:3:0:0:
331,313,59876,1,0,3:1:0:0:
388,128,59994,1,8,3:1:0:0:
262,274,60112,1,0,3:1:0:0:
241,296,60171,1,0,3:1:0:0:
221,319,60231,2,0,B|190:334|190:334|131:324,2,80.6666691284181,4|0|0,3:3|3:1|3:1,0:0:0:0:
331,313,60467,2,0,B|362:298|362:298|421:308,2,80.6666691284181,8|0|0,3:1|3:1|3:1,0:0:0:0:
496,167,60703,6,0,B|415:147|415:147|354:190|354:190|273:169,1,242.000007385254,4|8,1:1|0:1,0:0:0:0:
200,48,61057,2,0,P|256:22|340:40,1,121.000003692627,0|4,0:1|0:3,0:0:0:0:
221,319,61293,2,0,L|88:331,1,121.000003692627,0|8,0:1|0:1,0:0:0:0:
16,167,61530,6,0,B|97:147|97:147|158:190|158:190|239:169,1,242.000007385254,4|0,1:1|0:1,0:0:0:0:
312,48,61884,2,0,P|256:22|172:40,1,121.000003692627,8|0,0:1|0:1,0:0:0:0:
291,319,62120,1,4,0:3:0:0:
465,97,62238,2,0,B|439:142|439:142|470:233,1,121.000003692627,0|8,0:1|0:1,0:0:0:0:
504,321,62475,1,0,0:1:0:0:
291,319,62593,6,0,B|225:300|225:300|185:96,1,242.000007385254,4|8,1:1|0:1,0:0:0:0:
394,4,62947,2,0,P|424:59|326:210,1,242.000007385254,4|8,1:1|0:1,0:0:0:0:
126,202,63301,2,0,P|104:88|228:38,1,242.000007385254,4|8,1:1|0:1,0:0:0:0:
408,328,63656,2,0,L|156:311,1,242.000007385254,4|8,1:1|0:1,0:0:0:0:
191,129,64010,2,0,P|248:94|316:93,1,121.000003692627,4|0,1:1|0:1,0:0:0:0:
468,111,64246,1,8,0:1:0:0:
366,246,64364,1,0,0:1:0:0:
166,311,64482,6,0,L|7:300,1,121.000003692627,4|0,1:1|0:1,0:0:0:0:
115,202,64719,1,8,0:1:0:0:
346,247,64837,2,0,L|504:236,1,121.000003692627,4|0,1:1|0:1,0:0:0:0:
397,138,65074,1,8,0:1:0:0:
166,183,65191,2,0,L|7:172,1,121.000003692627,4|0,1:1|0:1,0:0:0:0:
115,74,65428,1,8,0:1:0:0:
346,119,65545,5,4,1:1:0:0:
466,110,65663,1,8,3:1:0:0:
397,10,65782,1,8,3:1:0:0:
415,219,65900,1,12,3:1:0:0:
415,219,66372,6,0,P|361:223|254:288,1,176,4|8,1:1|0:1,0:0:0:0:
190,341,66727,1,0,0:1:0:0:
127,278,66845,2,0,L|111:187,1,88,0|0,3:1|0:1,0:0:0:0:
25,173,67081,2,0,L|41:264,1,88,8|0,0:1|0:1,0:0:0:0:
198,192,67317,6,0,B|263:175|263:175|283:141|283:141|376:116,1,176,0|8,3:1|0:1,0:0:0:0:
482,291,67671,2,0,P|441:315|380:309,1,88,0|0,0:1|3:1,0:0:0:0:
314,296,67908,1,0,0:1:0:0:
375,232,68026,1,8,0:1:0:0:
219,60,68144,6,0,B|236:125|236:125|270:145|270:145|289:212,1,176,0|0,0:1|0:1,0:0:0:0:
228,276,68498,2,0,P|181:293|139:290,1,88,8|0,0:1|0:1,0:0:0:0:
63,255,68734,1,0,3:1:0:0:
135,204,68853,1,0,0:1:0:0:
220,357,68971,2,0,L|318:364,1,88,8|0,0:1|0:1,0:0:0:0:
475,177,69207,6,0,B|410:194|410:194|390:228|390:228|323:246,1,176,0|8,3:1|0:1,0:0:0:0:
260,183,69561,1,0,0:1:0:0:
193,240,69679,2,0,P|176:199|180:151,1,88,0|0,3:1|0:1,0:0:0:0:
244,97,69916,1,8,0:1:0:0:
24,23,70034,6,0,B|42:89|42:89|76:109|76:109|93:174,1,176,4|0,0:1|0:1,0:0:0:0:
30,237,70388,2,0,L|51:322,1,88,8|0,0:1|0:1,0:0:0:0:
216,302,70624,2,0,P|183:273|140:265,1,88,0|0,3:1|0:1,0:0:0:0:
349,188,70860,2,0,L|257:204,1,88,8|0,0:1|0:1,0:0:0:0:
152,44,71097,6,0,B|218:62|218:62|238:96|238:96|303:113,1,176,0|8,3:1|0:1,0:0:0:0:
392,111,71451,1,0,3:1:0:0:
349,188,71569,1,0,3:1:0:0:
437,187,71687,1,0,3:1:0:0:
395,264,71806,2,0,L|294:266,1,88,8|0,3:1|3:1,0:0:0:0:
172,196,72042,5,4,3:0:0:0:
172,196,73341,5,0,3:1:0:0:
165,175,73400,1,0,3:1:0:0:
158,154,73459,1,8,3:1:0:0:
211,71,73577,1,8,3:1:0:0:
296,121,73695,1,8,3:1:0:0:
333,29,73813,1,8,3:1:0:0:
472,200,73931,6,0,P|384:192|268:293,1,220,4|8,1:1|0:1,0:0:0:0:
240,368,74286,1,0,0:1:0:0:
349,351,74404,1,4,0:3:0:0:
172,282,74522,1,0,0:1:0:0:
349,351,74640,2,0,L|459:330,1,110,8|0,0:1|0:1,0:0:0:0:
444,50,74876,6,0,B|380:67|380:67|321:124|321:124|252:143,1,220,4|8,0:3|0:1,0:0:0:0:
71,31,75231,2,0,P|132:74|127:215,1,220,0|0,0:1|0:1,0:0:0:0:
72,301,75585,1,8,0:1:0:0:
345,335,75703,6,0,B|327:271|327:271|270:212|270:212|251:143,1,220,0|0,0:3|0:1,0:0:0:0:
292,41,76057,2,0,P|349:33|421:61,1,110,8|0,0:1|0:1,0:0:0:0:
131,208,76293,2,0,L|3:192,1,110,4|0,0:3|0:1,0:0:0:0:
235,348,76530,1,8,0:1:0:0:
344,334,76648,1,0,0:1:0:0:
131,208,76766,6,0,P|112:260|134:322,1,110,4|0,0:3|0:1,0:0:0:0:
367,142,77002,2,0,L|345:32,1,110,8|0,0:1|0:1,0:0:0:0:
9,135,77238,2,0,B|73:153|73:153|132:210|132:210|201:229,1,220,4|8,0:3|0:1,0:0:0:0:
367,142,77593,2,0,P|312:72|164:84,1,220,0|0,0:1|0:1,0:0:0:0:
125,311,77947,6,0,L|253:303,1,110,8|0,0:1|0:1,0:0:0:0:
494,221,78183,2,0,L|366:213,1,110,4|0,0:3|0:1,0:0:0:0:
9,135,78419,2,0,L|137:127,1,110,8|0,0:1|0:1,0:0:0:0:
290,22,78656,6,0,B|308:86|308:86|365:145|365:145|384:214,1,220,4|8,0:3|0:1,0:0:0:0:
107,366,79010,2,0,B|125:302|125:302|182:243|182:243|201:174,1,220,0|0,0:1|0:1,0:0:0:0:
494,220,79364,2,0,P|437:310|332:312,1,220,8|4,0:1|0:3,0:0:0:0:
239,252,79719,1,0,0:1:0:0:
107,366,79837,2,0,L|216:359,1,110,8|0,0:1|0:1,0:0:0:0:
446,208,80073,2,0,L|337:202,1,110,4|0,0:3|0:1,0:0:0:0:
129,257,80309,2,0,L|239:251,1,110,8|0,0:1|0:1,0:0:0:0:
159,78,80545,5,4,3:3:0:0:
35,59,80664,1,0,3:1:0:0:
35,59,80723,1,0,3:1:0:0:
35,59,80782,1,8,3:1:0:0:
212,151,80900,1,0,3:1:0:0:
27,176,81018,1,0,3:1:0:0:
151,219,81136,1,0,3:1:0:0:
36,284,81254,1,8,3:1:0:0:
150,246,81372,1,0,3:1:0:0:
231,335,81490,6,0,P|294:357|351:352,1,110,12|0,0:1|0:1,0:0:0:0:
403,329,81845,1,0,0:1:0:0:
307,223,82081,1,0,0:1:0:0:
444,184,82317,2,0,P|417:123|328:84,1,165,0|0,0:1|0:1,0:0:0:0:
195,132,82908,1,0,0:1:0:0:
72,59,83144,1,0,0:1:0:0:
43,235,83380,6,0,L|67:351,1,110,12|0,0:1|0:1,0:0:0:0:
131,369,83734,1,0,0:1:0:0:
232,267,83971,1,0,0:1:0:0:
217,197,84089,1,0,0:1:0:0:
187,57,84325,6,0,P|229:32|291:35,1,110,0|0,0:1|0:1,0:0:0:0:
351,68,84679,1,0,0:1:0:0:
351,68,85034,1,0,0:1:0:0:
327,135,85152,1,0,0:1:0:0:
377,185,85270,6,0,L|490:172,1,110,12|0,0:1|0:1,0:0:0:0:
397,299,85624,2,0,L|284:286,2,110,0|0|0,0:1|0:1|0:1,0:0:0:0:
397,299,86451,1,0,0:1:0:0:
300,194,86687,1,0,0:1:0:0:
158,174,86923,1,0,0:1:0:0:
88,193,87042,1,0,0:1:0:0:
51,254,87160,6,0,L|33:366,1,110,12|0,0:1|0:1,0:0:0:0:
158,174,87514,2,0,L|140:62,1,110,8|0,0:1|0:1,0:0:0:0:
241,279,87868,2,0,P|292:298|358:295,1,110,12|0,0:1|0:1,0:0:0:0:
469,237,88341,1,0,0:1:0:0:
486,169,88459,1,0,0:1:0:0:
464,102,88577,1,0,0:1:0:0:
409,58,88695,1,0,0:1:0:0:
338,52,88813,1,0,0:1:0:0:
273,79,88931,1,0,0:1:0:0:
247,145,89049,6,0,L|226:288,1,131.99999597168,4|8,1:1|0:1,0:0:0:0:
288,336,89404,1,0,0:1:0:0:
80,224,89522,2,0,P|125:211|151:217,1,65.9999979858399,4|0,0:3|0:1,0:0:0:0:
353,347,89758,2,0,L|283:335,1,65.9999979858399,8|0,0:1|0:1,0:0:0:0:
416,225,89994,6,0,L|395:82,1,131.99999597168,4|8,0:3|0:1,0:0:0:0:
396,94,90467,1,4,0:3:0:0:
321,52,90585,1,0,0:1:0:0:
235,62,90703,2,0,P|193:70|162:87,1,65.9999979858399,8|0,0:1|0:1,0:0:0:0:
36,192,90939,6,0,B|82:204|82:204|104:230|104:230|166:247,1,131.99999597168,4|8,1:1|0:1,0:0:0:0:
228,204,91293,1,0,0:1:0:0:
380,343,91412,2,0,P|344:334|298:339,1,65.9999979858399,4|0,0:3|0:1,0:0:0:0:
463,223,91648,2,0,L|382:236,1,65.9999979858399,8|0,0:1|0:1,0:0:0:0:
199,349,91884,6,0,B|211:302|211:302|237:280|237:280|254:218,1,131.99999597168,4|8,0:3|0:1,0:0:0:0:
211,157,92238,1,0,0:1:0:0:
76,294,92357,2,0,L|65:359,1,65.9999979858399,4|0,0:3|0:1,0:0:0:0:
325,272,92593,2,0,P|335:241|333:209,1,65.9999979858399,8|0,0:1|0:1,0:0:0:0:
164,13,92829,6,0,B|170:56|170:56|205:112|205:112|211:157,1,153.999995300293,4|8,1:1|0:1,0:0:0:0:
325,272,93183,2,0,P|277:273|177:329,1,153.999995300293,0|0,0:1|0:1,0:0:0:0:
40,214,93538,2,0,L|129:223,1,76.9999976501466,8|0,0:1|0:1,0:0:0:0:
382,143,93774,2,0,L|293:152,1,76.9999976501466,4|0,0:3|0:1,0:0:0:0:
9,67,94010,2,0,L|98:76,1,76.9999976501466,8|0,0:1|0:1,0:0:0:0:
251,272,94246,1,4,0:3:0:0:
316,347,94364,1,0,0:1:0:0:
218,367,94482,1,8,0:1:0:0:
218,367,94719,6,0,B|235:302|235:302|269:282|269:282|294:189,1,176,4|8,1:1|0:1,0:0:0:0:
119,93,95073,2,0,P|105:135|115:186,1,88,0|4,0:1|0:3,0:0:0:0:
160,250,95309,1,0,0:1:0:0:
385,358,95427,2,0,L|361:265,1,88,8|0,0:1|0:1,0:0:0:0:
181,164,95664,6,0,L|160:250,1,88,4|0,0:3|0:1,0:0:0:0:
291,365,95900,2,0,L|269:279,1,88,8|0,0:1|0:1,0:0:0:0:
52,287,96136,1,4,0:3:0:0:
160,250,96254,1,0,0:1:0:0:
138,362,96372,1,8,0:1:0:0:
74,175,96490,1,0,0:1:0:0:
267,213,96608,6,0,B|332:195|332:195|391:212|391:212|491:185,1,197.99999395752,4|8,1:1|0:1,0:0:0:0:
232,191,96963,2,0,B|215:256|215:256|171:298|171:298|144:399,1,197.99999395752,4|8,1:1|0:1,0:0:0:0:
268,171,97317,2,0,B|220:124|220:124|205:65|205:65|132:-8,1,197.99999395752,4|8,1:1|0:1,0:0:0:0:
30,188,97671,6,0,P|85:231|205:207,1,197.99999395752,4|0,1:1|0:1,0:0:0:0:
377,342,98026,2,0,L|252:326,1,98.9999969787599,4|0,1:1|0:1,0:0:0:0:
371,149,98262,2,0,L|496:133,1,98.9999969787599,8|0,3:0|3:0,0:0:0:0:
256,28,98498,5,4,3:0:0:0:
256,28,98853,1,4,3:0:0:0:
259,31,99207,1,4,3:0:0:0:
259,31,99443,1,4,3:0:0:0:
180,116,99916,5,8,0:1:0:0:
332,116,100034,1,8,0:1:0:0:
180,268,100152,1,8,0:1:0:0:
332,268,100270,1,8,0:1:0:0:
256,28,100388,6,0,B|256:124|256:124|200:167|200:167|200:272,1,263.99999194336,4|8,1:1|0:1,0:0:0:0:
293,357,100742,1,0,0:1:0:0:
488,192,100860,2,0,P|444:168|335:177,1,121.000003692627,4|0,0:3|0:1,0:0:0:0:
37,82,101097,2,0,L|171:68,1,121.000003692627,8|0,0:1|0:1,0:0:0:0:
452,280,101333,6,0,L|332:268,1,121.000003692627,4|0,0:3|0:1,0:0:0:0:
46,363,101569,2,0,L|166:350,1,121.000003692627,8|0,0:1|0:1,0:0:0:0:
488,138,101805,2,0,P|428:138|374:163,1,121.000003692627,4|0,0:3|0:1,0:0:0:0:
94,157,102042,2,0,P|148:188|178:252,1,121.000003692627,8|0,0:1|0:1,0:0:0:0:
478,47,102278,6,0,B|316:36|316:36|256:88,1,242.000007385254,4|8,0:3|0:1,0:0:0:0:
344,270,102632,2,0,P|377:221|374:162,1,121.000003692627,0|4,0:1|0:3,0:0:0:0:
75,37,102868,2,0,L|93:156,1,121.000003692627,0|8,0:1|0:1,0:0:0:0:
34,354,103105,6,0,B|115:333|115:333|147:266|147:266|262:235,1,242.000007385254,0|0,0:1|0:1,0:0:0:0:
355,312,103459,1,8,0:1:0:0:
410,178,103577,1,0,0:1:0:0:
173,110,103695,1,4,0:3:0:0:
228,244,103813,1,0,0:1:0:0:
317,130,103931,2,0,P|329:88|319:11,1,121.000003692627,8|0,0:1|0:1,0:0:0:0:
14,247,104168,6,0,B|106:222|106:222|162:264|162:264|264:237,1,263.99999194336,4|8,1:1|0:1,0:0:0:0:
317,130,104522,1,0,0:1:0:0:
473,319,104640,2,0,P|413:326|355:312,1,121.000003692627,4|0,0:3|0:1,0:0:0:0:
79,84,104876,2,0,L|198:107,1,121.000003692627,8|0,0:1|0:1,0:0:0:0:
509,12,105112,6,0,P|449:12|393:34,1,121.000003692627,4|0,0:3|0:1,0:0:0:0:
69,135,105349,2,0,P|129:134|185:156,1,121.000003692627,8|0,0:1|0:1,0:0:0:0:
488,245,105585,2,0,L|342:217,1,121.000003692627,4|0,0:3|0:1,0:0:0:0:
90,367,105822,2,0,L|236:339,1,121.000003692627,8|0,0:1|0:1,0:0:0:0:
512,60,106057,6,0,B|418:41|418:41|365:90|365:90|269:74,1,263.99999194336,4|8,1:1|0:1,0:0:0:0:
0,324,106412,2,0,B|93:342|93:342|146:293|146:293|242:309,1,263.99999194336,4|8,1:1|0:1,0:0:0:0:
371,331,106766,1,4,1:1:0:0:
325,207,106884,1,0,0:0:0:0:
168,375,107002,5,4,0:3:0:0:
201,246,107120,1,0,3:1:0:0:
84,354,107238,1,8,3:1:0:0:
307,314,107356,1,0,3:1:0:0:
183,309,107475,1,4,3:3:0:0:
198,279,107534,1,0,3:0:0:0:
201,246,107593,1,0,3:0:0:0:
194,213,107652,1,0,3:0:0:0:
172,187,107711,1,8,3:1:0:0:
150,161,107770,1,0,3:1:0:0:
143,128,107829,1,0,3:1:0:0:
146,95,107888,1,0,3:1:0:0:
161,65,107947,6,0,B|253:90|253:90|309:48|309:48|404:73,1,263.99999194336,4|8,1:1|0:1,0:0:0:0:
466,176,108301,1,0,0:1:0:0:
256,356,108419,2,0,P|232:301|244:243,1,121.000003692627,4|0,0:3|0:1,0:0:0:0:
466,176,108656,2,0,L|443:302,1,121.000003692627,8|0,0:1|0:1,0:0:0:0:
58,316,108892,6,0,B|79:235|79:235|146:203|146:203|177:88,1,242.000007385254,4|8,0:3|0:1,0:0:0:0:
82,36,109246,1,0,0:1:0:0:
315,16,109364,2,0,B|336:97|336:97|403:129|403:129|434:244,1,242.000007385254,4|8,0:3|0:1,0:0:0:0:
339,296,109718,1,0,0:1:0:0:
178,331,109837,6,0,L|35:313,1,121.000003692627,4|0,0:3|0:1,0:0:0:0:
20,200,110073,1,8,0:1:0:0:
138,225,110191,1,0,0:1:0:0:
301,369,110309,2,0,L|444:351,1,121.000003692627,4|0,0:3|0:1,0:0:0:0:
459,238,110545,1,8,0:1:0:0:
341,263,110663,1,0,0:1:0:0:
178,331,110782,6,0,L|35:313,1,121.000003692627,4|0,0:3|0:1,0:0:0:0:
341,263,111018,2,0,L|479:233,1,121.000003692627,8|0,0:1|0:1,0:0:0:0:
159,158,111254,2,0,P|103:148|36:177,1,121.000003692627,4|0,0:3|0:1,0:0:0:0:
218,24,111490,1,8,0:1:0:0:
316,93,111608,1,0,0:1:0:0:
437,78,111727,6,0,B|415:159|415:159|348:191|348:191|327:272,1,242.000007385254,4|8,1:1|0:1,0:0:0:0:
441,370,112081,2,0,P|470:314|463:253,1,121.000003692627,0|4,0:1|0:3,0:0:0:0:
218,24,112317,2,0,L|249:157,1,121.000003692627,0|8,0:1|0:1,0:0:0:0:
42,330,112553,6,0,B|63:248|63:248|130:216|130:216|151:135,1,242.000007385254,4|0,1:1|0:1,0:0:0:0:
38,38,112907,2,0,P|9:94|16:155,1,121.000003692627,8|0,0:1|0:1,0:0:0:0:
261,384,113143,2,0,L|230:251,1,121.000003692627,4|0,0:3|0:1,0:0:0:0:
381,32,113380,2,0,L|350:165,1,121.000003692627,8|0,0:1|0:1,0:0:0:0:
478,343,113616,6,0,P|471:283|446:229,1,121.000003692627,4|0,1:1|0:1,0:0:0:0:
353,149,113853,1,8,0:1:0:0:
206,384,113971,2,0,L|237:251,1,121.000003692627,4|0,1:1|0:1,0:0:0:0:
353,149,114207,1,8,0:1:0:0:
76,143,114325,2,0,P|130:117|203:109,1,121.000003692627,4|0,1:1|0:1,0:0:0:0:
478,343,114561,6,0,L|345:321,1,121.000003692627,4|0,0:3|3:1,0:0:0:0:
161,246,114797,1,8,3:1:0:0:
353,149,114916,1,0,3:1:0:0:
353,149,114975,1,0,3:1:0:0:
353,149,115034,2,0,B|390:131|390:131|486:127,2,80.6666691284181,4|0|0,3:3|3:1|3:1,0:0:0:0:
278,223,115270,2,0,B|241:241|241:241|145:245,2,80.6666691284181,8|0|0,3:1|3:1|3:1,0:0:0:0:
252,121,115506,6,0,P|200:53|44:86,1,242.000007385254,4|8,1:1|0:1,0:0:0:0:
18,275,115860,2,0,L|144:290,1,121.000003692627,0|4,0:1|0:3,0:0:0:0:
398,208,116097,2,0,L|272:223,1,121.000003692627,0|8,0:1|0:1,0:0:0:0:
261,50,116333,6,0,P|372:20|455:101,1,242.000007385254,4|0,1:1|0:1,0:0:0:0:
487,345,116687,2,0,L|361:330,1,121.000003692627,8|0,0:1|0:1,0:0:0:0:
198,154,116924,2,0,P|261:145|324:169,1,121.000003692627,4|0,0:3|0:0,0:0:0:0:
92,357,117160,2,0,B|48:323|48:323|28:229,1,121.000003692627,8|0,0:1|0:1,0:0:0:0:
291,65,117396,6,0,B|225:84|225:84|191:254,1,242.000007385254,4|8,1:1|0:1,0:0:0:0:
393,380,117750,2,0,P|424:267|348:180,1,242.000007385254,4|8,1:1|0:1,0:0:0:0:
125,182,118104,2,0,P|102:293|199:352,1,242.000007385254,4|8,1:1|0:1,0:0:0:0:
408,56,118459,2,0,L|166:72,1,242.000007385254,4|8,1:1|0:1,0:0:0:0:
190,254,118813,2,0,P|241:287|300:293,1,121.000003692627,4|0,1:1|0:1,0:0:0:0:
468,273,119049,1,8,0:1:0:0:
366,138,119167,1,0,0:1:0:0:
166,72,119286,6,0,L|143:312,1,242.000007385254,4|8,1:1|0:1,0:0:0:0:
258,48,119640,2,0,L|235:288,1,242.000007385254,4|8,1:1|0:1,0:0:0:0:
350,24,119994,1,4,1:1:0:0:
338,144,120112,1,0,0:1:0:0:
449,95,120230,1,8,0:1:0:0:
264,76,120349,1,4,1:1:0:0:
275,196,120467,1,0,3:1:0:0:
165,147,120585,1,8,3:1:0:0:
176,267,120703,1,4,1:1:0:0:
176,267,121175,6,0,P|203:329|348:326,1,220,4|8,1:1|0:1,0:0:0:0:
420,258,121530,1,0,0:1:0:0:
232,178,121648,2,0,P|170:162|108:188,1,110,4|0,0:3|0:1,0:0:0:0:
66,266,121884,1,8,0:1:0:0:
28,40,122002,6,0,B|95:40|95:40|167:80|167:80|259:80,1,220,0|0,0:1|0:1,0:0:0:0:
420,258,122356,2,0,P|367:302|219:266,1,220,8|4,0:1|0:3,0:0:0:0:
181,175,122711,1,0,0:1:0:0:
32,379,122829,2,0,L|162:373,1,110,8|0,0:1|0:1,0:0:0:0:
390,134,123065,6,0,B|323:135|323:135|251:174|251:174|181:175,1,220,4|8,0:3|0:1,0:0:0:0:
28,40,123419,2,0,P|143:28|233:105,1,220,0|0,0:1|0:1,0:0:0:0:
298,341,123774,2,0,B|229:322|229:322|170:265|170:265|105:247,1,220,8|4,0:1|0:3,0:0:0:0:
13,306,124128,1,0,0:1:0:0:
222,87,124246,2,0,P|241:140|207:214,1,110,8|0,0:1|0:1,0:0:0:0:
13,306,124482,2,0,L|31:180,1,110,4|0,0:3|0:1,0:0:0:0:
313,232,124719,2,0,L|295:358,1,110,8|0,0:1|0:1,0:0:0:0:
151,84,124955,6,0,B|218:85|218:85|290:124|290:124|360:125,1,220,4|8,1:1|0:1,0:0:0:0:
438,47,125309,1,0,0:1:0:0:
438,47,125427,2,0,P|468:100|463:166,1,110,4|0,0:3|0:1,0:0:0:0:
297,340,125664,2,0,L|313:232,1,110,8|0,0:1|0:1,0:0:0:0:
361,84,125900,6,0,B|294:85|294:85|222:124|222:124|152:125,1,220,4|8,0:3|0:1,0:0:0:0:
74,47,126254,1,0,0:1:0:0:
74,47,126372,2,0,P|44:100|49:166,1,110,4|0,0:3|0:1,0:0:0:0:
214,340,126609,2,0,L|199:232,1,110,8|0,0:1|0:1,0:0:0:0:
391,352,126845,6,0,B|372:283|372:283|315:224|315:224|297:159,1,220,4|8,1:1|0:1,0:0:0:0:
494,0,127199,2,0,B|475:69|475:69|418:128|418:128|400:193,1,220,4|0,1:1|0:1,0:0:0:0:
285,322,127553,1,8,0:1:0:0:
220,170,127671,1,0,3:1:0:0:
174,366,127790,1,4,3:3:0:0:
297,160,127908,6,0,P|243:95|146:191,1,220,4|0,1:1|3:1,0:0:0:0:
174,366,128262,1,4,0:3:0:0:
205,344,128321,1,0,0:1:0:0:
242,335,128380,1,0,0:1:0:0:
280,335,128439,1,0,0:1:0:0:
315,350,128498,1,8,0:1:0:0:
350,365,128557,1,0,0:1:0:0:
388,365,128616,1,0,0:1:0:0:
425,356,128675,1,0,0:1:0:0:
456,334,128734,6,0,B|437:265|437:265|380:206|380:206|362:141,1,220,4|8,1:1|0:1,0:0:0:0:
244,24,129089,2,0,B|225:93|225:93|168:152|168:152|150:217,1,220,0|0,0:1|0:1,0:0:0:0:
239,354,129443,2,0,P|302:282|265:175,1,220,8|4,0:1|0:3,0:0:0:0:
147,58,129797,1,0,0:1:0:0:
29,175,129916,2,0,L|59:280,1,110,8|0,0:1|0:1,0:0:0:0:
332,341,130152,2,0,B|355:290|355:290|325:221,1,110,4|0,0:3|0:1,0:0:0:0:
257,94,130388,1,8,0:1:0:0:
169,233,130506,1,0,0:1:0:0:
75,41,130624,6,0,B|94:110|94:110|151:169|151:169|169:234,1,220,4|8,1:1|0:1,0:0:0:0:
268,360,130979,2,0,B|287:291|287:291|344:232|344:232|362:167,1,220,0|0,0:1|0:1,0:0:0:0:
289,17,131333,2,0,P|226:89|263:196,1,220,8|4,0:1|0:3,0:0:0:0:
365,326,131687,1,0,0:1:0:0:
483,209,131806,2,0,L|453:104,1,110,8|0,0:1|0:1,0:0:0:0:
264,196,132042,2,0,B|241:247|241:247|262:319,1,110,4|0,0:3|0:1,0:0:0:0:
26,333,132278,2,0,L|52:225,1,110,8|0,0:1|0:1,0:0:0:0:
168,342,132514,5,4,1:1:0:0:
331,324,132632,1,0,0:1:0:0:
198,270,132750,1,8,0:1:0:0:
285,257,132868,5,0,0:1:0:0:
122,239,132986,1,4,0:3:0:0:
255,185,133104,1,0,0:1:0:0:
168,172,133223,5,8,0:1:0:0:
331,154,133341,1,0,0:1:0:0:
198,100,133459,1,4,0:3:0:0:
285,87,133577,5,0,0:1:0:0:
122,69,133695,1,8,0:1:0:0:
255,15,133813,1,0,0:1:0:0:
394,47,133931,2,0,L|417:167,1,110,4|0,0:3|0:1,0:0:0:0:
118,337,134168,2,0,L|95:217,1,110,8|0,0:1|0:1,0:0:0:0:
168,42,134404,5,4,1:1:0:0:
331,60,134522,1,0,0:1:0:0:
198,114,134640,1,8,0:1:0:0:
285,127,134758,5,0,0:1:0:0:
122,145,134876,1,4,0:3:0:0:
255,199,134994,1,0,0:1:0:0:
168,212,135113,5,8,0:1:0:0:
331,230,135231,1,0,0:1:0:0:
198,284,135349,1,4,0:3:0:0:
285,297,135467,5,0,0:1:0:0:
122,315,135585,1,8,0:1:0:0:
255,369,135703,1,0,0:1:0:0:
394,337,135821,2,0,L|417:217,1,110,4|0,0:3|0:1,0:0:0:0:
118,47,136058,2,0,L|95:167,1,110,8|0,0:1|0:1,0:0:0:0:
255,369,136293,6,0,B|274:300|274:300|331:241|331:241|349:176,1,220,4|8,1:1|0:1,0:0:0:0:
231,59,136648,1,0,0:1:0:0:
114,175,136766,2,0,P|95:226|112:295,1,110,4|0,0:3|0:1,0:0:0:0:
434,370,137002,2,0,L|414:251,1,110,8|0,0:1|0:1,0:0:0:0:
257,15,137238,6,0,B|238:84|238:84|181:143|181:143|163:208,1,220,4|8,1:1|0:1,0:0:0:0:
441,289,137593,2,0,B|390:238|390:238|368:159|368:159|320:111,1,220,4|0,1:1|0:1,0:0:0:0:
79,303,137947,2,0,P|138:293|194:308,1,110,8|0,0:1|0:1,0:0:0:0:
339,365,138183,5,4,1:1:0:0:
491,303,138301,1,0,0:1:0:0:
274,262,138419,1,8,0:1:0:0:
426,200,138537,1,0,0:1:0:0:
452,192,138597,1,0,0:1:0:0:
478,185,138656,2,0,B|493:151|493:151|481:93,2,73.3333333333333,4|0|0,0:3|0:1|0:1,0:0:0:0:
399,106,138892,2,0,B|384:72|384:72|396:14,2,73.3333333333333,8|0|0,0:1|0:1|0:1,0:0:0:0:
326,178,139128,6,0,B|144:228|144:228|287:39|287:39|106:89,1,615.999981201173,0|0,3:3|0:1,0:0:0:0:
428,192,147632,5,4,1:0:0:0:
360,104,148105,1,4,3:0:0:0:
256,64,148577,1,4,3:0:0:0:
152,104,149049,1,4,3:0:0:0:
84,192,149522,5,4,3:0:0:0:
152,280,149995,1,4,3:0:0:0:
256,320,150467,1,4,3:0:0:0:
360,280,150939,1,4,3:0:0:0:
428,192,151412,5,4,1:1:0:0:
320,178,151648,1,0,1:1:0:0:
228,238,151884,1,0,1:1:0:0:
120,224,152120,1,0,1:1:0:0:
60,61,152356,5,0,1:1:0:0:
168,47,152592,1,0,1:1:0:0:
260,107,152828,1,0,1:1:0:0:
368,93,153064,1,0,1:1:0:0:
488,252,153301,6,0,L|316:268,1,153.999995300293,4|8,1:1|0:1,0:0:0:0:
223,127,153656,2,0,L|395:143,1,153.999995300293,4|8,1:1|0:1,0:0:0:0:
313,340,154010,2,0,L|141:356,1,153.999995300293,4|8,1:1|0:1,0:0:0:0:
48,215,154365,2,0,L|220:231,1,153.999995300293,4|8,1:1|0:1,0:0:0:0:
277,242,154719,1,4,1:1:0:0:
353,238,154837,1,0,0:1:0:0:
420,202,154955,1,8,0:1:0:0:
463,138,155073,1,0,0:1:0:0:
462,61,155191,5,4,3:3:0:0:
429,41,155250,1,0,3:1:0:0:
392,34,155309,1,0,3:1:0:0:
355,40,155368,1,0,3:1:0:0:
327,65,155427,1,8,3:1:0:0:
299,90,155487,1,0,3:1:0:0:
262,96,155546,1,0,3:1:0:0:
225,89,155605,1,0,3:1:0:0:
192,69,155664,2,0,L|138:29,3,55,4|0|0|0,3:3|3:1|3:1|3:1,0:0:0:0:
109,75,155900,2,0,L|55:35,3,55,8|0|0|0,3:1|3:1|3:1|3:1,0:0:0:0:
26,81,156136,1,4,3:3:0:0:
26,81,156372,6,0,B|205:128|205:128|-10:218|-10:218|169:265,1,605,0|0,0:1|0:1,0:0:0:0:
262,283,157081,6,0,B|335:209|335:209|363:113|363:113|443:34,1,307.999990600586,4|8,1:1|0:1,0:0:0:0:
492,188,157435,1,0,0:1:0:0:
272,67,157553,2,0,P|206:55|123:94,1,131.99999597168,4|0,0:3|0:1,0:0:0:0:
26,354,157790,2,0,L|174:342,1,131.99999597168,8|0,0:1|0:1,0:0:0:0:
490,283,158026,6,0,L|342:271,1,131.99999597168,4|0,0:3|0:1,0:0:0:0:
24,212,158262,2,0,B|70:199|70:199|100:220|100:220|166:202,1,131.99999597168,8|0,0:1|0:1,0:0:0:0:
474,119,158498,2,0,P|411:101|333:118,1,131.99999597168,4|0,0:3|0:1,0:0:0:0:
157,343,158734,1,8,0:1:0:0:
313,373,158853,1,0,0:1:0:0:
24,212,158971,6,0,B|116:187|116:187|176:224|176:224|296:192,1,263.99999194336,4|8,0:3|0:1,0:0:0:0:
410,59,159325,2,0,P|352:31|259:45,1,131.99999597168,0|4,0:1|0:3,0:0:0:0:
157,343,159561,2,0,L|317:353,1,131.99999597168,0|8,0:1|0:1,0:0:0:0:
116,28,159797,6,0,B|91:120|91:120|128:180|128:180|96:300,1,263.99999194336,0|0,0:1|0:1,0:0:0:0:
288,351,160152,1,8,0:1:0:0:
260,155,160270,1,0,0:1:0:0:
425,263,160388,1,4,0:3:0:0:
453,67,160506,1,0,0:1:0:0:
332,223,160624,2,0,P|272:253|197:229,1,131.99999597168,8|0,0:1|0:1,0:0:0:0:
26,24,160860,6,0,B|141:55|141:55|176:109|176:109|308:145,1,307.999990600586,4|8,1:1|0:1,0:0:0:0:
453,67,161215,1,0,0:1:0:0:
490,265,161333,2,0,P|425:264|370:230,1,131.99999597168,4|0,0:3|0:1,0:0:0:0:
151,365,161569,2,0,L|287:351,1,131.99999597168,8|0,0:1|0:1,0:0:0:0:
37,124,161805,6,0,P|14:193|35:255,1,131.99999597168,4|0,0:3|0:1,0:0:0:0:
399,357,162042,2,0,L|369:229,1,131.99999597168,8|0,0:1|0:1,0:0:0:0:
110,24,162278,2,0,L|141:153,1,131.99999597168,4|0,0:3|0:1,0:0:0:0:
368,228,162514,1,8,0:1:0:0:
254,168,162632,1,0,0:1:0:0:
258,299,162750,6,0,B|361:239|361:239|380:178|380:178|499:109,1,307.999990600586,4|8,1:1|0:1,0:0:0:0:
3,74,163105,2,0,B|111:135|111:135|174:122|174:122|277:181,1,307.999990600586,4|8,1:1|0:1,0:0:0:0:
488,115,163459,1,4,1:1:0:0:
453,335,163577,1,0,0:0:0:0:
381,87,163695,5,4,0:3:0:0:
465,347,163813,1,0,3:1:0:0:
427,198,163931,1,8,3:1:0:0:
316,306,164049,1,0,3:1:0:0:
278,157,164168,1,4,3:3:0:0:
251,128,164227,1,0,3:0:0:0:
213,117,164286,1,0,3:0:0:0:
174,120,164345,1,0,3:0:0:0:
143,142,164404,1,8,3:1:0:0:
112,164,164463,1,0,3:1:0:0:
73,167,164522,1,0,3:1:0:0:
35,156,164581,1,0,3:1:0:0:
8,127,164640,6,0,B|121:90|121:90|180:116|180:116|310:74,1,307.999990600586,4|8,1:1|0:1,0:0:0:0:
424,117,164994,1,0,0:1:0:0:
471,239,165112,2,0,L|326:209,1,131.99999597168,4|0,0:3|0:1,0:0:0:0:
77,340,165349,2,0,P|144:322|220:336,1,131.99999597168,8|0,0:1|0:1,0:0:0:0:
504,160,165585,6,0,L|359:130,1,131.99999597168,4|0,0:3|0:1,0:0:0:0:
246,109,165821,1,8,0:1:0:0:
332,9,165939,1,0,0:1:0:0:
296,245,166057,2,0,P|354:266|448:247,1,131.99999597168,4|0,0:3|0:1,0:0:0:0:
504,160,166293,1,8,0:1:0:0:
374,133,166412,1,0,0:1:0:0:
254,362,166530,6,0,P|194:376|131:342,1,131.99999597168,4|0,0:3|0:1,0:0:0:0:
49,244,166766,1,8,0:1:0:0:
179,222,166884,1,0,0:1:0:0:
104,82,167002,2,0,P|164:68|227:102,1,131.99999597168,4|0,0:3|0:1,0:0:0:0:
309,200,167238,1,8,0:1:0:0:
179,222,167356,1,0,0:1:0:0:
422,346,167475,6,0,B|467:297|467:297|449:216,1,131.99999597168,4|0,0:3|0:1,0:0:0:0:
258,122,167711,2,0,L|235:265,1,131.99999597168,8|0,0:1|0:1,0:0:0:0:
50,65,167947,2,0,P|86:47|177:49,1,131.99999597168,4|0,0:3|0:1,0:0:0:0:
368,272,168183,2,0,L|238:253,1,131.99999597168,8|0,0:1|0:1,0:0:0:0:
14,345,168419,6,0,B|106:320|106:320|166:357|166:357|286:325,1,263.99999194336,4|8,1:1|0:1,0:0:0:0:
483,156,168774,2,0,L|352:136,1,131.99999597168,0|4,0:1|0:3,0:0:0:0:
33,242,169010,2,0,L|159:205,1,131.99999597168,0|8,0:1|0:1,0:0:0:0:
498,345,169246,6,0,B|406:320|406:320|346:357|346:357|226:325,1,263.99999194336,4|0,1:1|0:1,0:0:0:0:
29,156,169601,2,0,P|83:129|165:128,1,131.99999597168,8|0,0:1|0:1,0:0:0:0:
479,242,169837,1,4,0:3:0:0:
352,205,169955,2,0,B|312:173|312:173|337:53,1,131.99999597168,0|8,0:1|0:1,0:0:0:0:
479,242,170191,1,0,0:1:0:0:
208,298,170309,6,0,B|179:352|179:352|106:365,1,131.99999597168,4|0,1:1|0:1,0:0:0:0:
113,197,170545,1,8,0:1:0:0:
371,180,170664,2,0,B|433:178|433:178|480:235,1,131.99999597168,4|0,1:1|0:1,0:0:0:0:
331,313,170900,1,8,0:1:0:0:
188,97,171018,2,0,B|129:140|129:140|110:208,1,131.99999597168,4|0,1:1|0:1,0:0:0:0:
331,313,171254,5,4,3:3:0:0:
323,65,171372,1,0,3:1:0:0:
113,197,171490,1,8,3:1:0:0:
376,189,171609,1,0,3:1:0:0:
409,188,171668,1,0,3:1:0:0:
442,187,171727,2,0,B|475:162|475:162|485:97,2,87.9999973144532,4|0|0,3:3|3:1|3:1,0:0:0:0:
482,266,171963,2,0,B|449:291|449:291|439:356,2,87.9999973144532,8|0|0,3:1|3:1|3:1,0:0:0:0:
355,276,172199,6,0,B|286:257|286:257|227:200|227:200|162:182,1,220,4|0,1:1|0:1,0:0:0:0:
71,220,172553,1,8,0:1:0:0:
100,314,172671,2,0,P|137:336|212:331,1,98.9999969787599,8|0,0:1|0:1,0:0:0:0:
442,165,172908,2,0,L|332:174,1,98.9999969787599,0|8,0:1|0:1,0:0:0:0:
54,95,173144,6,0,L|164:104,1,98.9999969787599,0|8,0:1|0:1,0:0:0:0:
416,284,173380,2,0,P|377:286|312:262,1,98.9999969787599,8|0,0:1|0:1,0:0:0:0:
93,347,173616,2,0,L|207:336,1,98.9999969787599,8|0,0:1|0:1,0:0:0:0:
424,126,173853,2,0,P|376:137|343:173,1,98.9999969787599,0|8,0:1|0:1,0:0:0:0:
191,337,174089,6,0,B|173:272|173:272|190:213|190:213|163:113,1,197.99999395752,8|0,0:1|0:1,0:0:0:0:
89,91,174443,2,0,P|71:144|85:197,1,98.9999969787599,0|8,0:1|0:1,0:0:0:0:
299,351,174679,2,0,L|271:250,1,98.9999969787599,0|0,0:1|0:1,0:0:0:0:
430,37,174916,6,0,B|412:102|412:102|429:161|429:161|402:261,1,197.99999395752,8|8,0:1|0:1,0:0:0:0:
387,323,175270,1,8,0:1:0:0:
482,296,175388,1,0,0:1:0:0:
315,254,175506,1,8,0:1:0:0:
434,130,175624,1,0,0:1:0:0:
387,323,175742,2,0,L|274:356,1,98.9999969787599,0|8,0:1|0:1,0:0:0:0:
82,259,175979,6,0,B|151:240|151:240|210:183|210:183|274:166,1,220,4|0,1:1|0:1,0:0:0:0:
366,202,176333,1,8,0:1:0:0:
434,130,176451,2,0,P|460:180|460:230,1,98.9999969787599,8|0,0:1|0:1,0:0:0:0:
268,360,176687,2,0,L|289:264,1,98.9999969787599,0|8,0:1|0:1,0:0:0:0:
83,59,176923,6,0,L|104:155,1,98.9999969787599,0|8,0:1|0:1,0:0:0:0:
381,295,177160,2,0,P|385:246|366:202,1,98.9999969787599,0|8,0:1|0:1,0:0:0:0:
91,322,177396,2,0,B|125:312|125:312|145:294|145:294|223:274,1,98.9999969787599,8|0,0:1|0:1,0:0:0:0:
453,148,177632,2,0,B|418:138|418:138|398:120|398:120|320:100,1,98.9999969787599,8|0,0:1|0:1,0:0:0:0:
256,32,177868,5,4,1:1:0:0:
256,32,178223,1,0,0:1:0:0:
256,32,178577,1,0,0:1:0:0:
256,32,179049,2,0,L|256:135,1,98.9999969787599,0|0,3:0|0:1,0:0:0:0:
332,268,179286,5,8,0:1:0:0:
180,268,179404,1,8,0:1:0:0:
332,116,179522,1,8,0:1:0:0:
180,116,179640,1,8,0:1:0:0:
178,352,179758,6,0,B|297:351|297:351|344:308|344:308|481:308,1,307.999990600586,4|8,1:1|0:1,0:0:0:0:
414,188,180112,1,0,0:1:0:0:
282,208,180231,2,0,P|231:224|144:215,1,131.99999597168,4|0,0:3|0:1,0:0:0:0:
47,368,180467,2,0,L|191:350,1,131.99999597168,8|0,0:1|0:1,0:0:0:0:
398,154,180703,6,0,L|254:136,1,131.99999597168,4|0,0:3|0:1,0:0:0:0:
136,121,180939,1,8,0:1:0:0:
216,16,181057,1,0,0:1:0:0:
24,258,181175,2,0,L|168:240,1,131.99999597168,4|0,0:3|0:1,0:0:0:0:
286,225,181411,1,8,0:1:0:0:
206,120,181529,1,0,0:1:0:0:
472,59,181648,6,0,B|504:119|504:119|456:195,1,131.99999597168,4|0,0:1|0:1,0:0:0:0:
403,286,181884,1,8,0:1:0:0:
286,225,182002,1,0,0:1:0:0:
349,33,182120,2,0,B|289:1|289:1|213:49,1,131.99999597168,4|0,0:3|0:1,0:0:0:0:
176,153,182356,1,8,0:1:0:0:
286,225,182474,1,0,0:1:0:0:
142,347,182593,6,0,L|6:361,1,131.99999597168,4|0,0:1|0:1,0:0:0:0:
333,280,182829,2,0,L|469:294,1,131.99999597168,8|0,0:1|0:1,0:0:0:0:
176,153,183065,2,0,B|117:173|117:173|90:250,1,131.99999597168,4|0,0:3|0:1,0:0:0:0:
415,171,183301,2,0,P|439:109|408:34,1,131.99999597168,8|0,0:1|0:1,0:0:0:0:
160,24,183538,6,0,B|185:116|185:116|148:176|148:176|180:296,1,263.99999194336,4|8,1:1|0:1,0:0:0:0:
80,364,183892,2,0,L|38:208,1,131.99999597168,0|4,0:1|0:3,0:0:0:0:
274,6,184128,2,0,L|315:161,1,131.99999597168,0|8,0:1|0:1,0:0:0:0:
399,360,184364,6,0,B|374:268|374:268|411:208|411:208|379:88,1,263.99999194336,4|0,1:1|0:1,0:0:0:0:
479,20,184718,2,0,L|520:175,1,131.99999597168,8|0,0:1|0:1,0:0:0:0:
285,378,184954,2,0,L|243:222,1,131.99999597168,4|0,0:3|0:1,0:0:0:0:
93,28,185191,2,0,P|66:69|77:157,1,131.99999597168,8|0,0:1|0:1,0:0:0:0:
478,343,185427,6,0,P|471:283|437:216,1,131.99999597168,4|0,1:1|0:1,0:0:0:0:
353,149,185664,1,8,0:1:0:0:
206,384,185782,2,0,L|237:249,1,131.99999597168,4|0,1:1|0:1,0:0:0:0:
353,149,186018,1,0,0:1:0:0:
76,143,186136,2,0,P|130:117|203:109,1,131.99999597168,4|0,1:1|0:1,0:0:0:0:
431,179,186372,5,4,3:3:0:0:
235,255,186490,1,0,3:1:0:0:
469,272,186608,1,8,3:1:0:0:
235,142,186727,1,0,3:1:0:0:
204,131,186786,1,0,3:1:0:0:
172,120,186845,2,0,B|132:105|132:105|98:62,2,87.9999973144532,4|0|0,3:0|3:1|3:1,3:0:0:0:
109,182,187081,2,0,B|69:197|69:197|35:240,2,87.9999973144532,8|0|0,3:1|3:1|3:1,3:0:0:0:
138,263,187317,6,0,B|230:238|230:238|290:275|290:275|410:243,1,263.99999194336,4|8,1:1|0:1,0:0:0:0:
478,343,187671,2,0,L|322:385,1,131.99999597168,0|4,0:1|0:3,0:0:0:0:
120,149,187907,2,0,L|275:108,1,131.99999597168,0|8,0:1|0:1,0:0:0:0:
470,207,188144,6,0,B|378:232|378:232|318:195|318:195|198:227,1,263.99999194336,4|0,1:1|0:1,0:0:0:0:
130,127,188498,2,0,L|286:85,1,131.99999597168,8|0,0:1|0:1,0:0:0:0:
488,321,188734,2,0,L|333:362,1,131.99999597168,4|0,0:3|0:1,0:0:0:0:
34,112,188971,2,0,P|62:57|135:28,1,131.99999597168,8|0,0:1|0:1,0:0:0:0:
394,227,189207,6,0,L|360:354,1,131.99999597168,4|0,1:1|0:1,0:0:0:0:
151,354,189443,1,8,0:1:0:0:
117,226,189561,2,0,L|84:99,1,131.99999597168,4|0,1:1|0:1,0:0:0:0:
407,45,189797,1,0,0:1:0:0:
373,173,189915,2,0,L|339:300,1,131.99999597168,4|0,1:1|0:1,0:0:0:0:
121,383,190152,6,0,L|88:256,1,131.99999597168,4|0,0:3|0:1,0:0:0:0:
381,26,190388,2,0,L|348:153,1,131.99999597168,8|0,0:1|0:1,0:0:0:0:
293,360,190624,1,4,0:3:0:0:
478,298,190742,1,0,0:1:0:0:
227,241,190860,1,8,0:1:0:0:
505,280,190979,1,0,0:1:0:0:
394,157,191097,6,0,L|360:30,1,131.99999597168,4|0,1:1|0:1,0:0:0:0:
151,30,191333,1,8,0:1:0:0:
117,158,191451,2,0,L|84:285,1,131.99999597168,4|0,1:1|0:1,0:0:0:0:
407,339,191687,1,0,0:1:0:0:
373,211,191805,2,0,L|339:84,1,131.99999597168,4|0,1:1|0:1,0:0:0:0:
121,1,192042,6,0,L|88:128,1,131.99999597168,4|0,0:3|0:1,0:0:0:0:
350,369,192278,2,0,L|317:242,1,131.99999597168,8|0,0:1|0:3,0:0:0:0:
193,193,192514,1,4,0:3:0:0:
353,134,192632,1,8,0:1:0:0:
164,69,192751,1,8,0:1:0:0:
367,111,192868,1,8,0:1:0:0:
508,292,192986,6,0,B|416:317|416:317|356:280|356:280|236:312,1,263.99999194336,4|8,1:1|0:1,0:0:0:0:
132,340,193341,1,0,0:1:0:0:
38,246,193459,2,0,P|14:188|32:114,1,131.99999597168,4|0,0:3|0:1,0:0:0:0:
280,28,193695,2,0,L|256:176,1,131.99999597168,8|0,0:1|0:1,0:0:0:0:
434,349,193931,6,0,B|409:257|409:257|446:197|446:197|414:77,1,263.99999194336,4|8,0:3|0:1,0:0:0:0:
78,35,194286,2,0,B|103:127|103:127|66:187|66:187|98:307,1,263.99999194336,0|0,0:1|0:1,0:0:0:0:
214,328,194640,1,8,0:1:0:0:
344,309,194758,6,0,P|410:112|212:124,1,461.999985900879,4|8,1:1|0:1,0:0:0:0:
160,217,195231,1,0,0:1:0:0:
214,328,195349,2,0,P|132:335|54:277,1,153.999995300293,4|0,0:1|0:1,0:0:0:0:
317,190,195585,2,0,L|494:176,1,153.999995300293,8|0,0:1|0:1,0:0:0:0:
165,47,195821,6,0,B|99:38|99:38|17:76,1,153.999995300293,4|0,0:1|0:1,0:0:0:0:
317,190,196057,2,0,B|383:198|383:198|452:256,1,153.999995300293,8|0,0:1|0:1,0:0:0:0:
221,357,196293,1,4,0:1:0:0:
70,319,196412,1,0,3:1:0:0:
70,319,196471,1,0,3:1:0:0:
70,319,196530,1,8,3:1:0:0:
280,264,196648,1,0,3:1:0:0:
21,179,196766,6,0,B|113:154|113:154|173:191|173:191|293:159,1,263.99999194336,4|8,1:1|0:1,0:0:0:0:
361,72,197120,1,0,0:1:0:0:
484,262,197238,2,0,P|411:274|336:247,1,131.99999597168,4|0,0:3|0:1,0:0:0:0:
148,371,197475,2,0,L|295:343,1,131.99999597168,8|0,0:1|0:1,0:0:0:0:
145,20,197711,6,0,B|120:112|120:112|157:172|157:172|125:292,1,263.99999194336,4|8,1:1|0:1,0:0:0:0:
302,366,198065,1,0,0:1:0:0:
303,168,198183,1,4,0:3:0:0:
475,266,198301,1,0,0:1:0:0:
476,68,198419,1,8,0:1:0:0:
367,257,198538,6,0,B|285:278|285:278|253:345|253:345|138:376,1,242.000007385254,4|0,1:1|0:1,0:0:0:0:
69,303,198892,1,0,0:1:0:0:
154,217,199010,1,0,0:1:0:0:
42,169,199128,2,0,P|66:133|137:97,1,121.000003692627,8|0,0:1|0:1,0:0:0:0:
246,139,199364,1,8,0:1:0:0:
355,333,199482,6,0,B|334:251|334:251|267:219|267:219|236:104,1,242.000007385254,4|0,1:1|0:1,0:0:0:0:
309,35,199836,1,0,0:1:0:0:
395,120,199954,1,0,0:1:0:0:
125,136,200073,1,8,0:1:0:0:
188,33,200191,1,8,0:1:0:0:
432,216,200309,6,0,B|350:237|350:237|318:304|318:304|203:335,1,242.000007385254,4|0,1:1|0:1,0:0:0:0:
136,257,200664,1,0,0:1:0:0:
66,355,200782,2,0,P|22:298|25:217,1,121.000003692627,0|0,0:1|0:1,0:0:0:0:
237,51,201018,2,0,L|221:171,1,121.000003692627,8|0,0:1|0:1,0:0:0:0:
136,257,201254,1,8,0:1:0:0:
26,61,201372,6,0,B|108:82|108:82|140:149|140:149|255:180,1,242.000007385254,4|0,1:1|0:1,0:0:0:0:
322,102,201727,1,0,0:1:0:0:
392,200,201845,2,0,P|436:143|433:62,1,121.000003692627,0|8,0:1|0:1,0:0:0:0:
322,102,202081,1,8,0:1:0:0:
463,270,202199,6,0,B|381:291|381:291|349:358|349:358|234:389,1,242.000007385254,4|0,1:1|0:1,0:0:0:0:
183,294,202553,1,0,0:1:0:0:
236,185,202671,2,0,P|177:173|98:205,1,121.000003692627,0|0,0:1|0:1,0:0:0:0:
14,33,202908,2,0,L|150:64,1,121.000003692627,8|0,0:1|0:1,0:0:0:0:
250,81,203144,1,8,0:1:0:0:
49,270,203262,6,0,B|131:291|131:291|163:358|163:358|278:389,1,242.000007385254,4|0,1:1|0:1,0:0:0:0:
329,294,203616,1,8,3:1:0:0:
218,243,203734,1,8,3:1:0:0:
445,200,203853,1,8,3:1:0:0:
269,153,203971,1,8,3:1:0:0:
495,108,204089,1,12,3:1:0:0:
256,192,204148,12,0,205034,0:1:0:0:
