osu file format v14

[General]
AudioFilename: audio.mp3
AudioLeadIn: 0
PreviewTime: 156254
Countdown: 0
SampleSet: Soft
StackLeniency: 0.7
Mode: 0
LetterboxInBreaks: 0
WidescreenStoryboard: 0

[Editor]
DistanceSpacing: 1
BeatDivisor: 4
GridSize: 16
TimelineZoom: 2.899999

[Metadata]
Title:XY&Z
TitleUnicode:XY&Z
Artist:Satoshi (CV:Rica Matsumoto)
ArtistUnicode:サトシ(CV:松本 梨香)
Creator:Viery
Version:Z
Source:ポケットモンスターXY&Z
Tags:Pokemon xyz
BeatmapID:2048015
BeatmapSetID:978612

[Difficulty]
HPDrainRate:4.5
CircleSize:4
OverallDifficulty:9.2
ApproachRate:10
SliderMultiplier:1.6
SliderTickRate:1

[Events]
//Background and Video events
0,0,"BG.png",0,0
//Break Periods
2,140273,147182
//Storyboard Layer 0 (Background)
//Storyboard Layer 1 (Fail)
//Storyboard Layer 2 (Pass)
//Storyboard Layer 3 (Foreground)
//Storyboard Sound Samples

[TimingPoints]
231,236.220472440945,4,2,0,60,1,0
231,-71.4285714285714,4,2,0,60,0,0
1648,-100,4,2,0,60,0,0
2120,-100,4,2,0,60,0,0
2475,-83.3333333333333,4,2,0,60,0,0
2829,-71.4285714285714,4,2,0,60,0,0
4010,-90.9090909090909,4,2,0,60,0,0
11569,-100,4,2,0,60,0,0
26687,-133.333333333333,4,2,0,60,0,0
34246,-117.647058823529,4,2,0,60,0,0
38026,-100,4,2,0,60,0,0
41805,-83.3333333333333,4,2,0,60,0,0
45112,-400,4,2,0,30,0,0
45585,-90.9090909090909,4,2,0,60,0,1
48892,-100,4,2,0,60,0,1
49364,-90.9090909090909,4,2,0,60,0,1
65900,-90.9090909090909,4,2,0,60,0,0
66372,-111.111111111111,4,2,0,60,0,0
73931,-100,4,2,0,60,0,0
81490,-133.333333333333,4,2,0,60,0,0
89049,-117.647058823529,4,2,0,60,0,0
92829,-100,4,2,0,60,0,0
96608,-83.3333333333333,4,2,0,60,0,0
100388,-90.9090909090909,4,2,0,60,0,1
103695,-100,4,2,0,60,0,1
104168,-90.9090909090909,4,2,0,60,0,1
120703,-100,4,2,0,60,0,0
132514,-90.9090909090909,4,2,0,60,0,1
136293,-80,4,2,0,60,0,1
139128,-90.9090909090909,4,2,0,60,0,0
153301,-100,4,2,0,60,0,0
156608,-400,4,2,0,60,0,0
157081,-90.9090909090909,4,2,0,60,0,1
172199,-117.647058823529,4,2,0,60,0,0
179758,-90.9090909090909,4,2,0,60,0,1
192986,-90.9090909090909,4,2,0,60,0,0

[Colours]
Combo1 : 226,169,99
Combo2 : 232,81,81
Combo3 : 81,149,232
Combo4 : 223,220,94
Combo5 : 90,226,107
Combo6 : 158,100,230

[HitObjects]
59,277,231,6,0,B|164:235|162:347|271:311,1,223.999993164063
370,181,585,2,0,B|398:126|398:126|309:81|217:120,1,223.999993164063
299,228,939,2,0,P|363:271|457:167,1,223.999993164063
183,46,1293,2,0,B|107:130|213:166|142:256,1,223.999993164063
240,111,1648,2,0,L|330:128,1,80
477,193,1884,2,0,L|387:210,1,80
236,237,2120,5,0,0:0:0:0:
165,161,2238,2,0,P|156:108|170:67,1,80
341,143,2475,1,0,0:0:0:0:
236,237,2593,2,0,P|193:259|143:260,1,95.9999970703126
288,65,2829,1,0,0:0:0:0:
349,268,2947,2,0,P|365:327|358:386,1,111.999996582031
165,161,3183,5,0,0:0:0:0:
353,278,3301,1,0,0:0:0:0:
60,336,3419,1,0,0:0:0:0:
275,150,3538,5,0,0:0:0:0:
275,150,4010,6,0,P|309:104|320:70,1,88.000002685547
162,4,4246,2,0,P|178:44|205:78,1,88.000002685547
318,75,4482,1,0,0:0:0:0:
133,128,4601,1,0,0:0:0:0:
330,70,4719,1,0,0:0:0:0:
236,300,4837,6,0,B|134:318|162:243|42:264,1,176.000005371094
326,239,5191,2,0,P|359:267|383:303,1,88.000002685547
234,139,5427,1,0,0:0:0:0:
208,219,5545,1,0,0:0:0:0:
336,152,5664,2,0,L|426:140,1,88.000002685547
476,343,5900,6,0,P|392:328|296:319,1,176.000005371094
179,341,6254,1,0,0:0:0:0:
317,237,6372,1,0,0:0:0:0:
90,249,6490,1,0,0:0:0:0:
332,235,6608,1,0,0:0:0:0:
136,81,6727,6,0,P|183:170|195:249,1,176.000005371094
73,363,7081,2,0,P|121:329|163:321,1,88.000002685547
347,348,7317,1,0,0:0:0:0:
234,327,7435,1,0,0:0:0:0:
354,350,7553,2,0,L|442:368,1,88.000002685547
292,143,7790,6,0,B|190:125|218:200|98:179,1,176.000005371094
39,175,8144,1,0,0:0:0:0:
134,94,8262,1,0,0:0:0:0:
79,285,8380,1,0,0:0:0:0:
136,82,8498,1,0,0:0:0:0:
314,253,8616,6,0,P|370:210|354:89,1,176.000005371094
205,148,8971,2,0,P|256:162|300:161,1,88.000002685547
136,82,9207,1,0,0:0:0:0:
127,189,9325,1,0,0:0:0:0:
259,83,9443,2,0,P|256:28|240:-3,1,88.000002685547
199,242,9679,6,0,P|202:297|218:328,1,88.000002685547
302,354,9916,1,0,0:0:0:0:
265,182,10034,2,0,P|215:157|181:155,1,88.000002685547
92,268,10270,1,0,0:0:0:0:
289,267,10388,2,0,P|335:236|353:207,1,88.000002685547
162,42,10624,1,0,0:0:0:0:
197,301,10742,2,0,P|205:347|222:385,1,88.000002685547
349,92,10979,5,0,0:0:0:0:
134,119,11097,1,0,0:0:0:0:
427,244,11215,1,0,0:0:0:0:
150,219,11333,1,0,0:0:0:0:
334,182,11451,1,0,0:0:0:0:
49,303,11569,6,0,B|205:285|128:384|305:357,1,240
281,206,12042,2,0,P|244:254|241:275,1,80
399,200,12278,1,0,0:0:0:0:
347,278,12396,1,0,0:0:0:0:
340,123,12514,2,0,P|397:99|423:102,1,80
402,209,12750,1,0,0:0:0:0:
295,48,12868,2,0,P|238:24|212:27,1,80
128,215,13105,1,0,0:0:0:0:
236,112,13223,1,0,0:0:0:0:
138,115,13341,1,0,0:0:0:0:
224,313,13459,6,0,P|242:248|237:193,1,120
306,159,13695,2,0,P|316:118|336:83,1,80
384,304,13931,2,0,P|349:323|310:332,1,80
243,221,14168,2,0,P|208:201|169:192,1,80
44,249,14404,2,0,P|24:214|15:175,1,80
166,41,14640,2,0,P|156:79|137:114,1,80
33,65,14876,1,0,0:0:0:0:
227,121,14994,1,0,0:0:0:0:
94,177,15112,1,0,0:0:0:0:
171,34,15231,1,0,0:0:0:0:
283,282,15349,6,0,B|367:267|354:333|449:318,1,160
419,227,15703,1,0,0:0:0:0:
299,366,15821,2,0,P|241:362|205:341,1,80
113,252,16057,2,0,P|171:256|207:277,1,80
48,317,16293,6,0,P|21:255|60:175,1,160
189,239,16648,2,0,P|152:251|112:251,1,80
112,251,16884,1,0,0:0:0:0:
256,109,17002,6,0,P|293:181|306:261,1,160
305,258,17356,1,0,0:0:0:0:
228,362,17475,2,0,P|228:304|216:259,1,80
383,250,17712,2,0,P|388:192|403:148,1,80
178,158,17948,2,0,P|162:101|139:61,1,80
368,36,18184,2,0,P|345:69|330:106,1,80
237,271,18420,2,0,P|264:299|286:333,1,80
188,364,18656,5,0,0:0:0:0:
388,159,18774,1,0,0:0:0:0:
354,292,18892,1,0,0:0:0:0:
257,133,19010,1,0,0:0:0:0:
104,365,19128,6,0,B|114:284|61:301|74:208,1,160
119,115,19482,1,0,0:0:0:0:
233,243,19601,2,0,P|167:245|146:234,1,80
23,134,19837,1,0,0:0:0:0:
190,170,19955,1,0,0:0:0:0:
0,305,20073,6,0,P|70:299|152:335,1,160
230,384,20427,1,0,0:0:0:0:
147,243,20545,1,0,0:0:0:0:
150,334,20664,1,0,0:0:0:0:
341,250,20782,2,0,P|400:244|424:251,1,80
296,327,21018,6,0,P|269:300|261:217,1,120
202,167,21254,2,0,P|197:121|179:79,1,80
152,264,21490,2,0,P|189:277|229:280,1,80
364,163,21727,2,0,P|326:149|286:146,1,80
328,323,21963,2,0,P|314:285|311:245,1,80
468,106,22199,2,0,P|464:145|451:183,1,80
286,146,22435,1,0,0:0:0:0:
397,253,22553,1,0,0:0:0:0:
181,252,22671,1,0,0:0:0:0:
314,229,22790,1,0,0:0:0:0:
83,351,22908,6,0,P|96:299|89:201,1,120
22,205,23144,2,0,P|19:163|30:113,1,80
200,110,23380,2,0,P|165:133|116:149,1,80
28,3,23616,2,0,P|65:21|103:55,1,80
242,177,23853,6,0,P|204:84|266:24,1,160
365,104,24207,2,0,P|318:112|279:103,1,80
286,105,24443,1,0,0:0:0:0:
347,13,24561,1,0,0:0:0:0:
338,204,24679,1,0,0:0:0:0:
172,107,24797,6,0,P|236:89|301:116,1,120
357,129,25034,2,0,P|403:137|444:127,1,80
511,281,25270,2,0,P|465:273|424:283,1,80
284,366,25506,2,0,P|313:330|325:289,1,80
227,182,25742,5,0,0:0:0:0:
212,291,25860,1,0,0:0:0:0:
212,291,25919,1,0,0:0:0:0:
212,291,25978,1,0,0:0:0:0:
304,112,26097,1,0,0:0:0:0:
126,244,26215,1,0,0:0:0:0:
124,66,26333,1,0,0:0:0:0:
323,298,26451,1,0,0:0:0:0:
220,6,26569,1,0,0:0:0:0:
65,146,26687,6,0,P|35:195|19:272,1,120.000004577637
59,348,27042,1,0,0:0:0:0:
59,348,27160,2,0,P|103:348|135:359,1,60.0000022888184
126,244,27396,1,0,0:0:0:0:
209,307,27514,2,0,P|242:278|259:206,1,120.000004577637
203,89,27868,2,0,P|199:131|206:167,1,60.0000022888184
331,159,28105,2,0,P|296:134|261:122,1,60.0000022888184
206,234,28341,2,0,P|244:216|272:192,1,60.0000022888184
465,135,28577,6,0,P|439:185|430:268,1,120.000004577637
489,339,28931,1,0,0:0:0:0:
489,339,29049,2,0,P|449:355|425:356,1,60.0000022888184
325,296,29286,2,0,P|295:300|268:313,1,60.0000022888184
139,334,29522,2,0,P|153:298|154:265,1,60.0000022888184
62,273,29758,1,0,0:0:0:0:
158,186,29876,2,0,B|221:181|208:229|266:228,1,120.000004577637
383,127,30231,1,0,0:0:0:0:
279,150,30349,1,0,0:0:0:0:
393,308,30467,6,0,P|385:253|342:199,1,120.000004577637
212,99,30821,2,0,P|199:133|197:167,1,60.0000022888184
265,240,31057,2,0,P|278:274|280:308,1,60.0000022888184
160,384,31293,2,0,P|158:324|172:262,1,120.000004577637
312,382,31648,2,0,P|265:386|239:374,1,60.0000022888184
335,250,31884,2,0,P|361:288|364:317,1,60.0000022888184
209,296,32120,2,0,P|229:253|252:236,1,60.0000022888184
451,168,32356,6,0,L|465:245,1,60.0000022888184
479,324,32593,1,0,0:0:0:0:
307,179,32711,2,0,L|367:126,1,60.0000022888184
428,74,32948,1,0,0:0:0:0:
388,295,33065,2,0,L|312:269,1,60.0000022888184
237,244,33301,5,0,0:0:0:0:
383,212,33419,1,0,0:0:0:0:
383,212,33479,1,0,0:0:0:0:
383,212,33538,1,0,0:0:0:0:
139,194,33656,1,0,0:0:0:0:
342,363,33774,1,0,0:0:0:0:
276,80,33892,1,0,0:0:0:0:
202,329,34010,1,0,0:0:0:0:
302,184,34128,1,0,0:0:0:0:
16,191,34246,6,0,P|64:260|78:323,1,136.000002593994
222,213,34601,1,0,0:0:0:0:
179,291,34719,2,0,P|161:331|153:357,1,68.0000012969971
112,118,34955,2,0,P|153:98|187:89,1,68.0000012969971
396,223,35191,6,0,P|356:220|302:307,1,136.000002593994
471,337,35545,1,0,0:0:0:0:
486,239,35664,2,0,P|482:194|468:163,1,68.0000012969971
233,286,35900,2,0,P|271:292|304:286,1,68.0000012969971
359,46,36136,6,0,P|332:90|320:180,1,136.000002593994
387,326,36490,1,0,0:0:0:0:
315,257,36608,2,0,P|268:252|237:260,1,68.0000012969971
180,88,36845,2,0,P|227:83|258:91,1,68.0000012969971
65,335,37081,6,0,P|114:308|115:225,1,136.000002593994
78,106,37435,1,0,0:0:0:0:
228,176,37553,2,0,P|262:178|303:169,1,68.0000012969971
368,64,37790,1,0,0:0:0:0:
257,88,37908,1,0,0:0:0:0:
460,252,38026,6,0,B|375:249|409:319|289:310,1,160
99,319,38380,2,0,P|158:291|161:190,1,160
368,64,38734,2,0,P|328:121|303:219,1,160
458,325,39089,2,0,P|416:295|385:287,1,80
289,317,39325,1,0,0:0:0:0:
229,137,39443,2,0,P|196:104|164:89,1,80
57,275,39679,2,0,P|92:256|119:227,1,80
374,166,39916,6,0,B|289:163|323:233|203:224,1,160
418,69,40270,2,0,P|457:100|461:209,1,160
366,384,40624,2,0,P|354:333|333:309,1,80
165,263,40860,2,0,P|214:278|246:272,1,80
369,150,41097,2,0,P|330:185|320:215,1,80
164,368,41333,2,0,P|202:332|212:302,1,80
55,202,41569,1,0,0:0:0:0:
117,286,41687,1,0,0:0:0:0:
221,58,41805,6,0,P|282:56|332:77,1,95.9999970703126
446,152,42042,1,0,0:0:0:0:
251,229,42160,2,0,P|249:168|270:118,1,95.9999970703126
411,62,42396,1,0,0:0:0:0:
429,273,42514,2,0,P|431:334|410:384,1,95.9999970703126
151,317,42750,5,0,0:0:0:0:
353,170,42868,2,0,P|414:151|451:152,1,95.9999970703126
252,370,43105,1,0,0:0:0:0:
183,112,43223,2,0,P|179:51|182:15,1,95.9999970703126
335,271,43459,2,0,P|339:332|336:368,1,95.9999970703126
130,196,43695,6,0,P|99:190|79:191,3,47.9999985351563
204,282,43931,2,0,P|235:288|255:287,3,47.9999985351563
99,282,44168,2,0,P|106:330|117:351,1,47.9999985351563
232,186,44286,2,0,P|225:138|214:117,1,47.9999985351563
12,312,44404,2,0,P|19:360|30:381,1,47.9999985351563
312,180,44522,2,0,P|305:132|294:111,1,47.9999985351563
41,35,44640,5,0,0:0:0:0:
41,35,45112,2,0,P|36:67|39:101,1,60
249,281,45585,6,0,B|352:278|299:352|420:341,1,176.000005371094
425,215,45939,1,0,0:0:0:0:
167,225,46057,2,0,P|152:287|160:334,1,88.000002685547
297,150,46293,1,0,0:0:0:0:
66,221,46412,1,0,0:0:0:0:
249,281,46530,6,0,P|295:278|333:263,1,88.000002685547
187,138,46766,1,0,0:0:0:0:
233,369,46884,1,0,0:0:0:0:
387,180,47002,2,0,P|389:131|375:93,1,88.000002685547
93,120,47238,2,0,P|50:139|8:146,1,88.000002685547
244,53,47475,6,0,P|281:104|244:218,1,176.000005371094
27,246,47829,2,0,P|76:222|128:223,1,88.000002685547
263,383,48065,2,0,P|217:352|192:307,1,88.000002685547
347,121,48301,1,0,0:0:0:0:
372,327,48419,1,0,0:0:0:0:
203,139,48538,1,0,0:0:0:0:
265,290,48656,1,0,0:0:0:0:
354,111,48774,1,0,0:0:0:0:
92,295,48892,6,0,P|36:270|133:230,1,240
372,327,49364,6,0,B|369:221|430:268|421:135,1,176.000005371094
327,24,49719,1,0,0:0:0:0:
221,230,49837,2,0,P|275:236|311:221,1,88.000002685547
127,144,50073,1,0,0:0:0:0:
245,322,50191,1,0,0:0:0:0:
235,73,50309,6,0,P|213:23|182:0,1,88.000002685547
0,204,50545,2,0,P|59:205|85:215,1,88.000002685547
330,310,50782,2,0,P|271:311|245:321,1,88.000002685547
38,311,51018,1,0,0:0:0:0:
148,378,51136,1,0,0:0:0:0:
215,163,51254,6,0,B|312:154|272:235|368:230,1,176.000005371094
110,230,51608,2,0,P|51:196|43:93,1,176.000005371094
319,57,51963,2,0,P|360:106|373:145,1,88.000002685547
288,304,52199,5,0,0:0:0:0:
172,79,52317,2,0,P|183:25|205:-4,1,88.000002685547
368,127,52553,1,0,0:0:0:0:
64,279,52671,5,0,0:0:0:0:
46,266,52730,1,0,0:0:0:0:
37,246,52789,1,0,0:0:0:0:
38,224,52848,1,0,0:0:0:0:
50,206,52907,1,0,0:0:0:0:
69,196,52966,1,0,0:0:0:0:
91,196,53025,1,0,0:0:0:0:
110,207,53084,1,0,0:0:0:0:
121,226,53144,6,0,B|255:242|206:114|364:122,1,264.000008056641
298,282,53616,2,0,P|290:337|275:368,1,88.000002685547
153,130,53853,5,0,0:0:0:0:
385,231,53971,1,0,0:0:0:0:
126,136,54089,6,0,P|89:104|67:65,1,88.000002685547
296,142,54325,5,0,0:0:0:0:
92,292,54443,1,0,0:0:0:0:
304,115,54561,6,0,P|350:98|394:99,1,88.000002685547
213,259,54798,5,0,0:0:0:0:
185,8,54916,1,0,0:0:0:0:
233,279,55034,6,0,P|223:327|201:365,1,88.000002685547
159,118,55270,2,0,P|200:98|244:97,1,88.000002685547
361,337,55506,1,0,0:0:0:0:
215,186,55624,1,0,0:0:0:0:
213,374,55742,1,0,0:0:0:0:
333,133,55860,1,0,0:0:0:0:
361,350,55979,6,0,B|269:359|312:271|181:289,1,176.000005371094
99,315,56333,1,0,0:0:0:0:
215,186,56451,2,0,P|259:173|314:176,1,88.000002685547
213,374,56687,1,0,0:0:0:0:
122,96,56805,1,0,0:0:0:0:
355,333,56923,6,0,B|333:237|405:257|390:160,1,176.000005371094
360,67,57278,1,0,0:0:0:0:
261,212,57396,2,0,P|242:264|241:309,1,88.000002685547
122,96,57632,2,0,P|117:52|100:11,1,88.000002685547
20,208,57868,6,0,P|83:231|144:331,1,176.000005371094
65,373,58223,1,0,0:0:0:0:
165,167,58341,1,0,0:0:0:0:
241,324,58459,1,0,0:0:0:0:
110,262,58577,1,0,0:0:0:0:
256,140,58695,1,0,0:0:0:0:
350,368,58813,6,0,P|363:311|381:281,1,88.000002685547
465,179,59049,1,0,0:0:0:0:
192,249,59168,6,0,P|179:192|161:162,1,88.000002685547
77,60,59404,1,0,0:0:0:0:
368,195,59522,6,0,P|381:138|399:108,1,88.000002685547
483,6,59758,1,0,0:0:0:0:
250,166,59876,6,0,P|204:174|161:165,1,88.000002685547
205,23,60112,1,0,0:0:0:0:
205,23,60171,1,0,0:0:0:0:
205,23,60231,2,0,B|212:58|212:58|208:92,2,58.6666684570313
338,159,60467,2,0,B|331:124|331:124|335:90,2,58.6666684570313
106,255,60703,6,0,P|182:270|255:339,1,176.000005371094
80,359,61057,2,0,P|26:346|-1:326,1,88.000002685547
192,100,61293,2,0,P|199:161|206:197,1,88.000002685547
447,274,61530,6,0,P|391:261|329:346,1,176.000005371094
467,162,61884,2,0,P|472:105|465:65,1,88.000002685547
277,133,62120,1,0,0:0:0:0:
391,176,62238,1,0,0:0:0:0:
181,179,62356,2,0,P|122:181|71:193,1,88.000002685547
332,316,62593,6,0,P|323:254|306:221,1,88.000002685547
256,117,62829,1,0,0:0:0:0:
172,342,62947,6,0,P|181:280|198:247,1,88.000002685547
255,79,63183,1,0,0:0:0:0:
418,330,63301,6,0,P|420:269|411:235,1,88.000002685547
255,46,63538,1,0,0:0:0:0:
83,363,63656,6,0,P|83:299|93:262,1,88.000002685547
254,14,63892,1,0,0:0:0:0:
327,229,64010,6,0,P|335:272|330:323,1,88.000002685547
157,158,64246,2,0,P|149:115|154:64,1,88.000002685547
418,181,64482,5,0,0:0:0:0:
182,237,64601,1,0,0:0:0:0:
324,120,64719,1,0,0:0:0:0:
67,107,64837,5,0,0:0:0:0:
254,178,64955,1,0,0:0:0:0:
102,222,65073,1,0,0:0:0:0:
250,39,65191,5,0,0:0:0:0:
235,330,65309,1,0,0:0:0:0:
165,117,65427,1,0,0:0:0:0:
130,384,65545,5,0,0:0:0:0:
317,103,65664,1,0,0:0:0:0:
349,300,65782,1,0,0:0:0:0:
459,52,65900,5,0,0:0:0:0:
459,52,66372,6,0,P|432:93|412:195,1,143.999995605469
471,295,66727,1,0,0:0:0:0:
471,295,66845,2,0,P|427:309|398:306,1,71.9999978027344
324,215,67081,2,0,P|288:214|254:226,1,71.9999978027344
153,330,67317,6,0,P|180:289|134:208,1,143.999995605469
27,308,67671,1,0,0:0:0:0:
27,308,67790,2,0,P|18:261|27:225,1,71.9999978027344
141,211,68026,2,0,P|145:175|136:140,1,71.9999978027344
95,27,68262,6,0,B|178:11|160:70|233:58,1,143.999995605469
319,62,68616,1,0,0:0:0:0:
410,9,68734,2,0,P|410:56|419:91,1,71.9999978027344
506,160,68971,2,0,P|512:124|511:88,1,71.9999978027344
361,149,69207,2,0,P|314:149|279:158,1,71.9999978027344
386,294,69443,2,0,P|409:253|419:218,1,71.9999978027344
247,243,69679,2,0,P|270:283|295:309,1,71.9999978027344
289,154,69916,1,0,0:0:0:0:
194,168,70034,1,0,0:0:0:0:
358,214,70152,6,0,P|381:160|349:81,1,143.999995605469
224,39,70506,1,0,0:0:0:0:
224,39,70624,2,0,P|175:28|144:33,1,71.9999978027344
20,76,70860,2,0,P|34:126|52:146,1,71.9999978027344
205,174,71097,6,0,P|162:165|129:174,1,71.9999978027344
62,281,71333,2,0,P|105:290|138:281,1,71.9999978027344
309,161,71569,1,0,0:0:0:0:
107,195,71687,1,0,0:0:0:0:
361,291,71805,1,0,0:0:0:0:
220,270,71923,1,0,0:0:0:0:
323,47,72042,5,0,0:0:0:0:
323,47,73341,1,0,0:0:0:0:
323,47,73400,1,0,0:0:0:0:
323,47,73459,1,0,0:0:0:0:
220,270,73577,1,0,0:0:0:0:
367,252,73695,1,0,0:0:0:0:
181,123,73813,1,0,0:0:0:0:
437,162,73931,6,0,P|453:220|445:331,1,160
362,384,74286,1,0,0:0:0:0:
291,226,74404,2,0,P|279:187|252:151,1,80
128,352,74640,1,0,0:0:0:0:
220,270,74758,1,0,0:0:0:0:
48,191,74876,6,0,B|44:109|109:124|110:37,1,160
261,95,75231,1,0,0:0:0:0:
138,175,75349,1,0,0:0:0:0:
205,10,75467,1,0,0:0:0:0:
270,213,75585,2,0,P|318:219|361:207,1,80
481,72,75821,6,0,P|441:123|437:199,1,120
501,218,76057,2,0,P|506:266|494:318,1,80
270,213,76293,2,0,P|226:229|201:252,1,80
344,347,76530,2,0,P|352:300|344:267,1,80
190,344,76766,2,0,P|225:374|258:384,1,80
172,185,77002,2,0,P|122:172|76:183,1,80
127,291,77238,1,0,0:0:0:0:
270,213,77356,1,0,0:0:0:0:
94,175,77475,1,0,0:0:0:0:
271,300,77593,1,0,0:0:0:0:
226,80,77711,6,0,P|192:123|170:196,1,120
94,175,77947,2,0,P|100:232|95:268,1,80
43,55,78183,2,0,P|91:43|127:49,1,80
249,176,78419,2,0,P|201:188|165:182,1,80
361,44,78656,6,0,P|383:90|400:200,1,160
307,340,79010,2,0,P|302:288|309:253,1,80
306,260,79246,1,0,0:0:0:0:
209,105,79364,6,0,P|187:151|170:261,1,160
169,257,79719,1,0,0:0:0:0:
84,163,79837,2,0,P|37:153|-1:160,1,80
48,331,80073,2,0,P|52:270|43:235,1,80
170,178,80309,2,0,P|166:239|175:274,1,80
251,338,80545,5,0,0:0:0:0:
316,247,80664,1,0,0:0:0:0:
316,247,80723,1,0,0:0:0:0:
316,247,80782,1,0,0:0:0:0:
169,257,80900,1,0,0:0:0:0:
395,277,81018,1,0,0:0:0:0:
228,108,81136,1,0,0:0:0:0:
429,124,81254,1,0,0:0:0:0:
252,198,81372,1,0,0:0:0:0:
512,200,81490,6,0,P|490:236|475:315,1,120.000004577637
468,384,81845,1,0,0:0:0:0:
348,177,82081,1,0,0:0:0:0:
220,364,82317,2,0,P|201:318|199:243,1,120.000004577637
213,177,82671,1,0,0:0:0:0:
358,341,82908,1,0,0:0:0:0:
101,303,83144,1,0,0:0:0:0:
352,216,83380,6,0,P|408:200|434:122,1,120.000004577637
139,162,83853,1,0,0:0:0:0:
348,134,84089,1,0,0:0:0:0:
230,0,84325,1,0,0:0:0:0:
170,244,84561,1,0,0:0:0:0:
139,162,84679,2,0,B|248:149|220:218|312:216,1,180.000006866455
469,241,85152,1,0,0:0:0:0:
403,184,85270,6,0,P|386:235|379:324,1,120.000004577637
383,378,85624,1,0,0:0:0:0:
161,337,85860,1,0,0:0:0:0:
301,218,86097,2,0,P|330:175|301:98,1,120.000004577637
251,71,86451,1,0,0:0:0:0:
269,333,86687,1,0,0:0:0:0:
464,170,86923,1,0,0:0:0:0:
131,182,87160,6,0,L|117:256,1,60.0000022888184
210,241,87396,1,0,0:0:0:0:
285,151,87514,2,0,L|299:225,1,60.0000022888184
281,292,87750,1,0,0:0:0:0:
207,159,87868,2,0,P|210:120|293:74,2,120.000004577637
207,159,88577,5,0,0:0:0:0:
296,209,88695,1,0,0:0:0:0:
169,236,88813,1,0,0:0:0:0:
351,279,88931,1,0,0:0:0:0:
143,322,89049,6,0,B|55:332|85:279|0:289,1,136.000002593994
87,204,89404,1,0,0:0:0:0:
169,236,89522,2,0,P|185:199|209:179,1,68.0000012969971
401,127,89758,2,0,P|389:176|376:198,1,68.0000012969971
128,87,89994,6,0,P|169:60|241:108,1,136.000002593994
450,59,90349,1,0,0:0:0:0:
370,29,90467,2,0,P|337:54|322:84,1,68.0000012969971
306,246,90703,2,0,P|303:192|297:163,1,68.0000012969971
19,127,90939,6,0,P|29:198|66:271,1,136.000002593994
207,181,91293,1,0,0:0:0:0:
162,108,91412,2,0,P|121:91|92:89,1,68.0000012969971
223,290,91648,2,0,P|256:285|287:270,1,68.0000012969971
445,71,91884,6,0,P|398:82|367:161,1,136.000002593994
475,248,92238,1,0,0:0:0:0:
349,368,92356,2,0,P|308:358|281:336,1,68.0000012969971
236,173,92593,1,0,0:0:0:0:
354,272,92711,1,0,0:0:0:0:
132,343,92829,6,0,B|162:271|88:252|122:164,1,160
263,19,93183,2,0,P|263:72|361:123,1,160
277,384,93538,2,0,P|301:317|287:231,1,160
113,284,93892,2,0,P|148:307|190:312,1,80
213,219,94128,1,0,0:0:0:0:
385,363,94246,2,0,P|382:304|392:267,1,80
294,94,94482,2,0,P|297:153|287:190,1,80
113,284,94719,6,0,P|128:240|33:172,1,160
305,264,95073,2,0,B|383:254|375:327|457:320,1,160
447,47,95427,2,0,P|398:64|360:103,1,80
464,221,95664,2,0,P|473:170|459:117,1,80
304,148,95900,2,0,P|343:181|395:195,1,80
206,35,96136,2,0,P|169:51|140:78,1,80
273,240,96372,1,0,0:0:0:0:
220,121,96490,1,0,0:0:0:0:
41,272,96608,6,0,P|96:283|147:274,1,95.9999970703126
281,248,96845,1,0,0:0:0:0:
86,64,96963,2,0,P|78:114|98:176,1,95.9999970703126
216,305,97199,1,0,0:0:0:0:
319,117,97317,2,0,P|371:101|423:112,1,95.9999970703126
371,312,97553,5,0,0:0:0:0:
202,120,97671,2,0,P|189:76|198:9,1,95.9999970703126
368,196,97908,1,0,0:0:0:0:
145,254,98026,2,0,P|94:264|47:256,1,95.9999970703126
329,105,98262,2,0,P|380:95|427:104,1,95.9999970703126
256,339,98498,5,0,0:0:0:0:
243,363,98853,1,0,0:0:0:0:
184,105,99207,5,0,0:0:0:0:
370,384,99443,5,0,0:0:0:0:
370,384,99916,5,0,0:0:0:0:
450,365,100034,1,0,0:0:0:0:
354,380,100152,1,0,0:0:0:0:
467,369,100270,1,0,0:0:0:0:
279,143,100388,6,0,B|176:147|217:215|119:212,1,176.000005371094
27,162,100742,1,0,0:0:0:0:
268,236,100860,2,0,P|280:288|278:333,1,88.000002685547
125,127,101097,1,0,0:0:0:0:
193,299,101215,1,0,0:0:0:0:
135,102,101333,6,0,P|165:59|204:41,1,88.000002685547
353,218,101569,1,0,0:0:0:0:
124,212,101687,1,0,0:0:0:0:
350,112,101805,2,0,P|398:102|455:109,1,88.000002685547
288,361,102042,2,0,P|285:299|275:252,1,88.000002685547
5,255,102278,6,0,P|43:311|140:289,1,176.000005371094
135,102,102632,2,0,P|85:110|45:125,1,88.000002685547
289,178,102868,2,0,P|330:163|374:157,1,88.000002685547
253,257,103105,1,0,0:0:0:0:
217,97,103223,1,0,0:0:0:0:
383,286,103341,1,0,0:0:0:0:
426,69,103459,1,0,0:0:0:0:
247,270,103577,1,0,0:0:0:0:
175,24,103695,6,0,P|93:7|141:109,1,240
401,202,104168,6,0,B|292:196|341:287|212:267,1,176.000005371094
159,189,104522,1,0,0:0:0:0:
380,287,104640,2,0,P|417:316|441:355,1,88.000002685547
243,182,104876,2,0,P|249:135|271:95,1,88.000002685547
265,352,105112,2,0,P|221:369|175:370,1,88.000002685547
159,189,105349,1,0,0:0:0:0:
113,302,105467,1,0,0:0:0:0:
40,165,105585,2,0,P|38:115|43:76,1,88.000002685547
283,234,105821,2,0,P|233:278|210:281,1,88.000002685547
351,49,106057,6,0,P|341:108|379:227,1,176.000005371094
229,361,106412,2,0,P|263:304|182:265,1,176.000005371094
0,167,106766,2,0,P|48:194|104:188,1,88.000002685547
233,126,107002,5,0,0:0:0:0:
62,10,107120,2,0,P|63:69|68:116,1,88.000002685547
102,293,107356,1,0,0:0:0:0:
176,67,107475,5,0,0:0:0:0:
189,49,107534,1,0,0:0:0:0:
209,40,107593,1,0,0:0:0:0:
230,42,107652,1,0,0:0:0:0:
249,53,107711,1,0,0:0:0:0:
260,72,107770,1,0,0:0:0:0:
260,94,107829,1,0,0:0:0:0:
251,113,107888,1,0,0:0:0:0:
233,126,107947,6,0,B|168:244|295:244|239:384,1,264.000008056641
103,223,108419,2,0,P|60:180|42:138,1,88.000002685547
323,183,108656,5,0,0:0:0:0:
127,329,108774,1,0,0:0:0:0:
323,152,108892,6,0,P|358:112|390:91,1,88.000002685547
228,283,109128,5,0,0:0:0:0:
199,40,109246,1,0,0:0:0:0:
259,294,109364,6,0,P|276:344|278:382,1,88.000002685547
194,139,109601,5,0,0:0:0:0:
418,235,109719,1,0,0:0:0:0:
161,154,109837,6,0,P|108:143|74:126,1,88.000002685547
339,108,110073,2,0,P|354:162|349:197,1,88.000002685547
121,345,110309,1,0,0:0:0:0:
161,154,110427,1,0,0:0:0:0:
295,293,110545,1,0,0:0:0:0:
272,161,110664,1,0,0:0:0:0:
97,363,110782,6,0,P|69:278|70:174,1,176.000005371094
94,91,111136,1,0,0:0:0:0:
192,283,111254,2,0,P|234:294|279:286,1,88.000002685547
272,161,111490,1,0,0:0:0:0:
92,376,111608,1,0,0:0:0:0:
383,90,111727,6,0,B|402:185|339:179|366:289,1,176.000005371094
410,350,112081,1,0,0:0:0:0:
204,201,112199,1,0,0:0:0:0:
465,248,112317,1,0,0:0:0:0:
103,127,112435,6,0,P|67:167|44:290,1,176.000005371094
172,379,112790,1,0,0:0:0:0:
250,123,112908,2,0,P|262:74|262:30,1,88.000002685547
129,216,113144,2,0,P|130:259|141:302,1,88.000002685547
331,177,113380,2,0,P|386:155|431:157,1,88.000002685547
304,379,113616,6,0,P|313:324|315:275,1,88.000002685547
331,177,113853,1,0,0:0:0:0:
138,303,113971,6,0,P|130:253|127:199,1,88.000002685547
111,101,114208,1,0,0:0:0:0:
419,240,114325,6,0,P|426:181|430:136,1,88.000002685547
446,38,114562,1,0,0:0:0:0:
298,203,114679,6,0,P|252:212|200:203,1,88.000002685547
253,104,114916,1,0,0:0:0:0:
253,104,114975,1,0,0:0:0:0:
253,104,115034,2,0,B|282:98|282:98|327:105,2,58.6666684570313
156,57,115270,2,0,B|127:63|127:63|82:56,2,58.6666684570313
21,217,115506,6,0,P|74:212|147:319,1,176.000005371094
55,306,115860,1,0,0:0:0:0:
248,242,115979,1,0,0:0:0:0:
228,364,116097,1,0,0:0:0:0:
150,100,116215,6,0,B|247:93|214:161|307:164,1,176.000005371094
411,121,116569,1,0,0:0:0:0:
248,242,116687,2,0,P|242:295|247:342,1,88.000002685547
66,148,116923,2,0,P|68:104|62:60,1,88.000002685547
15,310,117160,2,0,P|70:276|108:267,1,88.000002685547
351,61,117396,6,0,P|343:121|329:172,1,88.000002685547
257,300,117632,1,0,0:0:0:0:
143,49,117750,6,0,P|151:109|165:160,1,88.000002685547
257,329,117986,1,0,0:0:0:0:
432,32,118105,6,0,P|428:92|418:142,1,88.000002685547
257,354,118341,1,0,0:0:0:0:
242,132,118459,6,0,P|296:125|338:135,1,88.000002685547
412,252,118695,1,0,0:0:0:0:
140,191,118813,2,0,P|132:139|136:97,1,88.000002685547
323,204,119049,2,0,P|331:256|327:298,1,88.000002685547
54,167,119286,5,0,0:0:0:0:
320,128,119405,1,0,0:0:0:0:
201,252,119523,1,0,0:0:0:0:
435,258,119641,5,0,0:0:0:0:
231,172,119759,1,0,0:0:0:0:
404,153,119877,1,0,0:0:0:0:
180,337,119994,5,0,0:0:0:0:
220,80,120112,1,0,0:0:0:0:
290,249,120231,1,0,0:0:0:0:
123,71,120349,5,0,0:0:0:0:
273,338,120467,1,0,0:0:0:0:
321,139,120585,1,0,0:0:0:0:
201,252,120703,5,0,0:0:0:0:
201,252,121175,6,0,B|199:135|118:174|124:28,1,240
336,130,121648,1,0,0:0:0:0:
204,69,121766,1,0,0:0:0:0:
377,27,121884,1,0,0:0:0:0:
274,192,122002,1,0,0:0:0:0:
385,8,122120,2,0,P|412:44|421:103,1,80
388,280,122356,6,0,P|370:205|327:116,1,160
290,278,122711,1,0,0:0:0:0:
438,159,122829,2,0,P|476:138|517:130,1,80
468,322,123065,2,0,P|412:372|322:351,1,160
263,191,123419,1,0,0:0:0:0:
204,370,123538,1,0,0:0:0:0:
286,182,123656,1,0,0:0:0:0:
388,280,123774,6,0,P|381:199|354:110,1,160
228,39,124128,1,0,0:0:0:0:
189,238,124246,2,0,P|142:256|98:256,1,80
27,156,124482,2,0,P|74:138|118:138,1,80
194,248,124719,2,0,P|147:266|103:266,1,80
265,118,124955,6,0,P|272:199|299:288,1,160
405,314,125309,1,0,0:0:0:0:
355,150,125427,1,0,0:0:0:0:
282,366,125545,1,0,0:0:0:0:
272,200,125664,1,0,0:0:0:0:
412,326,125782,1,0,0:0:0:0:
366,56,125900,6,0,B|271:57|308:121|202:116,1,160
16,111,126254,2,0,P|54:73|157:51,1,160
141,284,126608,2,0,P|133:230|131:182,1,80
288,92,126845,5,0,0:0:0:0:
226,327,126963,1,0,0:0:0:0:
202,175,127081,1,0,0:0:0:0:
368,340,127199,5,0,0:0:0:0:
396,69,127317,1,0,0:0:0:0:
320,200,127435,1,0,0:0:0:0:
510,132,127553,5,0,0:0:0:0:
207,88,127671,1,0,0:0:0:0:
432,235,127790,6,0,P|431:188|417:146,1,80
267,323,128026,1,0,0:0:0:0:
498,303,128144,1,0,0:0:0:0:
203,250,128262,2,0,P|178:260|159:274,3,40
67,196,128498,2,0,P|85:202|102:213,3,40
164,158,128734,5,0,0:0:0:0:
150,359,128853,1,0,0:0:0:0:
255,187,128971,1,0,0:0:0:0:
267,323,129089,1,0,0:0:0:0:
388,156,129207,1,0,0:0:0:0:
355,380,129325,1,0,0:0:0:0:
306,118,129443,6,0,P|360:69|453:95,1,160
512,182,129797,1,0,0:0:0:0:
333,351,129916,2,0,P|282:327|260:296,1,80
428,249,130152,2,0,P|432:305|416:339,1,80
292,217,130388,2,0,P|338:184|376:181,1,80
348,271,130624,5,0,0:0:0:0:
362,70,130743,1,0,0:0:0:0:
257,242,130861,1,0,0:0:0:0:
245,106,130979,1,0,0:0:0:0:
124,273,131097,1,0,0:0:0:0:
157,49,131215,1,0,0:0:0:0:
206,311,131333,6,0,P|152:360|59:334,1,160
0,247,131687,1,0,0:0:0:0:
189,75,131806,2,0,P|240:99|262:130,1,80
94,177,132042,2,0,P|89:120|105:86,1,80
230,209,132278,2,0,P|183:241|145:244,1,80
168,153,132514,5,0,0:0:0:0:
485,189,132632,1,0,0:0:0:0:
100,309,132750,1,0,0:0:0:0:
412,252,132868,5,0,0:0:0:0:
230,209,132986,1,0,0:0:0:0:
433,117,133105,1,0,0:0:0:0:
248,310,133223,5,0,0:0:0:0:
324,31,133341,1,0,0:0:0:0:
427,340,133459,1,0,0:0:0:0:
351,117,133577,5,0,0:0:0:0:
296,384,133695,1,0,0:0:0:0:
179,57,133813,1,0,0:0:0:0:
77,366,133931,6,0,P|65:310|70:274,1,88.000002685547
351,117,134168,2,0,P|363:173|358:209,1,88.000002685547
22,123,134404,5,0,0:0:0:0:
445,161,134522,1,0,0:0:0:0:
154,258,134640,1,0,0:0:0:0:
415,55,134758,5,0,0:0:0:0:
53,218,134876,1,0,0:0:0:0:
351,288,134994,1,0,0:0:0:0:
179,57,135112,5,0,0:0:0:0:
296,384,135231,1,0,0:0:0:0:
317,119,135349,1,0,0:0:0:0:
116,384,135467,5,0,0:0:0:0:
266,37,135585,1,0,0:0:0:0:
431,271,135703,1,0,0:0:0:0:
23,149,135821,6,0,P|90:135|126:148,1,88.000002685547
442,282,136057,2,0,P|375:296|339:283,1,88.000002685547
379,33,136293,6,0,P|396:104|393:148,1,100
366,265,136530,1,0,0:0:0:0:
123,41,136648,2,0,P|106:112|109:156,1,100
150,302,136885,1,0,0:0:0:0:
395,130,137002,2,0,P|449:118|494:122,1,100
260,380,137238,6,0,P|261:317|257:270,1,100
228,50,137475,1,0,0:0:0:0:
184,348,137593,1,0,0:0:0:0:
395,130,137711,1,0,0:0:0:0:
96,183,137829,1,0,0:0:0:0:
368,316,137947,1,0,0:0:0:0:
252,203,138065,1,0,0:0:0:0:
62,383,138183,5,0,0:0:0:0:
367,219,138301,1,0,0:0:0:0:
86,38,138419,1,0,0:0:0:0:
169,249,138538,1,0,0:0:0:0:
178,272,138597,1,0,0:0:0:0:
187,295,138656,6,0,B|198:329|198:329|192:364,2,66.6666666666667
252,203,138892,2,0,B|241:169|241:169|247:134,2,66.6666666666667
336,353,139128,5,0,0:0:0:0:
344,372,139601,1,0,0:0:0:0:
350,381,140073,5,0,0:0:0:0:
112,323,147632,5,0,0:0:0:0:
216,44,148105,1,0,0:0:0:0:
342,330,148577,1,0,0:0:0:0:
354,60,149049,1,0,0:0:0:0:
65,205,149522,5,0,0:0:0:0:
440,310,149994,1,0,0:0:0:0:
216,44,150467,1,0,0:0:0:0:
254,339,150939,1,0,0:0:0:0:
284,198,151175,1,0,0:0:0:0:
55,326,151412,5,0,0:0:0:0:
425,257,151648,1,0,0:0:0:0:
90,107,151884,1,0,0:0:0:0:
427,112,152120,1,0,0:0:0:0:
153,376,152356,5,0,0:0:0:0:
269,34,152593,1,0,0:0:0:0:
479,337,152829,1,0,0:0:0:0:
61,199,153065,1,0,0:0:0:0:
436,132,153301,5,0,0:0:0:0:
314,264,153419,2,0,P|280:295|244:311,1,80
306,81,153656,5,0,0:0:0:0:
416,303,153774,2,0,P|443:328|485:348,1,80
452,132,154010,5,0,0:0:0:0:
315,283,154128,2,0,P|281:314|245:330,1,80
287,77,154364,5,0,0:0:0:0:
412,323,154482,2,0,P|439:348|481:368,1,80
253,185,154719,5,0,0:0:0:0:
491,265,154837,1,0,0:0:0:0:
250,328,154955,1,0,0:0:0:0:
365,205,155073,1,0,0:0:0:0:
171,136,155191,6,0,P|169:179|166:188,1,40
50,288,155309,2,0,P|33:259|23:249,3,40
7,96,155545,6,0,P|9:139|12:148,1,40
120,332,155664,2,0,P|137:303|147:293,3,40
90,126,155900,6,0,B|91:160|99:185,1,40
239,334,156018,2,0,B|242:328|243:294,1,40
261,67,156136,5,0,0:0:0:0:
261,67,156608,6,0,P|254:101|257:131,1,60
483,319,157081,6,0,P|460:243|361:242,1,176.000005371094
259,355,157435,1,0,0:0:0:0:
188,160,157553,2,0,P|184:106|171:66,1,88.000002685547
162,254,157790,1,0,0:0:0:0:
347,139,157908,1,0,0:0:0:0:
87,161,158026,6,0,P|36:190|7:223,1,88.000002685547
286,221,158262,1,0,0:0:0:0:
90,74,158380,1,0,0:0:0:0:
119,335,158498,2,0,P|169:346|220:337,1,88.000002685547
227,83,158734,2,0,P|196:126|187:168,1,88.000002685547
409,324,158971,6,0,P|407:264|412:221,1,88.000002685547
458,82,159207,1,0,0:0:0:0:
269,363,159325,2,0,P|251:305|245:262,1,88.000002685547
346,68,159561,2,0,P|352:122|348:165,1,88.000002685547
66,169,159797,1,0,0:0:0:0:
256,117,159916,5,0,0:0:0:0:
156,273,160034,2,0,P|127:306|94:335,1,88.000002685547
170,50,160270,1,0,0:0:0:0:
344,222,160388,1,0,0:0:0:0:
161,172,160506,1,0,0:0:0:0:
467,78,160624,1,0,0:0:0:0:
246,98,160742,1,0,0:0:0:0:
452,312,160860,6,0,P|459:231|419:143,1,176.000005371094
136,241,161215,1,0,0:0:0:0:
282,322,161333,2,0,P|320:343|367:346,1,88.000002685547
313,167,161569,2,0,P|269:170|231:191,1,88.000002685547
160,375,161805,6,0,P|188:332|196:282,1,88.000002685547
4,147,162042,2,0,P|14:189|39:225,1,88.000002685547
200,59,162278,1,0,0:0:0:0:
95,158,162396,1,0,0:0:0:0:
311,47,162514,2,0,P|358:36|414:28,1,88.000002685547
464,308,162750,6,0,B|370:310|400:222|283:235,1,176.000005371094
12,186,163105,2,0,B|106:188|76:100|193:113,1,176.000005371094
389,56,163459,2,0,P|399:104|401:156,1,88.000002685547
317,323,163695,5,0,0:0:0:0:
210,183,163813,2,0,P|238:132|264:107,1,88.000002685547
468,218,164049,1,0,0:0:0:0:
211,332,164168,5,0,0:0:0:0:
198,350,164227,1,0,0:0:0:0:
178,359,164286,1,0,0:0:0:0:
157,357,164345,1,0,0:0:0:0:
138,346,164404,1,0,0:0:0:0:
127,327,164463,1,0,0:0:0:0:
127,305,164522,1,0,0:0:0:0:
136,286,164581,1,0,0:0:0:0:
154,273,164640,6,0,B|219:155|92:155|145:21,1,264.000008056641
315,261,165112,2,0,P|324:312|319:361,1,88.000002685547
171,186,165349,1,0,0:0:0:0:
348,184,165467,1,0,0:0:0:0:
154,273,165585,6,0,P|104:280|50:266,1,88.000002685547
309,103,165821,1,0,0:0:0:0:
238,315,165939,1,0,0:0:0:0:
158,88,166057,6,0,P|165:26|176:-2,1,88.000002685547
403,275,166293,1,0,0:0:0:0:
171,186,166412,1,0,0:0:0:0:
429,145,166530,6,0,P|479:149|516:168,1,88.000002685547
325,347,166766,2,0,P|319:290|304:242,1,88.000002685547
254,114,167002,5,0,0:0:0:0:
185,337,167120,1,0,0:0:0:0:
347,143,167238,1,0,0:0:0:0:
403,275,167356,1,0,0:0:0:0:
171,186,167475,6,0,P|92:192|-4:255,1,176.000005371094
266,311,167829,1,0,0:0:0:0:
256,142,167947,2,0,P|264:73|277:39,1,88.000002685547
403,275,168183,2,0,P|414:317|416:361,1,88.000002685547
165,332,168419,6,0,P|183:264|279:221,1,176.000005371094
329,371,168774,1,0,0:0:0:0:
128,192,168892,1,0,0:0:0:0:
357,197,169010,1,0,0:0:0:0:
67,285,169128,6,0,P|43:214|28:95,1,176.000005371094
266,117,169482,1,0,0:0:0:0:
222,302,169601,2,0,P|203:349|181:379,1,88.000002685547
157,114,169837,1,0,0:0:0:0:
379,183,169955,1,0,0:0:0:0:
216,196,170073,2,0,P|153:213|125:233,1,88.000002685547
326,270,170309,5,0,0:0:0:0:
358,100,170427,2,0,P|379:55|406:26,1,88.000002685547
207,295,170664,5,0,0:0:0:0:
157,114,170782,2,0,P|136:69|109:40,1,88.000002685547
402,330,171018,5,0,0:0:0:0:
457,115,171136,2,0,P|478:70|505:41,1,88.000002685547
362,246,171372,2,0,P|296:253|270:243,1,88.000002685547
322,112,171608,5,0,0:0:0:0:
322,112,171668,1,0,0:0:0:0:
322,112,171727,2,0,B|329:141|329:141|323:169,2,58.6666684570313
185,213,171963,2,0,B|179:241|179:241|186:270,2,58.6666684570313
68,51,172199,6,0,P|79:99|70:190,1,136.000002593994
50,284,172553,1,0,0:0:0:0:
50,284,172671,2,0,P|101:257|182:246,1,136.000002593994
282,301,173026,2,0,P|325:301|359:282,1,68.0000012969971
425,239,173262,1,0,0:0:0:0:
268,152,173380,2,0,P|311:152|345:171,1,68.0000012969971
282,301,173616,2,0,P|279:257|294:221,1,68.0000012969971
429,172,173853,2,0,P|432:216|417:252,1,68.0000012969971
268,152,174089,6,0,B|191:153|220:209|135:206,1,136.000002593994
40,241,174443,1,0,0:0:0:0:
40,241,174561,2,0,P|48:174|84:108,1,136.000002593994
183,0,174916,2,0,P|212:27|227:56,1,68.0000012969971
268,152,175152,1,0,0:0:0:0:
79,113,175270,2,0,P|118:88|158:78,1,68.0000012969971
158,234,175506,2,0,L|149:158,2,68.0000012969971
170,323,175860,1,0,0:0:0:0:
376,269,175979,6,0,B|368:202|414:205|394:120,1,136.000002593994
327,18,176333,1,0,0:0:0:0:
327,18,176451,2,0,P|309:87|311:155,1,136.000002593994
272,256,176805,2,0,P|231:228|205:222,1,68.0000012969971
96,239,177042,1,0,0:0:0:0:
223,128,177160,2,0,P|225:90|217:55,1,68.0000012969971
99,171,177396,2,0,P|92:204|95:238,2,68.0000012969971
126,62,177750,1,0,0:0:0:0:
213,223,177868,1,0,0:0:0:0:
213,223,179049,6,0,P|219:267|219:306,1,68.0000012969971
239,130,179286,1,0,0:0:0:0:
134,177,179404,1,0,0:0:0:0:
254,130,179522,1,0,0:0:0:0:
122,175,179640,1,0,0:0:0:0:
399,338,179758,6,0,B|383:239|449:263|441:163,1,176.000005371094
282,44,180112,1,0,0:0:0:0:
197,261,180231,2,0,P|188:312|193:361,1,88.000002685547
341,186,180468,1,0,0:0:0:0:
164,184,180586,1,0,0:0:0:0:
358,273,180704,6,0,P|408:280|462:266,1,88.000002685547
203,103,180940,1,0,0:0:0:0:
274,315,181058,1,0,0:0:0:0:
354,88,181176,6,0,P|347:26|336:-2,1,88.000002685547
109,275,181412,1,0,0:0:0:0:
341,186,181531,1,0,0:0:0:0:
83,145,181649,6,0,P|33:149|-4:168,1,88.000002685547
178,377,181884,2,0,P|191:317|198:262,1,88.000002685547
216,125,182120,1,0,0:0:0:0:
72,345,182238,1,0,0:0:0:0:
74,133,182356,1,0,0:0:0:0:
202,302,182475,1,0,0:0:0:0:
339,108,182593,6,0,P|305:24|231:36,1,176.000005371094
285,350,182947,1,0,0:0:0:0:
456,221,183065,2,0,P|405:208|344:199,1,88.000002685547
136,178,183301,2,0,P|179:170|221:159,1,88.000002685547
27,48,183538,6,0,P|4:129|16:222,1,176.000005371094
193,334,183892,1,0,0:0:0:0:
221,159,184010,1,0,0:0:0:0:
60,375,184128,1,0,0:0:0:0:
14,218,184246,1,0,0:0:0:0:
302,248,184364,6,0,P|360:262|456:336,1,176.000005371094
193,334,184719,2,0,P|172:283|169:244,1,88.000002685547
383,180,184955,2,0,P|404:129|407:90,1,88.000002685547
142,1,185191,2,0,P|147:44|166:84,1,88.000002685547
304,164,185427,5,0,0:0:0:0:
116,216,185545,2,0,P|70:244|42:275,1,88.000002685547
338,252,185782,5,0,0:0:0:0:
83,142,185900,2,0,P|37:114|9:83,1,88.000002685547
319,161,186136,5,0,0:0:0:0:
103,223,186254,2,0,P|57:251|29:282,1,88.000002685547
337,339,186490,2,0,P|338:270|336:237,1,88.000002685547
254,45,186727,5,0,0:0:0:0:
254,45,186786,1,0,0:0:0:0:
254,45,186845,2,0,B|258:77|258:77|253:108,2,58.6666684570313
185,166,187081,2,0,B|181:198|181:198|186:229,2,58.6666684570313
337,251,187317,6,0,B|224:239|279:317|149:314,1,176.000005371094
341,158,187671,1,0,0:0:0:0:
323,340,187790,1,0,0:0:0:0:
185,224,187908,1,0,0:0:0:0:
416,311,188026,1,0,0:0:0:0:
61,354,188144,6,0,P|52:291|99:186,1,176.000005371094
323,340,188498,2,0,P|258:342|228:328,1,88.000002685547
388,116,188734,2,0,P|422:170|425:202,1,88.000002685547
161,172,188971,2,0,P|190:114|217:96,1,88.000002685547
