osu file format v14

[General]
AudioFilename: audio.mp3
AudioLeadIn: 0
PreviewTime: 44651
Countdown: 0
SampleSet: Normal
StackLeniency: 0.7
Mode: 0
LetterboxInBreaks: 0
WidescreenStoryboard: 1

[Editor]
DistanceSpacing: 1.6
BeatDivisor: 4
GridSize: 4
TimelineZoom: 2.3

[Metadata]
Title:XY&Z (TV Size)
TitleUnicode:XY&Z (TV Size)
Artist:Satoshi (CV:Rica Matsumoto)
ArtistUnicode:サトシ(CV:松本 梨香)
Creator:- G I D Z -
Version:eaZy
Source:ポケットモンスターXY&Z
Tags:OP Opening IKU XY and Z Xerneas Yveltal Zygarde Opening Ash Ketchum Pokemon Pokémon Pocket Monsters ジガルデ Rika 佐香智久 XYZ Tomohisa Sako Saku Puni-chan
BeatmapID:967488
BeatmapSetID:449186

[Difficulty]
HPDrainRate:3
CircleSize:3
OverallDifficulty:2
ApproachRate:3
SliderMultiplier:0.500000005960464
SliderTickRate:1

[Events]
//Background and Video events
0,0,"Z image.jpg",0,0
//Break Periods
//Storyboard Layer 0 (Background)
//Storyboard Layer 1 (Fail)
//Storyboard Layer 2 (Pass)
//Storyboard Layer 3 (Foreground)
//Storyboard Sound Samples

[TimingPoints]
478,236.220472440945,4,1,1,70,1,0
3785,236.220472440945,4,1,1,70,1,0
3785,-100,4,1,1,70,0,0
11344,-100,4,2,0,50,0,0
18903,-100,4,1,1,70,0,0
44651,-100,4,1,1,80,0,1
59769,-100,4,1,1,70,0,0
68036,-100,4,1,1,80,0,1
77485,-100,4,1,1,70,0,0

[Colours]
Combo1 : 255,255,0
Combo2 : 255,0,0
Combo3 : 0,255,0
Combo4 : 64,0,128
Combo5 : 0,0,255

[HitObjects]
364,72,477,6,0,P|400:56|440:56,2,75.0000008940696,0|8|0,0:0|0:0|0:0,0:0:0:0:
376,192,1540,2,0,P|332:208|296:204,1,75.0000008940696,8|0,0:0|0:0,0:0:0:0:
224,192,2131,1,8,0:0:0:0:
224,112,2367,6,0,B|224:80|224:80|200:40,2,75.0000008940696,0|8|0,0:0|0:0|0:0,0:0:0:0:
224,192,3312,1,8,0:0:0:0:
124,316,3785,6,0,B|160:316|160:316|192:308|192:308|224:308,1,100.000001192093,4|0,0:0|0:0,0:0:0:0:
344,296,4611,2,0,B|384:296|384:296|420:252|420:252|456:252,1,125.000001490116,4|0,0:0|0:0,0:0:0:0:
440,92,5674,2,0,B|404:92|404:92|372:84|372:84|340:84,1,100.000001192093,4|0,0:0|0:0,0:0:0:0:
220,84,6501,2,0,B|188:84|188:84|153:40|153:40|112:40,1,125.000001490116,4|0,0:0|0:0,0:0:0:0:
72,192,7564,6,0,B|120:196|120:196|180:192,1,100.000001192093,4|0,0:0|0:0,0:0:0:0:
332,176,8509,1,0,0:0:0:0:
480,232,8981,1,8,0:0:0:0:
356,332,9454,6,4,B|396:348|396:348|432:332,2,75.0000008940696,4|12|4,0:0|0:0|0:0,0:0:0:0:
236,316,10517,2,0,B|192:300|156:320,1,75.0000008940696,8|0,0:0|0:0,0:0:0:0:
88,344,11107,1,8,0:0:0:0:
40,280,11344,6,0,B|12:260|36:220|36:220|60:180|24:136,1,150.000001788139,4|8,0:0|0:0,0:0:0:0:
20,64,12288,2,0,B|40:36|80:60|80:60|120:84|164:48,1,150.000001788139,0|8,0:0|0:0,0:0:0:0:
236,40,13233,2,0,B|266:77|242:117|242:117|218:157|246:177,1,150.000001788139,0|8,0:0|0:0,0:0:0:0:
252,256,14178,2,0,B|289:286|329:262|329:262|369:238|389:266,1,150.000001788139,0|8,0:0|0:0,0:0:0:0:
440,324,15123,5,4,0:0:0:0:
256,64,16068,1,0,0:0:0:0:
88,336,17013,1,0,0:0:0:0:
408,332,17958,1,0,0:0:0:0:
200,88,18903,6,0,B|184:108|192:132|192:132|212:160|192:188,1,100.000001192093,4|8,0:0|0:0,0:0:0:0:
68,276,19847,1,0,0:0:0:0:
376,356,20792,1,0,0:0:0:0:
388,36,21737,2,0,L|388:140,1,100.000001192093,0|8,0:0|0:0,0:0:0:0:
256,228,22682,6,0,P|288:260|340:276,2,100.000001192093
176,88,24099,1,0,0:0:0:0:
84,220,24572,2,0,L|88:328,1,100.000001192093
248,328,25517,2,0,L|256:228,1,100.000001192093
196,80,26462,6,0,P|244:64|292:72,1,100.000001192093,4|0,0:0|0:0,0:0:0:0:
428,156,27407,1,0,0:0:0:0:
368,304,27879,1,0,0:0:0:0:
208,324,28351,2,0,P|160:320|120:288,1,100.000001192093
220,164,29296,6,0,P|216:112|188:64,2,100.000001192093,0|0|4,0:0|0:0|0:0,0:0:0:0:
60,160,30714,1,8,0:0:0:0:
193,70,31186,1,0,0:0:0:0:
352,96,31659,1,8,0:0:0:0:
272,236,32131,2,0,L|192:268,1,75.0000008940696,0|8,0:0|0:0,0:0:0:0:
92,312,32840,1,8,0:0:0:0:
332,332,33548,6,0,P|384:328|416:288,1,100.000001192093
424,136,34493,2,0,P|376:136|336:96,1,100.000001192093
180,104,35438,2,0,P|143:136|94:137,1,100.000001192093
152,288,36383,2,0,P|188:255|237:254,1,100.000001192093
392,296,37328,1,0,0:0:0:0:
384,136,37800,6,0,B|328:72|240:72|240:72|224:112,2,200.000002384186,4|0|4,0:0|0:0|0:0,0:0:0:0:
116,312,40635,1,0,0:0:0:0:
256,192,41580,12,0,44414,0:0:0:0:
104,84,45359,6,0,P|152:64|208:80,1,100.000001192093,4|0,0:0|0:0,0:0:0:0:
352,116,46304,2,0,B|416:128|416:128|452:172,2,100.000001192093
356,276,47722,1,0,0:0:0:0:
196,296,48194,2,0,P|144:292|100:264,1,100.000001192093
200,136,49139,6,0,B|312:156|284:96|408:128,1,200.000002384186
356,280,50556,1,0,0:0:0:0:
200,248,51029,2,0,B|192:288|192:288|200:328,2,75.0000008940696,4|4|4,0:0|0:0|0:0,0:0:0:0:
376,84,52446,1,0,0:0:0:0:
216,68,52918,6,0,P|168:72|108:108,1,100.000001192093,4|0,0:0|0:0,0:0:0:0:
68,244,53863,2,0,P|116:240|176:204,1,100.000001192093
312,164,54808,1,0,0:0:0:0:
244,308,55281,1,0,0:0:0:0:
400,340,55753,6,0,P|444:296|448:244,1,100.000001192093
332,152,56698,2,0,P|372:116|420:108,2,100.000001192093
216,264,58115,1,0,0:0:0:0:
136,124,58588,2,4,P|96:112|64:84,2,75.0000008940696
364,56,60005,1,0,0:0:0:0:
388,216,60477,6,0,B|424:244|428:288|428:288|456:304,2,100.000001192093,4|0|0,0:0|0:0|0:0,0:0:0:0:
276,332,61895,1,0,0:0:0:0:
168,216,62367,2,0,B|132:244|128:288|128:288|100:304,2,100.000001192093
240,72,63785,1,0,0:0:0:0:
80,68,64257,6,0,P|56:112|72:168,1,100.000001192093
172,280,65202,1,0,0:0:0:0:
332,280,65674,1,0,0:0:0:0:
460,184,66147,2,0,B|492:108|432:108|472:32,1,150.000001788139,0|0,2:2|2:2,2:2:0:0:
136,260,68036,6,0,P|92:224|72:180,1,100.000001192093
224,128,68981,2,0,L|324:128,1,100.000001192093
412,264,69926,2,0,P|432:316|476:344,2,100.000001192093
412,104,71344,1,0,0:0:0:0:
256,68,71816,6,0,P|152:76|84:140,1,200.000002384186
220,224,73233,1,0,0:0:0:0:
80,300,73706,2,0,P|44:308|16:336,2,75.0000008940696
320,284,75123,1,0,0:0:0:0:
180,208,75596,6,0,P|236:140|296:128,1,150.000001788139
476,284,77013,1,0,0:0:0:0:
504,128,77485,2,0,B|516:96|496:60|496:60|432:32|364:56,1,200.000002384186,4|0,0:0|0:0,0:0:0:0:
104,236,79375,2,0,B|92:268|112:304|112:304|176:332|244:308,1,200.000002384186
348,192,80792,1,0,0:0:0:0:
204,120,81265,6,0,L|108:80,1,100.000001192093,4|0,0:0|0:0,0:0:0:0:
104,236,82210,2,0,L|204:284,1,100.000001192093
312,308,83036,2,0,B|348:308|348:308|392:280|392:280|432:280,1,125.000001490116
448,120,84099,1,0,0:0:0:0:
168,140,84808,6,0,P|120:136|72:104,2,100.000001192093
328,140,86225,2,0,P|352:160|364:184,2,50.0000005960464,8|0|4,0:0|0:0|0:0,0:0:0:0:
