osu file format v14

[General]
AudioFilename: XYZ.mp3
AudioLeadIn: 0
PreviewTime: 44651
Countdown: 0
SampleSet: Soft
StackLeniency: 0.7
Mode: 3
LetterboxInBreaks: 0
SpecialStyle: 0
WidescreenStoryboard: 0

[Editor]
DistanceSpacing: 1.4
BeatDivisor: 4
GridSize: 4
TimelineZoom: 2.2

[Metadata]
Title:XY&Z
TitleUnicode:XY&Z
Artist:Satoshi (CV:Rica Matsumoto)
ArtistUnicode:サトシ(CV:松本 梨香)
Creator:Kuo Kyoka
Version:Z [7K Lv.26]
Source:ポケットモンスターXY&Z
Tags:XY and Z Xerneas Yveltal Zygarde Opening TV Size Ash Ketchum Pokemon Pokémon Pocket Monsters ジガルデ Rika 佐香智久 XYZ Tomohisa Sako Saku Puni-chan
BeatmapID:829745
BeatmapSetID:379028

[Difficulty]
HPDrainRate:8
CircleSize:7
OverallDifficulty:8
ApproachRate:5
SliderMultiplier:1.4
SliderTickRate:1

[Events]
//Background and Video events
0,0,"BG.png",0,0
Video,-120,"XYZ.avi"
//Break Periods
//Storyboard Layer 0 (Background)
//Storyboard Layer 1 (Fail)
//Storyboard Layer 2 (Pass)
//Storyboard Layer 3 (Foreground)
//Storyboard Sound Samples
Sample,2958,0,"bassdrum.wav",45
Sample,4375,0,"hihat.wav",35
Sample,4729,0,"hihat.wav",35
Sample,4847,0,"hihat.wav",35
Sample,5320,0,"hihat.wav",35
Sample,6029,0,"hihat.wav",35
Sample,6265,0,"hihat.wav",35
Sample,6619,0,"hihat.wav",35
Sample,6737,0,"hihat.wav",35
Sample,7210,0,"hihat.wav",35
Sample,7682,0,"hihat.wav",35
Sample,8155,0,"hihat.wav",35
Sample,8509,0,"hihat.wav",35
Sample,8627,0,"hihat.wav",35
Sample,8863,0,"hihat.wav",35
Sample,9099,0,"hihat.wav",35
Sample,9336,0,"hihat.wav",35
Sample,10871,0,"drum.wav",45
Sample,10989,0,"kick.wav",50
Sample,11225,0,"drum.wav",45
Sample,18194,0,"snare.wav",50
Sample,20438,0,"hihat.wav",35
Sample,21855,0,"hihat.wav",35
Sample,23509,0,"hihat.wav",35
Sample,25399,0,"kick.wav",50
Sample,26225,0,"snare.wav",50
Sample,26462,0,"kick.wav",50
Sample,26462,0,"bassdrum.wav",45
Sample,26816,0,"hihat.wav",35
Sample,27407,0,"hihat.wav",35
Sample,27997,0,"hihat.wav",35
Sample,28470,0,"hihat.wav",35
Sample,29178,0,"drum.wav",45
Sample,29414,0,"drum.wav",45
Sample,30359,0,"hihat.wav",35
Sample,31777,0,"hihat.wav",35
Sample,32013,0,"hihat.wav",35
Sample,34139,0,"hihat.wav",35
Sample,34611,0,"kick.wav",50
Sample,34847,0,"hihat.wav",35
Sample,34847,0,"kick.wav",50
Sample,35084,0,"hihat.wav",35
Sample,35556,0,"hihat.wav",35
Sample,36501,0,"hihat.wav",35
Sample,36737,0,"kick.wav",50
Sample,36973,0,"kick.wav",50
Sample,37446,0,"hihat.wav",35
Sample,38627,0,"kick.wav",50
Sample,38863,0,"hihat.wav",35
Sample,39336,0,"hihat.wav",35
Sample,39572,0,"kick.wav",50
Sample,40517,0,"kick.wav",50
Sample,42288,0,"snare.wav",50
Sample,43588,0,"kick.wav",50
Sample,43824,0,"kick.wav",50
Sample,44060,0,"kick.wav",50
Sample,45477,0,"hihat.wav",35
Sample,46186,0,"kick.wav",50
Sample,46422,0,"hihat.wav",35
Sample,46895,0,"kick.wav",50
Sample,47840,0,"hihat.wav",35
Sample,48312,0,"hihat.wav",35
Sample,48785,0,"kick.wav",50
Sample,49021,0,"kick.wav",50
Sample,49729,0,"hihat.wav",35
Sample,49966,0,"hihat.wav",35
Sample,50202,0,"hihat.wav",35
Sample,50674,0,"hihat.wav",35
Sample,51265,0,"snare.wav",50
Sample,51619,0,"snare.wav",50
Sample,51855,0,"drum.wav",45
Sample,52092,0,"snare.wav",50
Sample,52918,0,"crash-cymbol.wav",50
Sample,53036,0,"hihat.wav",35
Sample,53981,0,"hihat.wav",35
Sample,55399,0,"hihat.wav",35
Sample,55635,0,"kick.wav",50
Sample,55871,0,"hihat.wav",35
Sample,56344,0,"kick.wav",50
Sample,57288,0,"hihat.wav",35
Sample,57525,0,"kick.wav",50
Sample,57761,0,"kick.wav",50
Sample,58233,0,"kick.wav",50
Sample,58824,0,"drum.wav",45
Sample,59178,0,"snare.wav",50
Sample,59533,0,"kick.wav",50
Sample,59769,0,"snare.wav",50
Sample,59887,0,"snare.wav",50
Sample,59946,0,"drum.wav",45
Sample,60477,0,"kick.wav",50
Sample,60596,0,"hihat.wav",35
Sample,61540,0,"hihat.wav",35
Sample,61777,0,"hihat.wav",35
Sample,62013,0,"hihat.wav",35
Sample,62367,0,"drum.wav",45
Sample,63430,0,"drum.wav",45
Sample,63666,0,"hihat.wav",35
Sample,64139,0,"drum.wav",45
Sample,64139,0,"hihat.wav",35
Sample,65084,0,"hihat.wav",35
Sample,65320,0,"drum.wav",45
Sample,65556,0,"hihat.wav",35
Sample,67328,0,"kick.wav",50
Sample,67328,0,"drum.wav",45
Sample,68155,0,"hihat.wav",35
Sample,68863,0,"hihat.wav",35
Sample,69099,0,"kick.wav",50
Sample,69572,0,"hihat.wav",35
Sample,70517,0,"kick.wav",50
Sample,70753,0,"hihat.wav",35
Sample,70989,0,"hihat.wav",35
Sample,70989,0,"kick.wav",50
Sample,71225,0,"drum.wav",45
Sample,71462,0,"drum.wav",45
Sample,71462,0,"hihat.wav",35
Sample,71580,0,"drum.wav",45
Sample,71698,0,"drum.wav",45
Sample,72407,0,"hihat.wav",35
Sample,72643,0,"kick.wav",50
Sample,72879,0,"kick.wav",50
Sample,73351,0,"hihat.wav",35
Sample,73588,0,"kick.wav",50
Sample,74651,0,"drum.wav",45
Sample,76659,0,"snare.wav",50
Sample,78076,0,"hihat.wav",35
Sample,78312,0,"kick.wav",50
Sample,78548,0,"hihat.wav",35
Sample,79021,0,"kick.wav",50
Sample,79139,0,"snare.wav",50
Sample,80910,0,"snare.wav",50
Sample,80970,0,"snare.wav",50
Sample,81265,0,"crash-cymbol.wav",50
Sample,81383,0,"hihat.wav",35
Sample,81855,0,"hihat.wav",35
Sample,82092,0,"kick.wav",50
Sample,82328,0,"kick.wav",50
Sample,82328,0,"hihat.wav",35
Sample,82564,0,"hihat.wav",35
Sample,83155,0,"hihat.wav",35
Sample,83627,0,"hihat.wav",35
Sample,83981,0,"crash-cymbol.wav",50
Sample,83981,0,"drum.wav",45
Sample,84099,0,"hihat.wav",35
Sample,85044,0,"hihat.wav",35
Sample,85517,0,"drum.wav",45
Sample,86462,0,"drum.wav",45
Sample,86698,0,"crash-cymbol.wav",50

[TimingPoints]
478,236.220472440945,4,2,0,5,1,0
3785,236.220472440945,4,2,0,5,1,0
44414,-200,4,2,0,5,0,0
44533,-250,4,2,0,5,0,0
44651,-333.333333333333,4,2,0,5,0,0
44769,-500,4,2,0,5,0,0
44887,-1000,4,2,0,5,0,0
44946,-333.333333333333,4,2,0,5,0,0
45005,-200,4,2,0,5,0,0
45064,-142.857142857143,4,2,0,5,0,0
45123,-111.111111111111,4,2,0,5,0,0
45182,-90.9090909090909,4,2,0,5,0,0
45241,-76.9230769230769,4,2,0,5,0,0
45300,-66.6666666666667,4,2,0,5,0,0
45359,-100,4,2,0,5,0,1
60477,-100,4,2,0,5,0,0
68036,-100,4,2,0,5,0,1
86698,-100,4,2,0,5,0,0

[HitObjects]
36,192,477,128,0,714:0:0:0:50:kick.wav
182,192,477,1,0,0:0:0:50:crash-cymbol.wav
475,192,714,1,0,0:0:0:45:bassdrum.wav
256,192,714,1,0,0:0:0:50:snare.wav
109,192,832,128,0,1068:0:0:0:50:kick.wav
36,192,832,1,0,0:0:0:50:crash-cymbol.wav
329,192,950,1,0,0:0:0:0:
256,192,1068,1,0,0:0:0:45:bassdrum.wav
475,192,1068,1,0,0:0:0:50:snare.wav
182,192,1186,128,0,1422:0:0:0:50:crash-cymbol.wav
402,192,1186,1,0,0:0:0:50:kick.wav
36,192,1422,1,0,0:0:0:45:bassdrum.wav
475,192,1422,1,0,0:0:0:50:snare.wav
256,192,1540,128,0,1777:0:0:0:50:crash-cymbol.wav
402,192,1540,1,0,0:0:0:50:kick.wav
36,192,1659,1,0,0:0:0:0:
402,192,1777,1,0,0:0:0:45:bassdrum.wav
109,192,1777,1,0,0:0:0:50:snare.wav
329,192,1895,128,0,2131:0:0:0:50:crash-cymbol.wav
475,192,1895,128,0,2131:0:0:0:50:kick.wav
182,192,1895,1,0,0:0:0:0:
256,192,2131,128,0,2367:0:0:0:45:bassdrum.wav
402,192,2131,128,0,2367:0:0:0:50:snare.wav
109,192,2131,1,0,0:0:0:0:
36,192,2131,1,0,0:0:0:0:
109,192,2249,1,0,0:0:0:50:snare.wav
36,192,2249,1,0,0:0:0:45:bassdrum.wav
36,192,2367,128,0,2603:0:0:0:50:kick.wav
182,192,2367,1,0,0:0:0:50:crash-cymbol.wav
329,192,2367,1,0,0:0:0:0:
475,192,2367,1,0,0:0:0:0:
256,192,2485,1,0,0:0:0:50:kick.wav
402,192,2603,1,0,0:0:0:45:bassdrum.wav
475,192,2603,1,0,0:0:0:50:snare.wav
109,192,2722,128,0,2958:0:0:0:50:kick.wav
256,192,2722,1,0,0:0:0:50:crash-cymbol.wav
36,192,2722,1,0,0:0:0:0:
475,192,2840,1,0,0:0:0:50:kick.wav
329,192,2958,1,0,0:0:0:50:snare.wav
475,192,3076,1,0,0:0:0:50:crash-cymbol.wav
36,192,3076,1,0,0:0:0:50:kick.wav
182,192,3076,128,0,3548:0:0:0:0:
329,192,3194,1,0,0:0:0:50:kick.wav
36,192,3312,1,0,0:0:0:50:crash-cymbol.wav
475,192,3312,1,0,0:0:0:45:bassdrum.wav
329,192,3312,128,0,3548:0:0:0:0:
182,192,3785,1,0,0:0:0:50:crash-cymbol.wav
329,192,3785,1,0,0:0:0:50:kick.wav
402,192,3785,1,0,0:0:0:50:applause.wav
475,192,3785,128,0,4493:0:0:0:0:
36,192,3785,128,0,4493:0:0:0:0:
256,192,4021,1,0,0:0:0:50:kick.wav
402,192,4021,1,0,0:0:0:50:snare.wav
182,192,4139,1,0,0:0:0:35:hihat.wav
109,192,4257,1,0,0:0:0:50:kick.wav
329,192,4257,1,0,0:0:0:0:
256,192,4375,1,0,0:0:0:50:kick.wav
109,192,4493,1,0,0:0:0:50:kick.wav
402,192,4493,1,0,0:0:0:50:snare.wav
256,192,4611,1,0,0:0:0:50:crash-cymbol.wav
402,192,4611,128,0,5202:0:0:0:50:kick.wav
109,192,4611,128,0,5202:0:0:0:35:hihat.wav
256,192,4847,1,0,0:0:0:50:kick.wav
36,192,4966,1,0,0:0:0:50:kick.wav
475,192,4966,1,0,0:0:0:50:snare.wav
182,192,5084,1,0,0:0:0:35:hihat.wav
329,192,5202,1,0,0:0:0:50:kick.wav
256,192,5320,1,0,0:0:0:50:kick.wav
475,192,5438,1,0,0:0:0:50:kick.wav
182,192,5438,1,0,0:0:0:50:snare.wav
402,192,5556,1,0,0:0:0:35:hihat.wav
36,192,5674,128,0,6383:0:0:0:50:crash-cymbol.wav
109,192,5674,1,0,0:0:0:50:kick.wav
329,192,5674,128,0,6383:0:0:0:0:
182,192,5792,1,0,0:0:0:35:hihat.wav
475,192,5910,1,0,0:0:0:50:kick.wav
256,192,5910,1,0,0:0:0:50:snare.wav
109,192,6147,1,0,0:0:0:50:kick.wav
475,192,6147,1,0,0:0:0:0:
182,192,6265,1,0,0:0:0:50:kick.wav
256,192,6383,1,0,0:0:0:50:kick.wav
402,192,6383,1,0,0:0:0:50:snare.wav
182,192,6501,128,0,7092:0:0:0:50:crash-cymbol.wav
475,192,6501,128,0,7092:0:0:0:50:kick.wav
36,192,6501,1,0,0:0:0:35:hihat.wav
329,192,6501,1,0,0:0:0:0:
256,192,6737,1,0,0:0:0:50:kick.wav
36,192,6855,1,0,0:0:0:50:kick.wav
402,192,6855,1,0,0:0:0:50:snare.wav
329,192,6973,1,0,0:0:0:35:hihat.wav
256,192,7092,1,0,0:0:0:50:kick.wav
182,192,7210,1,0,0:0:0:50:kick.wav
402,192,7328,1,0,0:0:0:50:kick.wav
109,192,7328,1,0,0:0:0:50:snare.wav
329,192,7446,1,0,0:0:0:35:hihat.wav
36,192,7564,128,0,8273:0:0:0:50:crash-cymbol.wav
182,192,7564,128,0,8273:0:0:0:50:kick.wav
475,192,7564,1,0,0:0:0:0:
256,192,7564,1,0,0:0:0:0:
109,192,7800,1,0,0:0:0:50:kick.wav
402,192,7800,1,0,0:0:0:50:snare.wav
329,192,7918,1,0,0:0:0:35:hihat.wav
256,192,8036,1,0,0:0:0:50:kick.wav
475,192,8036,1,0,0:0:0:0:
329,192,8155,1,0,0:0:0:50:kick.wav
109,192,8273,1,0,0:0:0:50:kick.wav
402,192,8273,1,0,0:0:0:50:snare.wav
329,192,8391,128,0,8981:0:0:0:50:crash-cymbol.wav
475,192,8391,128,0,8981:0:0:0:50:kick.wav
256,192,8391,1,0,0:0:0:35:hihat.wav
256,192,8627,1,0,0:0:0:50:kick.wav
36,192,8745,128,0,9218:0:0:0:50:kick.wav
109,192,8745,1,0,0:0:0:50:snare.wav
182,192,8981,128,0,9218:0:0:0:50:kick.wav
402,192,8981,1,0,0:0:0:0:
329,192,9218,1,0,0:0:0:50:kick.wav
475,192,9218,128,0,9454:0:0:0:50:snare.wav
36,192,9454,128,0,9690:0:0:0:50:crash-cymbol.wav
256,192,9454,128,0,9690:0:0:0:50:kick.wav
109,192,9572,1,0,0:0:0:0:
475,192,9690,1,0,0:0:0:50:snare.wav
402,192,9690,1,0,0:0:0:0:
109,192,9808,128,0,10044:0:0:0:50:crash-cymbol.wav
329,192,9808,128,0,10044:0:0:0:50:kick.wav
182,192,9926,1,0,0:0:0:0:
475,192,10044,1,0,0:0:0:50:snare.wav
36,192,10044,1,0,0:0:0:0:
182,192,10162,128,0,10399:0:0:0:50:kick.wav
402,192,10162,128,0,10399:0:0:0:50:crash-cymbol.wav
256,192,10281,1,0,0:0:0:0:
36,192,10399,1,0,0:0:0:50:snare.wav
109,192,10399,1,0,0:0:0:0:
256,192,10517,128,0,10753:0:0:0:50:kick.wav
475,192,10517,128,0,10753:0:0:0:50:crash-cymbol.wav
329,192,10635,1,0,0:0:0:0:
109,192,10753,1,0,0:0:0:50:snare.wav
36,192,10871,128,0,11107:0:0:0:50:kick.wav
182,192,10871,128,0,11107:0:0:0:50:crash-cymbol.wav
329,192,10871,1,0,0:0:0:0:
402,192,10989,1,0,0:0:0:45:drum.wav
329,192,11107,128,0,11344:0:0:0:50:kick.wav
475,192,11107,128,0,11344:0:0:0:45:drum.wav
109,192,11225,1,0,0:0:0:50:kick.wav
402,192,11344,1,0,0:0:0:50:crash-cymbol.wav
256,192,11344,1,0,0:0:0:50:kick.wav
36,192,11344,1,0,0:0:0:0:
475,192,11580,1,0,0:0:0:50:kick.wav
182,192,11580,1,0,0:0:0:50:snare.wav
36,192,11580,1,0,0:0:0:0:
329,192,11698,1,0,0:0:0:0:
36,192,11816,1,0,0:0:0:50:kick.wav
109,192,11816,1,0,0:0:0:0:
329,192,11934,1,0,0:0:0:50:kick.wav
475,192,12052,1,0,0:0:0:50:snare.wav
182,192,12052,1,0,0:0:0:50:kick.wav
36,192,12052,1,0,0:0:0:0:
329,192,12170,1,0,0:0:0:0:
36,192,12288,1,0,0:0:0:50:kick.wav
182,192,12288,128,0,12525:0:0:0:0:
475,192,12525,1,0,0:0:0:50:kick.wav
402,192,12525,1,0,0:0:0:50:snare.wav
109,192,12525,1,0,0:0:0:0:
329,192,12643,1,0,0:0:0:50:kick.wav
36,192,12761,1,0,0:0:0:50:kick.wav
256,192,12761,1,0,0:0:0:0:
182,192,12879,1,0,0:0:0:0:
475,192,12997,1,0,0:0:0:50:kick.wav
329,192,12997,1,0,0:0:0:50:snare.wav
109,192,12997,1,0,0:0:0:0:
256,192,13115,1,0,0:0:0:0:
36,192,13233,1,0,0:0:0:50:kick.wav
182,192,13233,128,0,13470:0:0:0:0:
109,192,13470,1,0,0:0:0:50:kick.wav
475,192,13470,1,0,0:0:0:50:snare.wav
402,192,13470,1,0,0:0:0:0:
329,192,13588,1,0,0:0:0:45:drum.wav
36,192,13706,1,0,0:0:0:50:kick.wav
256,192,13706,1,0,0:0:0:0:
182,192,13824,1,0,0:0:0:45:drum.wav
109,192,13942,1,0,0:0:0:50:kick.wav
475,192,13942,1,0,0:0:0:50:snare.wav
329,192,13942,1,0,0:0:0:0:
256,192,14060,1,0,0:0:0:0:
36,192,14178,1,0,0:0:0:50:kick.wav
182,192,14178,128,0,14414:0:0:0:0:
475,192,14414,1,0,0:0:0:50:kick.wav
402,192,14414,1,0,0:0:0:50:snare.wav
109,192,14414,1,0,0:0:0:0:
329,192,14533,1,0,0:0:0:0:
36,192,14651,1,0,0:0:0:50:kick.wav
256,192,14651,1,0,0:0:0:0:
182,192,14769,1,0,0:0:0:0:
329,192,14887,1,0,0:0:0:50:kick.wav
475,192,14887,1,0,0:0:0:50:snare.wav
109,192,14887,1,0,0:0:0:0:
329,192,15005,1,0,0:0:0:50:snare.wav
475,192,15005,1,0,0:0:0:0:
36,192,15123,1,0,0:0:0:50:kick.wav
109,192,15123,1,0,0:0:0:50:crash-cymbol.wav
256,192,15123,128,0,15359:0:0:0:0:
402,192,15359,128,0,15596:0:0:0:50:snare.wav
475,192,15359,1,0,0:0:0:50:kick.wav
36,192,15596,1,0,0:0:0:50:kick.wav
182,192,15596,1,0,0:0:0:0:
256,192,15714,1,0,0:0:0:50:kick.wav
475,192,15832,1,0,0:0:0:50:kick.wav
329,192,15832,1,0,0:0:0:50:snare.wav
256,192,15950,1,0,0:0:0:0:
36,192,16068,1,0,0:0:0:50:kick.wav
182,192,16068,1,0,0:0:0:0:
475,192,16304,1,0,0:0:0:50:kick.wav
402,192,16304,1,0,0:0:0:50:snare.wav
256,192,16422,1,0,0:0:0:45:drum.wav
36,192,16540,1,0,0:0:0:50:kick.wav
109,192,16540,1,0,0:0:0:0:
256,192,16659,1,0,0:0:0:45:drum.wav
475,192,16777,1,0,0:0:0:50:kick.wav
402,192,16777,1,0,0:0:0:50:snare.wav
36,192,17013,1,0,0:0:0:50:kick.wav
182,192,17013,1,0,0:0:0:0:
475,192,17013,1,0,0:0:0:0:
256,192,17092,1,0,0:0:0:0:
329,192,17170,1,0,0:0:0:0:
402,192,17249,1,0,0:0:0:50:kick.wav
109,192,17249,1,0,0:0:0:50:snare.wav
182,192,17328,1,0,0:0:0:0:
256,192,17407,1,0,0:0:0:0:
329,192,17485,1,0,0:0:0:50:kick.wav
36,192,17485,1,0,0:0:0:0:
109,192,17564,1,0,0:0:0:0:
182,192,17643,1,0,0:0:0:0:
256,192,17722,1,0,0:0:0:50:kick.wav
475,192,17722,1,0,0:0:0:50:snare.wav
402,192,17800,1,0,0:0:0:0:
329,192,17879,1,0,0:0:0:0:
475,192,17958,1,0,0:0:0:50:kick.wav
36,192,17958,128,0,18430:0:0:0:0:
256,192,17958,1,0,0:0:0:0:
109,192,18036,1,0,0:0:0:0:
182,192,18115,1,0,0:0:0:0:
256,192,18194,1,0,0:0:0:0:
475,192,18194,1,0,0:0:0:50:kick.wav
402,192,18273,1,0,0:0:0:0:
329,192,18351,1,0,0:0:0:0:
256,192,18430,1,0,0:0:0:50:kick.wav
182,192,18548,1,0,0:0:0:50:snare.wav
36,192,18548,1,0,0:0:0:0:
256,192,18666,1,0,0:0:0:45:drum.wav
402,192,18666,1,0,0:0:0:50:snare.wav
109,192,18666,1,0,0:0:0:0:
182,192,18785,1,0,0:0:0:50:snare.wav
36,192,18785,1,0,0:0:0:0:
475,192,18903,1,0,0:0:0:50:crash-cymbol.wav
329,192,18903,1,0,0:0:0:50:kick.wav
256,192,18903,128,0,19139:0:0:0:0:
36,192,19021,1,0,0:0:0:35:hihat.wav
402,192,19139,1,0,0:0:0:50:snare.wav
475,192,19139,1,0,0:0:0:50:kick.wav
182,192,19139,1,0,0:0:0:0:
329,192,19257,1,0,0:0:0:35:hihat.wav
256,192,19375,1,0,0:0:0:50:kick.wav
36,192,19375,1,0,0:0:0:0:
329,192,19493,1,0,0:0:0:35:hihat.wav
109,192,19493,1,0,0:0:0:50:kick.wav
475,192,19611,1,0,0:0:0:50:snare.wav
182,192,19611,1,0,0:0:0:50:kick.wav
402,192,19611,1,0,0:0:0:0:
329,192,19729,1,0,0:0:0:35:hihat.wav
36,192,19729,1,0,0:0:0:50:kick.wav
256,192,19847,128,0,20084:0:0:0:35:hihat.wav
475,192,19847,1,0,0:0:0:0:
402,192,19966,1,0,0:0:0:50:kick.wav
182,192,20084,1,0,0:0:0:50:snare.wav
36,192,20084,1,0,0:0:0:50:kick.wav
329,192,20084,1,0,0:0:0:0:
475,192,20202,1,0,0:0:0:0:
402,192,20320,1,0,0:0:0:50:kick.wav
109,192,20320,1,0,0:0:0:0:
182,192,20438,1,0,0:0:0:50:kick.wav
329,192,20438,1,0,0:0:0:0:
36,192,20556,1,0,0:0:0:50:kick.wav
475,192,20556,1,0,0:0:0:50:snare.wav
256,192,20556,1,0,0:0:0:0:
329,192,20674,1,0,0:0:0:35:hihat.wav
475,192,20792,1,0,0:0:0:50:kick.wav
109,192,20792,128,0,21029:0:0:0:0:
329,192,20910,1,0,0:0:0:35:hihat.wav
36,192,21029,1,0,0:0:0:50:snare.wav
182,192,21029,1,0,0:0:0:50:kick.wav
475,192,21029,1,0,0:0:0:0:
402,192,21147,1,0,0:0:0:35:hihat.wav
36,192,21265,1,0,0:0:0:50:kick.wav
329,192,21265,1,0,0:0:0:0:
256,192,21383,1,0,0:0:0:50:kick.wav
475,192,21383,1,0,0:0:0:35:hihat.wav
36,192,21501,1,0,0:0:0:50:kick.wav
182,192,21501,1,0,0:0:0:50:snare.wav
402,192,21501,1,0,0:0:0:0:
109,192,21619,1,0,0:0:0:35:hihat.wav
329,192,21619,1,0,0:0:0:50:kick.wav
256,192,21737,1,0,0:0:0:35:hihat.wav
36,192,21737,128,0,21973:0:0:0:0:
475,192,21855,1,0,0:0:0:50:kick.wav
402,192,21973,1,0,0:0:0:50:kick.wav
109,192,21973,1,0,0:0:0:50:snare.wav
182,192,21973,1,0,0:0:0:0:
329,192,22092,1,0,0:0:0:35:hihat.wav
475,192,22210,1,0,0:0:0:50:kick.wav
256,192,22210,1,0,0:0:0:0:
402,192,22328,1,0,0:0:0:50:kick.wav
182,192,22328,1,0,0:0:0:35:hihat.wav
329,192,22446,1,0,0:0:0:50:kick.wav
109,192,22446,1,0,0:0:0:50:snare.wav
36,192,22446,1,0,0:0:0:0:
256,192,22564,1,0,0:0:0:35:hihat.wav
475,192,22564,1,0,0:0:0:0:
182,192,22682,1,0,0:0:0:50:kick.wav
36,192,22682,1,0,0:0:0:0:
402,192,22682,128,0,22918:0:0:0:0:
329,192,22800,1,0,0:0:0:35:hihat.wav
256,192,22918,1,0,0:0:0:50:snare.wav
475,192,22918,1,0,0:0:0:50:kick.wav
109,192,22918,1,0,0:0:0:0:
402,192,23036,1,0,0:0:0:35:hihat.wav
182,192,23155,1,0,0:0:0:50:kick.wav
329,192,23155,1,0,0:0:0:0:
109,192,23273,1,0,0:0:0:35:hihat.wav
256,192,23273,1,0,0:0:0:50:kick.wav
475,192,23391,1,0,0:0:0:50:snare.wav
182,192,23391,1,0,0:0:0:50:kick.wav
36,192,23391,1,0,0:0:0:0:
402,192,23509,1,0,0:0:0:50:kick.wav
36,192,23627,1,0,0:0:0:35:hihat.wav
329,192,23627,128,0,23863:0:0:0:0:
256,192,23745,1,0,0:0:0:50:kick.wav
109,192,23745,1,0,0:0:0:35:hihat.wav
36,192,23863,1,0,0:0:0:50:kick.wav
182,192,23863,1,0,0:0:0:50:snare.wav
475,192,23863,1,0,0:0:0:0:
402,192,23981,1,0,0:0:0:35:hihat.wav
36,192,24099,1,0,0:0:0:50:kick.wav
329,192,24099,1,0,0:0:0:0:
402,192,24218,1,0,0:0:0:50:kick.wav
109,192,24218,1,0,0:0:0:35:hihat.wav
475,192,24336,1,0,0:0:0:50:kick.wav
36,192,24336,1,0,0:0:0:50:snare.wav
182,192,24336,1,0,0:0:0:0:
256,192,24454,1,0,0:0:0:35:hihat.wav
36,192,24572,1,0,0:0:0:50:kick.wav
329,192,24572,128,0,24808:0:0:0:0:
402,192,24690,1,0,0:0:0:35:hihat.wav
475,192,24808,1,0,0:0:0:50:kick.wav
109,192,24808,1,0,0:0:0:50:snare.wav
256,192,24808,1,0,0:0:0:0:
329,192,24926,1,0,0:0:0:35:hihat.wav
36,192,25044,1,0,0:0:0:50:kick.wav
402,192,25044,1,0,0:0:0:0:
256,192,25162,1,0,0:0:0:50:kick.wav
109,192,25162,1,0,0:0:0:35:hihat.wav
475,192,25281,1,0,0:0:0:50:kick.wav
329,192,25281,1,0,0:0:0:50:snare.wav
182,192,25281,1,0,0:0:0:0:
109,192,25399,1,0,0:0:0:35:hihat.wav
256,192,25399,1,0,0:0:0:0:
36,192,25517,1,0,0:0:0:0:
402,192,25517,1,0,0:0:0:0:
402,192,25635,1,0,0:0:0:45:drum.wav
182,192,25635,1,0,0:0:0:50:kick.wav
329,192,25694,1,0,0:0:0:45:drum.wav
109,192,25694,1,0,0:0:0:50:kick.wav
475,192,25753,1,0,0:0:0:45:drum.wav
36,192,25753,1,0,0:0:0:50:kick.wav
256,192,25753,1,0,0:0:0:50:snare.wav
36,192,25871,1,0,0:0:0:45:drum.wav
256,192,25871,1,0,0:0:0:50:kick.wav
109,192,25989,1,0,0:0:0:50:kick.wav
329,192,25989,1,0,0:0:0:0:
182,192,26107,1,0,0:0:0:50:kick.wav
402,192,26107,1,0,0:0:0:0:
256,192,26225,1,0,0:0:0:45:bassdrum.wav
475,192,26225,1,0,0:0:0:50:kick.wav
402,192,26285,1,0,0:0:0:45:bassdrum.wav
329,192,26344,1,0,0:0:0:45:bassdrum.wav
36,192,26344,1,0,0:0:0:50:kick.wav
109,192,26403,1,0,0:0:0:45:bassdrum.wav
402,192,26403,1,0,0:0:0:0:
475,192,26462,1,0,0:0:0:35:hihat.wav
182,192,26462,1,0,0:0:0:50:crash-cymbol.wav
329,192,26580,1,0,0:0:0:35:hihat.wav
182,192,26698,1,0,0:0:0:50:kick.wav
36,192,26698,1,0,0:0:0:0:
109,192,26934,1,0,0:0:0:45:drum.wav
256,192,26934,1,0,0:0:0:50:snare.wav
475,192,26934,1,0,0:0:0:0:
402,192,27052,1,0,0:0:0:35:hihat.wav
182,192,27170,1,0,0:0:0:50:kick.wav
329,192,27170,1,0,0:0:0:0:
256,192,27288,1,0,0:0:0:45:drum.wav
36,192,27288,1,0,0:0:0:50:snare.wav
475,192,27288,1,0,0:0:0:0:
256,192,27525,1,0,0:0:0:50:snare.wav
36,192,27525,1,0,0:0:0:45:drum.wav
109,192,27525,1,0,0:0:0:0:
402,192,27643,1,0,0:0:0:50:kick.wav
475,192,27643,1,0,0:0:0:0:
329,192,27761,1,0,0:0:0:0:
36,192,27879,128,0,28115:0:0:0:50:snare.wav
256,192,27879,128,0,28115:0:0:0:45:drum.wav
109,192,28115,128,0,28351:0:0:0:50:kick.wav
329,192,28115,128,0,28351:0:0:0:0:
256,192,28233,1,0,0:0:0:50:kick.wav
182,192,28351,1,0,0:0:0:50:snare.wav
402,192,28351,1,0,0:0:0:50:crash-cymbol.wav
475,192,28351,1,0,0:0:0:0:
109,192,28588,1,0,0:0:0:50:kick.wav
329,192,28588,1,0,0:0:0:0:
402,192,28706,1,0,0:0:0:50:kick.wav
36,192,28824,1,0,0:0:0:50:snare.wav
256,192,28824,1,0,0:0:0:45:drum.wav
475,192,28824,1,0,0:0:0:0:
182,192,28942,1,0,0:0:0:50:kick.wav
402,192,29060,1,0,0:0:0:50:kick.wav
109,192,29060,1,0,0:0:0:0:
256,192,29178,1,0,0:0:0:50:snare.wav
475,192,29178,1,0,0:0:0:0:
36,192,29178,1,0,0:0:0:0:
182,192,29296,1,0,0:0:0:0:
329,192,29414,1,0,0:0:0:50:snare.wav
109,192,29414,1,0,0:0:0:0:
475,192,29414,1,0,0:0:0:0:
256,192,29533,1,0,0:0:0:50:kick.wav
36,192,29533,1,0,0:0:0:0:
182,192,29651,1,0,0:0:0:50:kick.wav
109,192,29769,1,0,0:0:0:50:snare.wav
475,192,29769,1,0,0:0:0:45:drum.wav
329,192,29769,1,0,0:0:0:0:
256,192,29887,1,0,0:0:0:50:kick.wav
182,192,30005,1,0,0:0:0:50:kick.wav
329,192,30123,1,0,0:0:0:50:snare.wav
109,192,30123,1,0,0:0:0:45:drum.wav
475,192,30123,1,0,0:0:0:0:
256,192,30241,1,0,0:0:0:50:crash-cymbol.wav
36,192,30241,1,0,0:0:0:50:kick.wav
402,192,30241,1,0,0:0:0:0:
256,192,30477,1,0,0:0:0:50:kick.wav
36,192,30477,1,0,0:0:0:0:
109,192,30596,1,0,0:0:0:35:hihat.wav
402,192,30714,1,0,0:0:0:50:snare.wav
475,192,30714,1,0,0:0:0:45:drum.wav
182,192,30714,1,0,0:0:0:0:
256,192,30832,1,0,0:0:0:50:kick.wav
109,192,30950,1,0,0:0:0:50:kick.wav
329,192,30950,1,0,0:0:0:0:
402,192,31068,1,0,0:0:0:50:snare.wav
182,192,31068,1,0,0:0:0:45:drum.wav
475,192,31068,1,0,0:0:0:0:
256,192,31186,1,0,0:0:0:35:hihat.wav
109,192,31304,1,0,0:0:0:50:snare.wav
36,192,31304,1,0,0:0:0:45:drum.wav
329,192,31304,1,0,0:0:0:0:
402,192,31422,128,0,31659:0:0:0:50:kick.wav
182,192,31422,128,0,31659:0:0:0:35:hihat.wav
329,192,31659,128,0,31895:0:0:0:45:drum.wav
109,192,31659,128,0,31895:0:0:0:50:snare.wav
256,192,31895,128,0,32131:0:0:0:50:kick.wav
36,192,31895,128,0,32131:0:0:0:0:
329,192,32013,1,0,0:0:0:50:kick.wav
402,192,32131,1,0,0:0:0:50:crash-cymbol.wav
182,192,32131,1,0,0:0:0:50:snare.wav
475,192,32131,1,0,0:0:0:0:
109,192,32249,1,0,0:0:0:0:
36,192,32367,1,0,0:0:0:50:kick.wav
329,192,32367,1,0,0:0:0:0:
402,192,32485,1,0,0:0:0:50:snare.wav
475,192,32485,1,0,0:0:0:50:crash-cymbol.wav
182,192,32485,1,0,0:0:0:0:
36,192,32603,1,0,0:0:0:0:
256,192,32722,1,0,0:0:0:50:kick.wav
475,192,32722,1,0,0:0:0:0:
109,192,32840,1,0,0:0:0:50:snare.wav
36,192,32840,1,0,0:0:0:50:crash-cymbol.wav
402,192,32840,1,0,0:0:0:0:
329,192,32958,1,0,0:0:0:0:
256,192,33076,1,0,0:0:0:35:hihat.wav
36,192,33076,1,0,0:0:0:0:
109,192,33076,1,0,0:0:0:0:
182,192,33194,1,0,0:0:0:50:kick.wav
329,192,33194,1,0,0:0:0:0:
256,192,33253,1,0,0:0:0:0:
402,192,33253,1,0,0:0:0:0:
329,192,33312,1,0,0:0:0:50:kick.wav
36,192,33312,1,0,0:0:0:0:
475,192,33312,1,0,0:0:0:0:
182,192,33430,1,0,0:0:0:50:kick.wav
36,192,33548,1,0,0:0:0:50:kick.wav
329,192,33548,1,0,0:0:0:45:drum.wav
109,192,33666,1,0,0:0:0:45:drum.wav
475,192,33666,128,0,34021:0:0:0:50:kick.wav
36,192,33785,1,0,0:0:0:45:drum.wav
402,192,33785,128,0,34021:0:0:0:50:kick.wav
109,192,33903,1,0,0:0:0:45:drum.wav
329,192,33903,128,0,34021:0:0:0:50:kick.wav
36,192,34021,1,0,0:0:0:50:kick.wav
256,192,34021,1,0,0:0:0:50:crash-cymbol.wav
182,192,34257,1,0,0:0:0:50:kick.wav
36,192,34257,1,0,0:0:0:50:snare.wav
402,192,34257,1,0,0:0:0:45:drum.wav
329,192,34375,1,0,0:0:0:35:hihat.wav
475,192,34493,1,0,0:0:0:50:kick.wav
256,192,34493,1,0,0:0:0:0:
402,192,34611,1,0,0:0:0:35:hihat.wav
182,192,34729,1,0,0:0:0:50:snare.wav
36,192,34729,1,0,0:0:0:50:kick.wav
329,192,34729,1,0,0:0:0:45:drum.wav
402,192,34966,1,0,0:0:0:35:hihat.wav
256,192,34966,1,0,0:0:0:0:
36,192,35084,1,0,0:0:0:50:kick.wav
329,192,35202,1,0,0:0:0:50:kick.wav
475,192,35202,1,0,0:0:0:50:snare.wav
109,192,35202,1,0,0:0:0:45:drum.wav
182,192,35320,1,0,0:0:0:35:hihat.wav
402,192,35438,1,0,0:0:0:50:kick.wav
36,192,35438,1,0,0:0:0:0:
329,192,35556,1,0,0:0:0:50:kick.wav
36,192,35674,1,0,0:0:0:50:kick.wav
475,192,35674,1,0,0:0:0:50:snare.wav
256,192,35674,1,0,0:0:0:0:
182,192,35792,1,0,0:0:0:35:hihat.wav
329,192,35910,1,0,0:0:0:50:kick.wav
36,192,35910,1,0,0:0:0:0:
402,192,36029,1,0,0:0:0:35:hihat.wav
475,192,36147,1,0,0:0:0:50:kick.wav
109,192,36147,1,0,0:0:0:50:snare.wav
36,192,36147,1,0,0:0:0:0:
329,192,36265,1,0,0:0:0:35:hihat.wav
475,192,36383,1,0,0:0:0:50:kick.wav
256,192,36383,1,0,0:0:0:45:drum.wav
36,192,36383,1,0,0:0:0:0:
182,192,36501,1,0,0:0:0:50:kick.wav
329,192,36619,1,0,0:0:0:50:kick.wav
475,192,36619,1,0,0:0:0:50:snare.wav
36,192,36619,1,0,0:0:0:0:
109,192,36737,1,0,0:0:0:35:hihat.wav
182,192,36855,1,0,0:0:0:35:hihat.wav
475,192,36855,1,0,0:0:0:45:drum.wav
402,192,36973,1,0,0:0:0:35:hihat.wav
109,192,37092,1,0,0:0:0:50:kick.wav
36,192,37092,1,0,0:0:0:50:snare.wav
329,192,37092,1,0,0:0:0:0:
256,192,37210,1,0,0:0:0:35:hihat.wav
475,192,37328,1,0,0:0:0:50:kick.wav
36,192,37328,1,0,0:0:0:45:drum.wav
109,192,37446,1,0,0:0:0:50:kick.wav
182,192,37564,1,0,0:0:0:50:kick.wav
475,192,37564,1,0,0:0:0:50:snare.wav
402,192,37564,1,0,0:0:0:0:
256,192,37682,1,0,0:0:0:35:hihat.wav
475,192,37800,1,0,0:0:0:50:crash-cymbol.wav
36,192,37800,128,0,38155:0:0:0:50:kick.wav
329,192,37800,128,0,38155:0:0:0:0:
256,192,37918,1,0,0:0:0:35:hihat.wav
182,192,38036,1,0,0:0:0:50:kick.wav
475,192,38036,1,0,0:0:0:50:snare.wav
109,192,38155,128,0,38509:0:0:0:35:hihat.wav
402,192,38155,128,0,38509:0:0:0:0:
329,192,38273,1,0,0:0:0:50:kick.wav
256,192,38391,1,0,0:0:0:50:kick.wav
36,192,38391,1,0,0:0:0:35:hihat.wav
182,192,38509,128,0,38981:0:0:0:50:kick.wav
475,192,38509,128,0,38981:0:0:0:50:snare.wav
329,192,38627,1,0,0:0:0:35:hihat.wav
36,192,38745,1,0,0:0:0:35:hihat.wav
402,192,38863,1,0,0:0:0:50:kick.wav
256,192,38863,1,0,0:0:0:0:
36,192,38981,1,0,0:0:0:50:kick.wav
109,192,38981,1,0,0:0:0:50:snare.wav
329,192,39040,1,0,0:0:0:0:
36,192,39099,1,0,0:0:0:35:hihat.wav
329,192,39159,1,0,0:0:0:0:
109,192,39218,1,0,0:0:0:50:kick.wav
182,192,39218,1,0,0:0:0:0:
402,192,39277,1,0,0:0:0:0:
109,192,39336,1,0,0:0:0:50:kick.wav
402,192,39395,1,0,0:0:0:0:
182,192,39454,1,0,0:0:0:50:kick.wav
256,192,39454,1,0,0:0:0:50:snare.wav
475,192,39513,1,0,0:0:0:0:
182,192,39572,1,0,0:0:0:35:hihat.wav
475,192,39631,1,0,0:0:0:0:
109,192,39690,1,0,0:0:0:50:kick.wav
36,192,39690,128,0,40044:0:0:0:50:crash-cymbol.wav
329,192,39690,128,0,40044:0:0:0:0:
256,192,39808,1,0,0:0:0:35:hihat.wav
182,192,39926,1,0,0:0:0:50:kick.wav
475,192,39926,1,0,0:0:0:50:snare.wav
109,192,40044,128,0,40399:0:0:0:35:hihat.wav
402,192,40044,128,0,40399:0:0:0:0:
329,192,40162,1,0,0:0:0:50:kick.wav
256,192,40281,1,0,0:0:0:50:kick.wav
36,192,40281,1,0,0:0:0:35:hihat.wav
182,192,40399,128,0,40871:0:0:0:50:kick.wav
475,192,40399,128,0,40871:0:0:0:50:snare.wav
329,192,40517,1,0,0:0:0:35:hihat.wav
36,192,40635,1,0,0:0:0:35:hihat.wav
329,192,40753,1,0,0:0:0:50:kick.wav
402,192,40753,1,0,0:0:0:35:hihat.wav
36,192,40871,1,0,0:0:0:50:kick.wav
109,192,40871,1,0,0:0:0:50:snare.wav
256,192,40989,1,0,0:0:0:35:hihat.wav
329,192,41107,1,0,0:0:0:45:drum.wav
475,192,41107,1,0,0:0:0:50:kick.wav
256,192,41225,1,0,0:0:0:45:drum.wav
402,192,41225,1,0,0:0:0:50:kick.wav
329,192,41344,1,0,0:0:0:45:drum.wav
182,192,41344,1,0,0:0:0:50:kick.wav
256,192,41462,1,0,0:0:0:45:drum.wav
109,192,41462,1,0,0:0:0:50:kick.wav
36,192,41580,1,0,0:0:0:50:kick.wav
182,192,41580,1,0,0:0:0:50:crash-cymbol.wav
475,192,41580,1,0,0:0:0:0:
402,192,41698,1,0,0:0:0:50:kick.wav
329,192,41816,1,0,0:0:0:50:kick.wav
182,192,41816,1,0,0:0:0:0:
256,192,41934,1,0,0:0:0:50:kick.wav
36,192,41934,1,0,0:0:0:50:crash-cymbol.wav
475,192,41934,1,0,0:0:0:0:
182,192,42052,1,0,0:0:0:50:kick.wav
109,192,42170,1,0,0:0:0:50:kick.wav
402,192,42170,1,0,0:0:0:45:drum.wav
182,192,42229,1,0,0:0:0:45:drum.wav
36,192,42288,1,0,0:0:0:50:kick.wav
475,192,42288,1,0,0:0:0:45:drum.wav
256,192,42288,1,0,0:0:0:50:crash-cymbol.wav
182,192,42407,1,0,0:0:0:50:kick.wav
109,192,42525,1,0,0:0:0:50:kick.wav
36,192,42643,1,0,0:0:0:50:kick.wav
475,192,42643,1,0,0:0:0:50:crash-cymbol.wav
256,192,42643,1,0,0:0:0:50:snare.wav
182,192,42761,1,0,0:0:0:50:kick.wav
402,192,42761,1,0,0:0:0:0:
109,192,42879,1,0,0:0:0:50:kick.wav
36,192,42997,1,0,0:0:0:50:kick.wav
256,192,42997,1,0,0:0:0:50:crash-cymbol.wav
475,192,42997,1,0,0:0:0:50:snare.wav
402,192,43115,1,0,0:0:0:50:kick.wav
329,192,43233,1,0,0:0:0:50:kick.wav
36,192,43233,1,0,0:0:0:50:crash-cymbol.wav
109,192,43233,1,0,0:0:0:50:snare.wav
402,192,43351,1,0,0:0:0:50:kick.wav
475,192,43470,1,0,0:0:0:50:kick.wav
256,192,43470,1,0,0:0:0:50:crash-cymbol.wav
36,192,43470,1,0,0:0:0:0:
182,192,43588,1,0,0:0:0:45:drum.wav
329,192,43647,1,0,0:0:0:45:drum.wav
475,192,43706,1,0,0:0:0:45:drum.wav
36,192,43706,1,0,0:0:0:0:
402,192,43765,1,0,0:0:0:45:drum.wav
329,192,43824,1,0,0:0:0:45:drum.wav
256,192,43883,1,0,0:0:0:45:drum.wav
182,192,43942,1,0,0:0:0:45:drum.wav
36,192,43942,1,0,0:0:0:0:
475,192,44001,1,0,0:0:0:45:drum.wav
402,192,44060,1,0,0:0:0:45:drum.wav
329,192,44119,1,0,0:0:0:45:drum.wav
256,192,44178,1,0,0:0:0:45:drum.wav
36,192,44178,1,0,0:0:0:50:kick.wav
329,192,44237,1,0,0:0:0:45:drum.wav
109,192,44237,1,0,0:0:0:50:kick.wav
402,192,44296,1,0,0:0:0:45:drum.wav
182,192,44296,1,0,0:0:0:50:kick.wav
475,192,44355,1,0,0:0:0:45:drum.wav
256,192,44355,1,0,0:0:0:50:kick.wav
36,192,44414,1,0,0:0:0:45:drum.wav
109,192,44414,1,0,0:0:0:50:kick.wav
329,192,44414,1,0,0:0:0:50:crash-cymbol.wav
329,192,45359,1,0,0:0:0:50:crash-cymbol.wav
36,192,45359,128,0,46186:0:0:0:50:kick.wav
475,192,45359,1,0,0:0:0:50:applause.wav
182,192,45596,1,0,0:0:0:50:kick.wav
109,192,45596,1,0,0:0:0:50:snare.wav
402,192,45596,1,0,0:0:0:0:
329,192,45714,1,0,0:0:0:35:hihat.wav
256,192,45832,1,0,0:0:0:50:kick.wav
475,192,45832,1,0,0:0:0:0:
329,192,45950,1,0,0:0:0:50:kick.wav
109,192,45950,1,0,0:0:0:35:hihat.wav
182,192,46068,1,0,0:0:0:50:kick.wav
402,192,46068,1,0,0:0:0:50:snare.wav
475,192,46068,1,0,0:0:0:0:
256,192,46186,1,0,0:0:0:35:hihat.wav
109,192,46304,128,0,47131:0:0:0:35:hihat.wav
329,192,46304,1,0,0:0:0:0:
182,192,46422,1,0,0:0:0:50:kick.wav
402,192,46422,1,0,0:0:0:0:
256,192,46540,1,0,0:0:0:50:kick.wav
475,192,46540,1,0,0:0:0:50:snare.wav
36,192,46540,1,0,0:0:0:0:
329,192,46659,1,0,0:0:0:35:hihat.wav
36,192,46777,1,0,0:0:0:50:kick.wav
475,192,46777,1,0,0:0:0:0:
402,192,46895,1,0,0:0:0:35:hihat.wav
329,192,47013,1,0,0:0:0:50:kick.wav
36,192,47013,1,0,0:0:0:50:snare.wav
182,192,47013,1,0,0:0:0:0:
402,192,47131,1,0,0:0:0:35:hihat.wav
475,192,47249,1,0,0:0:0:50:kick.wav
36,192,47249,1,0,0:0:0:0:
182,192,47249,128,0,48076:0:0:0:0:
256,192,47367,1,0,0:0:0:35:hihat.wav
36,192,47485,1,0,0:0:0:50:kick.wav
475,192,47485,1,0,0:0:0:50:snare.wav
329,192,47485,1,0,0:0:0:0:
402,192,47603,1,0,0:0:0:35:hihat.wav
36,192,47722,1,0,0:0:0:50:kick.wav
475,192,47722,1,0,0:0:0:0:
109,192,47840,1,0,0:0:0:50:kick.wav
36,192,47958,1,0,0:0:0:50:kick.wav
329,192,47958,1,0,0:0:0:50:snare.wav
475,192,47958,1,0,0:0:0:0:
109,192,48076,1,0,0:0:0:35:hihat.wav
402,192,48076,1,0,0:0:0:50:kick.wav
256,192,48194,128,0,48903:0:0:0:35:hihat.wav
36,192,48194,1,0,0:0:0:0:
475,192,48312,1,0,0:0:0:50:kick.wav
329,192,48430,1,0,0:0:0:50:kick.wav
36,192,48430,1,0,0:0:0:50:snare.wav
109,192,48430,1,0,0:0:0:0:
402,192,48548,1,0,0:0:0:35:hihat.wav
36,192,48666,1,0,0:0:0:50:kick.wav
475,192,48666,1,0,0:0:0:0:
329,192,48785,1,0,0:0:0:35:hihat.wav
109,192,48903,1,0,0:0:0:50:snare.wav
475,192,48903,1,0,0:0:0:50:kick.wav
36,192,48903,1,0,0:0:0:0:
256,192,49021,1,0,0:0:0:35:hihat.wav
36,192,49139,1,0,0:0:0:50:kick.wav
329,192,49139,128,0,49966:0:0:0:50:crash-cymbol.wav
475,192,49139,1,0,0:0:0:0:
182,192,49257,1,0,0:0:0:35:hihat.wav
109,192,49375,1,0,0:0:0:50:kick.wav
475,192,49375,1,0,0:0:0:50:snare.wav
402,192,49375,1,0,0:0:0:0:
36,192,49493,1,0,0:0:0:35:hihat.wav
256,192,49611,1,0,0:0:0:50:kick.wav
475,192,49611,1,0,0:0:0:0:
182,192,49729,1,0,0:0:0:50:kick.wav
475,192,49847,1,0,0:0:0:50:kick.wav
402,192,49847,1,0,0:0:0:50:snare.wav
109,192,49847,1,0,0:0:0:0:
36,192,49966,1,0,0:0:0:50:kick.wav
402,192,50084,128,0,50910:0:0:0:35:hihat.wav
256,192,50084,1,0,0:0:0:0:
182,192,50202,1,0,0:0:0:50:kick.wav
475,192,50320,1,0,0:0:0:50:kick.wav
36,192,50320,1,0,0:0:0:50:snare.wav
109,192,50320,1,0,0:0:0:0:
329,192,50438,1,0,0:0:0:35:hihat.wav
256,192,50556,1,0,0:0:0:50:kick.wav
475,192,50556,1,0,0:0:0:0:
182,192,50674,1,0,0:0:0:50:kick.wav
256,192,50792,1,0,0:0:0:45:drum.wav
36,192,50792,1,0,0:0:0:50:snare.wav
475,192,50792,1,0,0:0:0:50:kick.wav
109,192,50910,1,0,0:0:0:45:drum.wav
329,192,50910,1,0,0:0:0:50:snare.wav
182,192,51029,1,0,0:0:0:50:crash-cymbol.wav
402,192,51029,1,0,0:0:0:50:kick.wav
36,192,51029,1,0,0:0:0:0:
256,192,51029,128,0,51383:0:0:0:0:
475,192,51029,128,0,51383:0:0:0:0:
329,192,51265,1,0,0:0:0:45:drum.wav
402,192,51383,128,0,51737:0:0:0:50:kick.wav
182,192,51383,128,0,51737:0:0:0:50:crash-cymbol.wav
36,192,51383,1,0,0:0:0:0:
109,192,51383,1,0,0:0:0:0:
256,192,51619,1,0,0:0:0:45:drum.wav
109,192,51737,128,0,52092:0:0:0:50:kick.wav
329,192,51737,128,0,52092:0:0:0:50:crash-cymbol.wav
36,192,51737,1,0,0:0:0:0:
475,192,51737,1,0,0:0:0:0:
182,192,51855,1,0,0:0:0:50:snare.wav
36,192,51973,1,0,0:0:0:50:snare.wav
402,192,51973,1,0,0:0:0:45:drum.wav
182,192,52092,1,0,0:0:0:45:drum.wav
36,192,52210,1,0,0:0:0:45:drum.wav
329,192,52210,1,0,0:0:0:0:
475,192,52210,1,0,0:0:0:0:
256,192,52269,1,0,0:0:0:45:drum.wav
182,192,52328,1,0,0:0:0:45:drum.wav
109,192,52387,1,0,0:0:0:45:drum.wav
36,192,52446,1,0,0:0:0:45:drum.wav
402,192,52446,1,0,0:0:0:0:
329,192,52505,1,0,0:0:0:45:drum.wav
256,192,52564,1,0,0:0:0:45:drum.wav
182,192,52623,1,0,0:0:0:45:drum.wav
36,192,52682,1,0,0:0:0:45:drum.wav
475,192,52682,1,0,0:0:0:0:
109,192,52682,1,0,0:0:0:0:
329,192,52682,1,0,0:0:0:0:
402,192,52741,1,0,0:0:0:45:drum.wav
256,192,52741,1,0,0:0:0:0:
329,192,52800,1,0,0:0:0:45:drum.wav
182,192,52800,1,0,0:0:0:0:
256,192,52859,1,0,0:0:0:45:drum.wav
109,192,52859,1,0,0:0:0:0:
182,192,52918,1,0,0:0:0:50:applause.wav
475,192,52918,128,0,53745:0:0:0:45:drum.wav
36,192,52918,1,0,0:0:0:50:kick.wav
182,192,53155,1,0,0:0:0:50:kick.wav
402,192,53155,1,0,0:0:0:50:snare.wav
36,192,53155,1,0,0:0:0:0:
329,192,53273,1,0,0:0:0:35:hihat.wav
256,192,53391,1,0,0:0:0:50:kick.wav
36,192,53391,1,0,0:0:0:0:
402,192,53509,1,0,0:0:0:50:kick.wav
182,192,53509,1,0,0:0:0:35:hihat.wav
109,192,53627,1,0,0:0:0:50:kick.wav
329,192,53627,1,0,0:0:0:50:snare.wav
36,192,53627,1,0,0:0:0:0:
256,192,53745,1,0,0:0:0:50:kick.wav
182,192,53863,1,0,0:0:0:35:hihat.wav
36,192,53863,1,0,0:0:0:0:
402,192,53863,128,0,54690:0:0:0:0:
329,192,53981,1,0,0:0:0:50:kick.wav
256,192,54099,1,0,0:0:0:50:kick.wav
475,192,54099,1,0,0:0:0:50:snare.wav
36,192,54099,1,0,0:0:0:0:
109,192,54218,1,0,0:0:0:35:hihat.wav
475,192,54336,1,0,0:0:0:50:kick.wav
182,192,54336,1,0,0:0:0:0:
329,192,54454,1,0,0:0:0:35:hihat.wav
109,192,54454,1,0,0:0:0:50:kick.wav
256,192,54572,1,0,0:0:0:50:kick.wav
36,192,54572,1,0,0:0:0:50:snare.wav
475,192,54572,1,0,0:0:0:0:
182,192,54690,1,0,0:0:0:35:hihat.wav
329,192,54808,128,0,55635:0:0:0:50:kick.wav
36,192,54808,1,0,0:0:0:0:
475,192,54808,1,0,0:0:0:0:
182,192,54926,1,0,0:0:0:35:hihat.wav
475,192,55044,1,0,0:0:0:50:kick.wav
36,192,55044,1,0,0:0:0:50:snare.wav
402,192,55044,1,0,0:0:0:0:
182,192,55162,1,0,0:0:0:35:hihat.wav
36,192,55281,1,0,0:0:0:50:kick.wav
475,192,55281,1,0,0:0:0:0:
109,192,55399,1,0,0:0:0:50:kick.wav
36,192,55517,1,0,0:0:0:50:kick.wav
402,192,55517,1,0,0:0:0:50:snare.wav
475,192,55517,1,0,0:0:0:0:
109,192,55635,1,0,0:0:0:35:hihat.wav
36,192,55753,1,0,0:0:0:35:hihat.wav
256,192,55753,128,0,56462:0:0:0:0:
475,192,55753,1,0,0:0:0:0:
182,192,55871,1,0,0:0:0:50:kick.wav
475,192,55989,1,0,0:0:0:50:kick.wav
36,192,55989,1,0,0:0:0:50:snare.wav
329,192,55989,1,0,0:0:0:0:
109,192,56107,1,0,0:0:0:35:hihat.wav
475,192,56225,1,0,0:0:0:50:kick.wav
182,192,56225,1,0,0:0:0:0:
36,192,56344,1,0,0:0:0:35:hihat.wav
182,192,56462,1,0,0:0:0:50:snare.wav
475,192,56462,1,0,0:0:0:50:kick.wav
329,192,56462,1,0,0:0:0:0:
109,192,56580,1,0,0:0:0:35:hihat.wav
256,192,56580,1,0,0:0:0:50:kick.wav
475,192,56698,1,0,0:0:0:50:kick.wav
36,192,56698,1,0,0:0:0:50:crash-cymbol.wav
182,192,56698,128,0,57525:0:0:0:0:
402,192,56816,1,0,0:0:0:35:hihat.wav
109,192,56934,1,0,0:0:0:50:kick.wav
36,192,56934,1,0,0:0:0:50:snare.wav
329,192,56934,1,0,0:0:0:0:
475,192,57052,1,0,0:0:0:35:hihat.wav
329,192,57170,1,0,0:0:0:50:kick.wav
36,192,57170,1,0,0:0:0:0:
402,192,57288,1,0,0:0:0:50:kick.wav
475,192,57407,1,0,0:0:0:50:kick.wav
256,192,57407,1,0,0:0:0:50:snare.wav
36,192,57407,1,0,0:0:0:0:
329,192,57525,1,0,0:0:0:35:hihat.wav
402,192,57643,1,0,0:0:0:35:hihat.wav
109,192,57643,128,0,58470:0:0:0:0:
36,192,57643,1,0,0:0:0:0:
329,192,57761,1,0,0:0:0:35:hihat.wav
256,192,57879,1,0,0:0:0:50:kick.wav
475,192,57879,1,0,0:0:0:50:snare.wav
36,192,57879,1,0,0:0:0:0:
402,192,57997,1,0,0:0:0:35:hihat.wav
36,192,58115,1,0,0:0:0:50:kick.wav
329,192,58115,1,0,0:0:0:0:
256,192,58233,1,0,0:0:0:35:hihat.wav
182,192,58351,1,0,0:0:0:50:kick.wav
475,192,58351,1,0,0:0:0:50:snare.wav
36,192,58351,1,0,0:0:0:0:
402,192,58470,1,0,0:0:0:35:hihat.wav
329,192,58588,1,0,0:0:0:50:kick.wav
182,192,58588,128,0,58942:0:0:0:50:crash-cymbol.wav
36,192,58588,128,0,58942:0:0:0:0:
475,192,58706,1,0,0:0:0:0:
402,192,58824,1,0,0:0:0:50:snare.wav
256,192,58942,128,0,59296:0:0:0:50:kick.wav
109,192,58942,128,0,59296:0:0:0:50:crash-cymbol.wav
329,192,58942,1,0,0:0:0:0:
475,192,59060,1,0,0:0:0:0:
402,192,59178,1,0,0:0:0:45:drum.wav
329,192,59296,128,0,59651:0:0:0:50:kick.wav
182,192,59296,128,0,59651:0:0:0:50:crash-cymbol.wav
36,192,59296,1,0,0:0:0:0:
475,192,59414,128,0,59651:0:0:0:0:
36,192,59533,128,0,59651:0:0:0:50:crash-cymbol.wav
402,192,59651,1,0,0:0:0:50:snare.wav
109,192,59651,1,0,0:0:0:45:drum.wav
182,192,59769,1,0,0:0:0:45:drum.wav
256,192,59887,1,0,0:0:0:45:drum.wav
36,192,60005,1,0,0:0:0:45:drum.wav
329,192,60005,1,0,0:0:0:50:snare.wav
109,192,60084,1,0,0:0:0:45:drum.wav
402,192,60084,1,0,0:0:0:0:
182,192,60162,1,0,0:0:0:45:drum.wav
475,192,60162,1,0,0:0:0:0:
109,192,60241,1,0,0:0:0:45:drum.wav
402,192,60241,1,0,0:0:0:0:
329,192,60320,1,0,0:0:0:45:drum.wav
36,192,60320,1,0,0:0:0:0:
402,192,60399,1,0,0:0:0:45:drum.wav
109,192,60399,1,0,0:0:0:0:
475,192,60477,128,0,60714:0:0:0:50:applause.wav
182,192,60477,1,0,0:0:0:45:drum.wav
36,192,60477,128,0,60714:0:0:0:50:crash-cymbol.wav
329,192,60477,1,0,0:0:0:0:
109,192,60714,1,0,0:0:0:50:kick.wav
329,192,60714,1,0,0:0:0:0:
182,192,60832,1,0,0:0:0:50:kick.wav
402,192,60832,1,0,0:0:0:35:hihat.wav
256,192,60950,1,0,0:0:0:50:snare.wav
475,192,60950,1,0,0:0:0:45:drum.wav
36,192,60950,1,0,0:0:0:0:
402,192,61068,1,0,0:0:0:35:hihat.wav
329,192,61186,1,0,0:0:0:50:kick.wav
182,192,61186,1,0,0:0:0:0:
256,192,61304,1,0,0:0:0:50:snare.wav
36,192,61304,1,0,0:0:0:45:drum.wav
475,192,61304,1,0,0:0:0:35:hihat.wav
402,192,61422,1,0,0:0:0:35:hihat.wav
36,192,61540,1,0,0:0:0:45:drum.wav
109,192,61540,1,0,0:0:0:0:
329,192,61540,1,0,0:0:0:50:kick.wav
402,192,61659,1,0,0:0:0:50:kick.wav
182,192,61659,1,0,0:0:0:0:
475,192,61777,1,0,0:0:0:50:kick.wav
256,192,61777,1,0,0:0:0:0:
329,192,61895,1,0,0:0:0:50:snare.wav
36,192,61895,1,0,0:0:0:45:drum.wav
109,192,61895,1,0,0:0:0:0:
182,192,62013,1,0,0:0:0:50:kick.wav
402,192,62013,1,0,0:0:0:0:
36,192,62131,1,0,0:0:0:50:kick.wav
475,192,62131,1,0,0:0:0:0:
109,192,62249,1,0,0:0:0:35:hihat.wav
402,192,62249,1,0,0:0:0:50:kick.wav
329,192,62367,1,0,0:0:0:50:snare.wav
36,192,62367,1,0,0:0:0:0:
182,192,62367,1,0,0:0:0:0:
402,192,62485,1,0,0:0:0:35:hihat.wav
475,192,62603,1,0,0:0:0:0:
329,192,62722,1,0,0:0:0:50:kick.wav
109,192,62722,1,0,0:0:0:35:hihat.wav
36,192,62840,1,0,0:0:0:50:snare.wav
182,192,62840,1,0,0:0:0:45:drum.wav
402,192,62840,1,0,0:0:0:0:
256,192,62958,1,0,0:0:0:35:hihat.wav
329,192,63076,1,0,0:0:0:0:
182,192,63194,1,0,0:0:0:50:snare.wav
36,192,63194,1,0,0:0:0:45:drum.wav
402,192,63194,1,0,0:0:0:35:hihat.wav
475,192,63312,1,0,0:0:0:35:hihat.wav
329,192,63430,1,0,0:0:0:35:hihat.wav
109,192,63430,1,0,0:0:0:50:snare.wav
36,192,63430,1,0,0:0:0:0:
402,192,63548,1,0,0:0:0:50:kick.wav
182,192,63548,1,0,0:0:0:0:
256,192,63666,1,0,0:0:0:50:kick.wav
475,192,63666,1,0,0:0:0:0:
36,192,63785,1,0,0:0:0:50:snare.wav
329,192,63785,1,0,0:0:0:45:drum.wav
109,192,63785,1,0,0:0:0:0:
182,192,63903,1,0,0:0:0:35:hihat.wav
36,192,64021,1,0,0:0:0:50:kick.wav
256,192,64021,1,0,0:0:0:0:
109,192,64139,1,0,0:0:0:50:kick.wav
329,192,64139,1,0,0:0:0:0:
402,192,64257,1,0,0:0:0:50:kick.wav
182,192,64257,128,0,64493:0:0:0:50:crash-cymbol.wav
475,192,64257,128,0,64493:0:0:0:0:
109,192,64611,1,0,0:0:0:50:kick.wav
402,192,64611,1,0,0:0:0:0:
36,192,64729,1,0,0:0:0:50:snare.wav
256,192,64729,1,0,0:0:0:45:drum.wav
475,192,64729,1,0,0:0:0:0:
182,192,64847,1,0,0:0:0:35:hihat.wav
329,192,64966,1,0,0:0:0:50:kick.wav
109,192,64966,1,0,0:0:0:0:
475,192,65084,1,0,0:0:0:50:snare.wav
36,192,65084,1,0,0:0:0:45:drum.wav
256,192,65084,1,0,0:0:0:0:
402,192,65202,1,0,0:0:0:35:hihat.wav
329,192,65320,1,0,0:0:0:35:hihat.wav
36,192,65320,1,0,0:0:0:50:snare.wav
182,192,65320,1,0,0:0:0:0:
402,192,65438,1,0,0:0:0:50:kick.wav
109,192,65438,1,0,0:0:0:0:
475,192,65556,1,0,0:0:0:50:kick.wav
256,192,65556,1,0,0:0:0:0:
36,192,65674,1,0,0:0:0:50:snare.wav
182,192,65674,1,0,0:0:0:45:drum.wav
329,192,65674,1,0,0:0:0:0:
402,192,65792,1,0,0:0:0:35:hihat.wav
36,192,65910,1,0,0:0:0:50:kick.wav
256,192,65910,1,0,0:0:0:0:
109,192,66029,1,0,0:0:0:35:hihat.wav
329,192,66029,1,0,0:0:0:50:kick.wav
402,192,66147,1,0,0:0:0:50:kick.wav
182,192,66147,128,0,67092:0:0:0:50:crash-cymbol.wav
475,192,66147,128,0,67092:0:0:0:0:
475,192,67564,1,0,0:0:0:45:drum.wav
329,192,67564,1,0,0:0:0:50:snare.wav
402,192,67682,1,0,0:0:0:50:snare.wav
256,192,67682,1,0,0:0:0:45:drum.wav
329,192,67800,1,0,0:0:0:50:snare.wav
182,192,67800,1,0,0:0:0:45:drum.wav
256,192,67918,1,0,0:0:0:50:snare.wav
109,192,67918,1,0,0:0:0:45:drum.wav
182,192,68036,1,0,0:0:0:50:applause.wav
36,192,68036,128,0,68863:0:0:0:50:kick.wav
475,192,68036,1,0,0:0:0:50:crash-cymbol.wav
182,192,68273,1,0,0:0:0:50:snare.wav
109,192,68273,1,0,0:0:0:50:kick.wav
402,192,68273,1,0,0:0:0:0:
329,192,68391,1,0,0:0:0:35:hihat.wav
256,192,68509,1,0,0:0:0:50:kick.wav
475,192,68509,1,0,0:0:0:0:
329,192,68627,1,0,0:0:0:35:hihat.wav
109,192,68627,1,0,0:0:0:50:kick.wav
182,192,68745,1,0,0:0:0:50:snare.wav
402,192,68745,1,0,0:0:0:50:kick.wav
475,192,68745,1,0,0:0:0:0:
256,192,68863,1,0,0:0:0:50:kick.wav
109,192,68981,128,0,69808:0:0:0:35:hihat.wav
329,192,68981,1,0,0:0:0:0:
182,192,69099,1,0,0:0:0:35:hihat.wav
256,192,69218,1,0,0:0:0:50:snare.wav
475,192,69218,1,0,0:0:0:50:kick.wav
36,192,69218,1,0,0:0:0:0:
329,192,69336,1,0,0:0:0:35:hihat.wav
36,192,69454,1,0,0:0:0:50:kick.wav
475,192,69454,1,0,0:0:0:0:
402,192,69572,1,0,0:0:0:50:kick.wav
329,192,69690,1,0,0:0:0:50:snare.wav
36,192,69690,1,0,0:0:0:50:kick.wav
182,192,69690,1,0,0:0:0:0:
402,192,69808,1,0,0:0:0:35:hihat.wav
475,192,69926,1,0,0:0:0:50:kick.wav
36,192,69926,1,0,0:0:0:50:crash-cymbol.wav
182,192,69926,128,0,70753:0:0:0:0:
256,192,70044,1,0,0:0:0:35:hihat.wav
36,192,70162,1,0,0:0:0:50:snare.wav
475,192,70162,1,0,0:0:0:50:kick.wav
329,192,70162,1,0,0:0:0:0:
402,192,70281,1,0,0:0:0:35:hihat.wav
36,192,70399,1,0,0:0:0:50:kick.wav
475,192,70399,1,0,0:0:0:0:
109,192,70517,1,0,0:0:0:35:hihat.wav
36,192,70635,1,0,0:0:0:50:snare.wav
329,192,70635,1,0,0:0:0:50:kick.wav
475,192,70635,1,0,0:0:0:0:
109,192,70753,1,0,0:0:0:50:kick.wav
36,192,70871,1,0,0:0:0:35:hihat.wav
256,192,70871,128,0,71107:0:0:0:0:
402,192,70871,1,0,0:0:0:0:
475,192,71107,128,0,71344:0:0:0:50:snare.wav
36,192,71107,1,0,0:0:0:50:kick.wav
329,192,71107,1,0,0:0:0:45:drum.wav
182,192,71225,128,0,71344:0:0:0:35:hihat.wav
402,192,71344,128,0,71580:0:0:0:50:kick.wav
36,192,71344,1,0,0:0:0:45:drum.wav
256,192,71344,1,0,0:0:0:0:
109,192,71462,128,0,71580:0:0:0:50:kick.wav
329,192,71580,128,0,71816:0:0:0:50:kick.wav
182,192,71580,1,0,0:0:0:50:snare.wav
36,192,71698,128,0,71816:0:0:0:35:hihat.wav
109,192,71816,1,0,0:0:0:50:crash-cymbol.wav
256,192,71816,1,0,0:0:0:50:kick.wav
475,192,71816,128,0,72643:0:0:0:0:
402,192,71934,1,0,0:0:0:35:hihat.wav
329,192,72052,1,0,0:0:0:50:snare.wav
109,192,72052,1,0,0:0:0:50:kick.wav
36,192,72052,1,0,0:0:0:0:
256,192,72170,1,0,0:0:0:35:hihat.wav
402,192,72288,1,0,0:0:0:50:kick.wav
109,192,72288,1,0,0:0:0:0:
329,192,72407,1,0,0:0:0:50:kick.wav
36,192,72525,1,0,0:0:0:50:kick.wav
109,192,72525,1,0,0:0:0:50:snare.wav
256,192,72525,1,0,0:0:0:0:
329,192,72643,1,0,0:0:0:35:hihat.wav
402,192,72761,128,0,73588:0:0:0:35:hihat.wav
109,192,72761,1,0,0:0:0:0:
182,192,72879,1,0,0:0:0:35:hihat.wav
475,192,72997,1,0,0:0:0:50:kick.wav
36,192,72997,1,0,0:0:0:50:snare.wav
256,192,72997,1,0,0:0:0:0:
109,192,73115,1,0,0:0:0:35:hihat.wav
329,192,73233,1,0,0:0:0:50:kick.wav
182,192,73233,1,0,0:0:0:0:
109,192,73351,1,0,0:0:0:50:kick.wav
475,192,73470,1,0,0:0:0:50:kick.wav
36,192,73470,1,0,0:0:0:50:snare.wav
256,192,73470,1,0,0:0:0:0:
182,192,73588,1,0,0:0:0:35:hihat.wav
475,192,73706,1,0,0:0:0:50:crash-cymbol.wav
329,192,73706,1,0,0:0:0:50:kick.wav
36,192,73706,1,0,0:0:0:0:
109,192,73706,1,0,0:0:0:0:
329,192,73942,1,0,0:0:0:45:drum.wav
475,192,73942,1,0,0:0:0:50:snare.wav
36,192,74060,1,0,0:0:0:50:crash-cymbol.wav
475,192,74060,1,0,0:0:0:50:kick.wav
329,192,74060,1,0,0:0:0:0:
109,192,74060,1,0,0:0:0:0:
475,192,74296,1,0,0:0:0:50:snare.wav
329,192,74296,1,0,0:0:0:45:drum.wav
329,192,74414,1,0,0:0:0:50:crash-cymbol.wav
109,192,74414,1,0,0:0:0:50:kick.wav
475,192,74414,1,0,0:0:0:0:
36,192,74414,1,0,0:0:0:0:
109,192,74651,1,0,0:0:0:50:snare.wav
182,192,74769,1,0,0:0:0:50:snare.wav
329,192,74769,1,0,0:0:0:45:drum.wav
256,192,74887,1,0,0:0:0:50:crash-cymbol.wav
36,192,74887,1,0,0:0:0:50:kick.wav
475,192,74887,1,0,0:0:0:0:
109,192,75005,1,0,0:0:0:50:kick.wav
329,192,75005,1,0,0:0:0:0:
182,192,75123,1,0,0:0:0:50:kick.wav
402,192,75123,1,0,0:0:0:0:
182,192,75241,1,0,0:0:0:45:drum.wav
402,192,75241,1,0,0:0:0:50:snare.wav
256,192,75359,1,0,0:0:0:50:snare.wav
475,192,75359,1,0,0:0:0:45:drum.wav
36,192,75359,1,0,0:0:0:0:
109,192,75477,1,0,0:0:0:45:drum.wav
329,192,75477,1,0,0:0:0:50:snare.wav
182,192,75596,1,0,0:0:0:50:kick.wav
402,192,75596,1,0,0:0:0:50:crash-cymbol.wav
475,192,75596,1,0,0:0:0:0:
36,192,75596,1,0,0:0:0:0:
36,192,75832,1,0,0:0:0:45:drum.wav
182,192,75832,1,0,0:0:0:50:snare.wav
182,192,75950,1,0,0:0:0:50:kick.wav
36,192,75950,1,0,0:0:0:50:crash-cymbol.wav
402,192,75950,1,0,0:0:0:0:
475,192,75950,1,0,0:0:0:0:
36,192,76186,1,0,0:0:0:50:snare.wav
182,192,76186,1,0,0:0:0:45:drum.wav
475,192,76304,1,0,0:0:0:50:crash-cymbol.wav
182,192,76304,1,0,0:0:0:50:kick.wav
402,192,76304,1,0,0:0:0:0:
36,192,76304,1,0,0:0:0:0:
329,192,76422,1,0,0:0:0:0:
256,192,76540,1,0,0:0:0:0:
36,192,76659,1,0,0:0:0:45:drum.wav
109,192,76777,1,0,0:0:0:50:kick.wav
475,192,76777,1,0,0:0:0:50:crash-cymbol.wav
329,192,76777,1,0,0:0:0:0:
182,192,76895,1,0,0:0:0:50:kick.wav
36,192,77013,1,0,0:0:0:50:kick.wav
256,192,77013,1,0,0:0:0:0:
109,192,77131,1,0,0:0:0:50:snare.wav
329,192,77131,1,0,0:0:0:45:drum.wav
182,192,77249,1,0,0:0:0:45:drum.wav
402,192,77249,1,0,0:0:0:50:snare.wav
475,192,77249,1,0,0:0:0:0:
329,192,77367,1,0,0:0:0:50:snare.wav
109,192,77367,1,0,0:0:0:45:drum.wav
256,192,77485,1,0,0:0:0:50:applause.wav
36,192,77485,128,0,78312:0:0:0:50:crash-cymbol.wav
475,192,77485,128,0,78312:0:0:0:50:kick.wav
402,192,77603,1,0,0:0:0:35:hihat.wav
109,192,77722,1,0,0:0:0:50:snare.wav
329,192,77722,1,0,0:0:0:50:kick.wav
256,192,77840,1,0,0:0:0:35:hihat.wav
182,192,77958,1,0,0:0:0:50:kick.wav
402,192,77958,1,0,0:0:0:0:
329,192,78076,1,0,0:0:0:50:kick.wav
109,192,78194,1,0,0:0:0:50:kick.wav
256,192,78194,1,0,0:0:0:50:snare.wav
329,192,78312,1,0,0:0:0:35:hihat.wav
109,192,78430,128,0,79139:0:0:0:35:hihat.wav
182,192,78430,1,0,0:0:0:0:
402,192,78430,128,0,79139:0:0:0:0:
475,192,78430,1,0,0:0:0:0:
256,192,78548,1,0,0:0:0:50:kick.wav
329,192,78666,1,0,0:0:0:50:kick.wav
36,192,78666,1,0,0:0:0:50:snare.wav
256,192,78785,1,0,0:0:0:35:hihat.wav
182,192,78903,1,0,0:0:0:50:kick.wav
475,192,78903,1,0,0:0:0:0:
256,192,79021,1,0,0:0:0:35:hihat.wav
329,192,79139,1,0,0:0:0:50:kick.wav
256,192,79257,128,0,79493:0:0:0:50:kick.wav
475,192,79257,128,0,79493:0:0:0:50:crash-cymbol.wav
36,192,79257,1,0,0:0:0:0:
182,192,79257,1,0,0:0:0:0:
36,192,79611,128,0,79847:0:0:0:50:snare.wav
182,192,79611,128,0,79847:0:0:0:45:drum.wav
329,192,79611,1,0,0:0:0:0:
256,192,79847,128,0,80084:0:0:0:50:crash-cymbol.wav
109,192,79847,128,0,80084:0:0:0:50:kick.wav
475,192,79847,1,0,0:0:0:0:
402,192,79966,1,0,0:0:0:0:
182,192,80084,128,0,80320:0:0:0:50:snare.wav
329,192,80084,128,0,80320:0:0:0:45:drum.wav
109,192,80202,1,0,0:0:0:0:
256,192,80320,128,0,80556:0:0:0:50:crash-cymbol.wav
402,192,80320,128,0,80556:0:0:0:50:kick.wav
36,192,80320,1,0,0:0:0:0:
109,192,80438,1,0,0:0:0:0:
329,192,80556,128,0,80792:0:0:0:50:snare.wav
475,192,80556,128,0,80792:0:0:0:45:drum.wav
182,192,80556,1,0,0:0:0:0:
109,192,80674,1,0,0:0:0:0:
36,192,80792,1,0,0:0:0:50:crash-cymbol.wav
256,192,80792,1,0,0:0:0:50:kick.wav
182,192,80910,1,0,0:0:0:45:drum.wav
256,192,80970,1,0,0:0:0:45:drum.wav
475,192,81029,1,0,0:0:0:45:drum.wav
329,192,81029,1,0,0:0:0:50:snare.wav
109,192,81029,1,0,0:0:0:0:
36,192,81029,1,0,0:0:0:0:
256,192,81088,1,0,0:0:0:45:drum.wav
402,192,81088,1,0,0:0:0:50:snare.wav
329,192,81147,1,0,0:0:0:45:drum.wav
182,192,81147,1,0,0:0:0:50:snare.wav
256,192,81206,1,0,0:0:0:45:drum.wav
109,192,81206,1,0,0:0:0:50:snare.wav
182,192,81265,1,0,0:0:0:45:drum.wav
36,192,81265,128,0,82092:0:0:0:50:snare.wav
475,192,81265,128,0,82092:0:0:0:50:kick.wav
109,192,81501,1,0,0:0:0:50:kick.wav
329,192,81501,1,0,0:0:0:50:snare.wav
182,192,81619,1,0,0:0:0:35:hihat.wav
256,192,81737,1,0,0:0:0:50:kick.wav
402,192,81737,1,0,0:0:0:0:
182,192,81855,1,0,0:0:0:50:kick.wav
109,192,81973,1,0,0:0:0:50:kick.wav
329,192,81973,1,0,0:0:0:50:snare.wav
256,192,82092,1,0,0:0:0:35:hihat.wav
402,192,82210,128,0,82564:0:0:0:35:hihat.wav
109,192,82210,128,0,82564:0:0:0:50:crash-cymbol.wav
182,192,82210,1,0,0:0:0:0:
256,192,82446,1,0,0:0:0:50:kick.wav
36,192,82446,1,0,0:0:0:50:snare.wav
329,192,82682,1,0,0:0:0:50:snare.wav
475,192,82682,1,0,0:0:0:45:drum.wav
256,192,82800,1,0,0:0:0:50:snare.wav
402,192,82800,1,0,0:0:0:45:drum.wav
182,192,82918,1,0,0:0:0:50:kick.wav
329,192,82918,1,0,0:0:0:45:drum.wav
109,192,83036,1,0,0:0:0:50:applause.wav
36,192,83036,128,0,83627:0:0:0:50:kick.wav
475,192,83036,128,0,83627:0:0:0:50:crash-cymbol.wav
256,192,83036,1,0,0:0:0:0:
182,192,83391,128,0,83627:0:0:0:50:kick.wav
329,192,83391,128,0,83627:0:0:0:35:hihat.wav
109,192,83627,128,0,84099:0:0:0:50:snare.wav
402,192,83627,128,0,84099:0:0:0:45:drum.wav
36,192,83863,128,0,84099:0:0:0:35:hihat.wav
475,192,83863,128,0,84099:0:0:0:0:
256,192,83981,128,0,84690:0:0:0:50:snare.wav
109,192,84218,1,0,0:0:0:50:snare.wav
402,192,84218,1,0,0:0:0:45:drum.wav
182,192,84336,1,0,0:0:0:50:kick.wav
329,192,84336,1,0,0:0:0:0:
36,192,84454,1,0,0:0:0:0:
475,192,84454,1,0,0:0:0:0:
109,192,84572,1,0,0:0:0:50:snare.wav
402,192,84572,1,0,0:0:0:45:drum.wav
182,192,84690,1,0,0:0:0:50:snare.wav
329,192,84690,1,0,0:0:0:45:drum.wav
256,192,84808,1,0,0:0:0:50:crash-cymbol.wav
36,192,84808,128,0,85517:0:0:0:50:kick.wav
475,192,84808,128,0,85517:0:0:0:0:
182,192,85281,128,0,85517:0:0:0:50:kick.wav
329,192,85281,128,0,85517:0:0:0:35:hihat.wav
109,192,85517,128,0,85753:0:0:0:35:hihat.wav
402,192,85517,128,0,85753:0:0:0:50:snare.wav
36,192,85753,1,0,0:0:0:35:hihat.wav
256,192,85753,1,0,0:0:0:50:kick.wav
475,192,85753,1,0,0:0:0:0:
109,192,85871,1,0,0:0:0:50:snare.wav
329,192,85871,1,0,0:0:0:45:drum.wav
182,192,85989,1,0,0:0:0:45:drum.wav
402,192,85989,1,0,0:0:0:50:snare.wav
475,192,85989,1,0,0:0:0:0:
36,192,86107,1,0,0:0:0:50:snare.wav
256,192,86107,1,0,0:0:0:45:drum.wav
329,192,86225,1,0,0:0:0:50:kick.wav
475,192,86225,1,0,0:0:0:45:drum.wav
256,192,86344,1,0,0:0:0:45:drum.wav
402,192,86344,1,0,0:0:0:50:kick.wav
182,192,86462,1,0,0:0:0:50:kick.wav
329,192,86462,1,0,0:0:0:50:snare.wav
109,192,86580,1,0,0:0:0:50:kick.wav
256,192,86580,1,0,0:0:0:45:drum.wav
475,192,86698,128,0,87407:0:0:0:50:kick.wav
36,192,86698,128,0,87407:0:0:0:50:snare.wav
182,192,86698,128,0,87407:0:0:0:45:drum.wav
