osu file format v14

[General]
AudioFilename: audio.mp3
AudioLeadIn: 0
PreviewTime: 44592
Countdown: 0
SampleSet: Normal
StackLeniency: 0.7
Mode: 2
LetterboxInBreaks: 0
WidescreenStoryboard: 0

[Editor]
DistanceSpacing: 1.4
BeatDivisor: 4
GridSize: 8
TimelineZoom: 3.299999

[Metadata]
Title:XY&Z
TitleUnicode:XY&Z
Artist:Satoshi (CV:Matsumoto Rica)
ArtistUnicode:サトシ(CV:松本 梨香)
Creator:rew0825
Version:Salad
Source:ポケットモンスターXY&Z
Tags:xy and z xerneas yveltal zygarde opening tv size ash ketchum pokemon pokémon pocket monsters ジガルデ rika 佐香智久 xyz tomohisa Xinely Greninja
BeatmapID:951822
BeatmapSetID:442618

[Difficulty]
HPDrainRate:4
CircleSize:3
OverallDifficulty:7
ApproachRate:7
SliderMultiplier:0.8
SliderTickRate:1

[Events]
//Background and Video events
0,0,"BG.jpg",0,0
//Break Periods
//Storyboard Layer 0 (Background)
//Storyboard Layer 1 (Fail)
//Storyboard Layer 2 (Pass)
//Storyboard Layer 3 (Foreground)
//Storyboard Sound Samples

[TimingPoints]
478,236.220472440945,4,1,1,50,1,0
3785,236.220472440945,4,1,1,60,1,0
11344,-100,4,1,1,50,0,0
15123,-148.148148148148,4,1,1,40,0,0
18903,-100,4,1,1,50,0,0
22682,-147.058823529412,4,1,1,40,0,0
26462,-200,4,1,1,40,0,0
34021,-133.333333333333,4,1,1,50,0,0
41580,-100,4,1,1,60,0,0
45359,-100,4,1,1,70,0,1
60477,-100,4,1,1,60,0,0
68036,-100,4,1,1,70,0,1
79139,-66.6666666666667,4,1,1,70,0,1
79257,-100,4,1,1,70,0,1
86698,-66.6666666666667,4,1,1,60,0,0
87407,-100,4,1,1,30,0,0

[Colours]
Combo1 : 255,128,128
Combo2 : 60,157,255
Combo3 : 0,80,176
Combo4 : 255,72,164

[HitObjects]
136,88,477,6,0,L|264:88,1,120,4|4,0:0|0:0,0:0:0:0:
376,192,1187,2,0,L|256:192,1,120,4|4,0:0|0:0,0:0:0:0:
136,192,1895,1,4,0:0:0:0:
256,256,2131,1,4,0:0:0:0:
136,328,2367,6,0,L|264:328,1,120,4|4,0:0|0:0,0:0:0:0:
448,192,3076,1,4,0:0:0:0:
336,192,3312,1,4,0:0:0:0:
136,192,3785,6,0,L|56:192,2,80,4|8|8,0:0|0:0|0:2,0:0:0:0:
256,192,4493,1,8,0:0:0:0:
320,192,4611,2,0,L|240:192,1,80,4|8,0:0|0:0,0:0:0:0:
112,192,5084,1,8,0:2:0:0:
48,192,5202,2,0,L|128:192,1,80,8|8,0:2|0:0,0:0:0:0:
368,192,5674,6,0,L|448:192,2,80,4|8|8,0:0|0:0|0:2,0:0:0:0:
248,192,6383,1,8,0:0:0:0:
184,192,6501,2,0,L|264:191,1,80,4|8,0:0|0:0,0:0:0:0:
392,192,6973,1,8,0:2:0:0:
458,190,7092,2,0,L|378:190,1,80,8|8,0:2|0:0,0:0:0:0:
152,192,7564,6,0,L|65:193,2,80,4|8|8,0:0|0:0|0:2,0:0:0:0:
272,192,8273,1,8,0:0:0:0:
336,192,8391,2,0,L|256:192,1,80,4|8,0:0|0:0,0:0:0:0:
128,192,8863,1,8,0:2:0:0:
64,192,8981,2,0,L|144:192,1,80,8|8,0:2|0:0,0:0:0:0:
368,240,9454,6,0,L|272:312,1,120,4|4,0:0|0:0,0:0:0:0:
96,176,10162,2,0,L|192:248,1,120,4|4,0:0|0:0,0:0:0:0:
368,176,10871,1,4,0:0:0:0:
448,240,11107,1,8,0:0:0:0:
208,296,11344,6,0,P|128:256|136:192,1,160,4|8,0:0|0:2,0:0:0:0:
215,175,12052,1,8,0:0:0:0:
320,176,12288,2,0,L|240:176,1,80,8|8,0:2|0:0,0:0:0:0:
128,232,12761,2,0,L|184:176,1,80,8|8,0:2|0:0,0:0:0:0:
376,120,13233,6,0,L|465:121,2,80,8|8|8,0:2|0:0|0:2,0:0:0:0:
272,176,13942,1,8,0:0:0:0:
168,232,14178,2,0,L|248:232,1,80,8|8,0:2|0:0,0:0:0:0:
360,120,14651,2,0,L|272:120,1,80,8|8,0:2|0:0,0:0:0:0:
240,120,15005,1,8,0:0:0:0:
200,120,15123,5,4,0:0:0:0:
320,120,15359,1,8,0:0:0:0:
390,120,15596,1,8,0:2:0:0:
320,120,15832,1,8,0:0:0:0:
144,120,16068,2,0,L|56:120,2,81.0000003089905,8|8|8,0:2|0:0|0:0,0:0:0:0:
256,120,17013,6,0,L|310:120,1,54.0000002059937,8|8,0:2|0:0,0:0:0:0:
200,312,17485,2,0,L|254:312,1,54.0000002059937,8|8,0:2|0:0,0:0:0:0:
368,312,17958,2,0,L|422:312,2,54.0000002059937,8|8|8,0:2|0:0|0:2,0:0:0:0:
296,312,18666,1,8,0:0:0:0:
96,224,18903,6,4,P|144:224|256:224,1,160,4|8,0:0|0:2,0:0:0:0:
360,224,19611,1,8,0:0:0:0:
270,222,19847,2,8,L|184:224,1,80,8|8,0:2|0:0,0:0:0:0:
96,224,20320,2,8,L|184:224,1,80,8|8,0:2|0:0,0:0:0:0:
360,224,20792,6,0,L|440:224,1,80,8|8,0:2|0:0,0:0:0:0:
320,128,21265,2,0,L|240:128,1,80,8|8,0:2|0:0,0:0:0:0:
328,128,21737,2,0,L|408:128,1,80,8|8,0:2|0:0,0:0:0:0:
496,128,22210,2,0,L|416:128,1,80,8|8,0:2|0:0,0:0:0:0:
304,128,22682,5,4,0:0:0:0:
192,128,22918,2,0,L|136:128,2,54.4000003320313,8|8|8,0:0|0:2|0:0,0:0:0:0:
376,128,23627,2,0,L|464:128,2,81.6000004980469,8|8|8,0:2|0:0|0:0,0:0:0:0:
280,128,24572,1,8,0:2:0:0:
176,128,24808,6,0,L|232:128,2,54.4000003320313,8|8|8,0:0|0:2|0:0,0:0:0:0:
80,128,25517,2,0,L|24:128,2,54.4000003320313,8|8|8,0:2|0:0|0:2,0:0:0:0:
184,128,26225,1,8,0:0:0:0:
400,128,26462,6,0,P|456:184|400:224,1,160,4|8,0:0|0:2,0:0:0:0:
304,224,27879,1,8,0:2:0:0:
112,128,28351,6,0,P|56:184|112:224,1,160,4|8,0:0|0:2,0:0:0:0:
208,224,29768,1,8,0:2:0:0:
400,192,30241,6,0,L|240:192,1,160,4|8,0:0|0:2,0:0:0:0:
120,192,31659,1,8,0:2:0:0:
296,256,32131,6,0,L|360:256,2,60,4|4|4,0:0|0:0|0:0,0:0:0:0:
192,192,33076,1,8,0:0:0:0:
256,192,33312,1,8,0:0:0:0:
336,192,33548,1,8,0:0:0:0:
432,192,33785,1,8,0:0:0:0:
208,192,34021,6,0,L|80:192,2,120.000004577637,4|8|8,0:0|0:2|0:2,0:0:0:0:
336,192,35438,1,8,0:2:0:0:
488,192,35910,6,0,L|360:192,1,120.000004577637,4|8,0:0|0:2,0:0:0:0:
208,192,36855,2,0,L|328:192,1,120.000004577637,0|8,0:0|0:2,0:0:0:0:
168,192,37800,6,4,P|80:201|18:264,2,180.000006866455,4|0|0,0:0|0:0|0:0,0:0:0:0:
328,192,39690,6,4,P|415:201|477:264,2,180.000006866455,4|0|0,0:0|0:0|0:0,0:0:0:0:
216,192,41580,6,4,L|88:192,1,120
208,288,42288,2,4,L|336:288,1,120
448,288,42997,1,4,0:0:0:0:
256,192,43470,12,8,44414,0:0:0:0:
416,88,45359,6,0,P|472:144|416:200,1,160,4|8,0:0|0:2,0:0:0:0:
344,200,46068,1,8,0:0:0:0:
240,200,46304,2,0,L|160:200,1,80,8|8,0:2|0:0,0:0:0:0:
56,288,46777,2,0,L|136:288,1,80,8|8,0:2|0:0,0:0:0:0:
256,288,47249,6,0,L|336:288,1,80,8|8,0:2|0:0,0:0:0:0:
256,288,47603,2,0,P|224:272|200:232,2,80,0|8|0,0:0|0:0|0:0,0:0:0:0:
296,288,48194,1,8,0:2:0:0:
424,248,48430,2,0,L|496:192,1,80,8|8,0:0|0:2,0:0:0:0:
400,152,48903,1,8,0:0:0:0:
184,144,49139,6,0,P|104:144|48:200,1,160,4|8,0:0|0:2,0:0:0:0:
144,232,49847,1,8,0:0:0:0:
248,232,50084,2,0,L|328:232,1,80,8|8,0:2|0:0,0:0:0:0:
424,232,50556,2,0,L|360:168,1,80,8|8,0:2|0:0,0:0:0:0:
168,176,51029,6,4,P|88:152|56:120,2,120
288,176,51973,2,0,L|368:176,1,80,8|8,0:2|0:0,0:0:0:0:
280,176,52446,2,0,L|197:174,1,80,8|8,0:2|0:0,0:0:0:0:
400,128,52918,6,0,P|464:184|448:264,1,160,4|8,0:0|0:2,0:0:0:0:
352,256,53627,1,8,0:0:0:0:
240,256,53863,2,0,L|160:256,1,80,8|8,0:2|0:0,0:0:0:0:
80,256,54336,2,0,L|160:256,1,80,8|8,0:2|0:0,0:0:0:0:
264,256,54808,6,0,L|304:184,1,80,8|8,0:2|0:0,0:0:0:0:
200,184,55281,2,0,L|160:112,1,80,8|8,0:2|0:0,0:0:0:0:
288,184,55753,2,0,L|368:184,1,80,8|8,0:2|0:0,0:0:0:0:
448,184,56225,2,0,L|368:184,1,80,8|8,0:2|0:0,0:0:0:0:
168,272,56698,6,0,P|136:224|184:176,1,120,4|8,0:0|0:0,0:0:0:0:
248,176,57288,1,8,0:2:0:0:
368,272,57525,2,0,P|400:224|352:176,1,120,4|8,0:0|0:0,0:0:0:0:
280,176,58115,2,0,L|200:176,1,80,0|8,0:0|0:0,0:0:0:0:
400,176,58588,6,0,L|496:104,2,120,4|4|4,0:0|0:0|0:0,0:0:0:0:
272,272,59533,2,0,L|216:216,1,80,8|8,0:2|0:0,0:0:0:0:
320,176,60005,2,0,L|400:176,1,80,8|8,0:2|0:0,0:0:0:0:
224,40,60477,6,4,P|200:104|280:144,1,160,4|8,0:0|0:2,0:0:0:0:
352,152,61186,1,8,0:0:0:0:
424,192,61422,1,8,0:2:0:0:
448,272,61659,1,8,0:0:0:0:
416,344,61895,1,8,0:2:0:0:
336,368,62131,1,8,0:0:0:0:
224,344,62367,6,0,P|208:296|208:254,1,80,8|8,0:2|0:0,0:0:0:0:
296,232,62722,2,0,P|344:232|376:232,2,80,8|8|0,0:2|0:0|0:0,0:0:0:0:
232,231,63312,1,8,0:2:0:0:
96,232,63548,2,0,L|16:232,2,80,8|8|8,0:0|0:2|0:0,0:0:0:0:
304,144,64257,6,0,P|352:232|312:272,1,160,4|8,0:0|0:2,0:0:0:0:
208,248,64966,1,8,0:0:0:0:
136,176,65202,1,8,0:2:0:0:
168,88,65438,1,8,0:0:0:0:
248,48,65674,1,8,0:2:0:0:
344,64,65910,1,8,0:0:0:0:
136,176,66147,6,0,P|56:192|16:232,2,120,4|4|4,0:0|0:0|0:0,0:0:0:0:
336,48,67328,2,0,L|424:48,2,80,8|8|8,0:0|0:2|0:0,0:0:0:0:
136,48,68036,6,0,P|56:80|88:128,1,160,4|8,0:0|0:2,0:0:0:0:
168,128,68745,1,8,0:0:0:0:
288,64,68981,2,0,P|368:64|424:120,1,160,8|8,0:2|0:2,0:0:0:0:
336,144,69690,1,8,0:0:0:0:
208,128,69926,6,0,L|128:128,1,80,4|8,0:0|0:0,0:0:0:0:
232,144,70399,2,0,L|312:144,1,80,8|8,0:2|0:0,0:0:0:0:
112,104,70871,2,0,P|64:176|112:240,1,160,4|8,0:0|0:2,0:0:0:0:
200,288,71580,1,8,0:0:0:0:
384,152,71816,6,0,P|408:200|384:272,1,120,4|8,0:0|0:0,0:0:0:0:
296,264,72407,1,8,0:2:0:0:
82,212,72643,2,0,P|119:176|191:160,1,120,4|8,0:0|0:0,0:0:0:0:
263,159,73233,2,0,L|175:159,1,80,0|8,0:0|0:0,0:0:0:0:
400,240,73706,6,4,P|455:216|494:171,2,120
280,216,74651,2,0,P|311:191|349:177,1,80,8|8,0:2|0:0,0:0:0:0:
424,272,75123,2,0,P|393:247|356:233,1,80,8|8,0:2|0:0,0:0:0:0:
136,232,75596,6,4,P|81:207|42:162,2,120
264,232,76540,2,0,P|304:216|343:180,1,80,8|8,0:2|0:0,0:0:0:0:
304,80,77013,2,0,P|272:104|235:119,1,80,8|8,0:2|0:0,0:0:0:0:
16,176,77485,6,0,P|96:160|176:176,1,160,4|8,0:0|0:2,0:0:0:0:
280,200,78194,1,8,0:0:0:0:
128,160,78430,2,0,P|72:216|120:264,1,160,4|8,0:0|0:2,0:0:0:0:
284,200,79139,2,8,L|328:240,1,60.0000022888184
120,104,79611,5,8,0:0:0:0:
192,176,79847,1,8,0:0:0:0:
104,104,80084,1,8,0:0:0:0:
208,176,80320,1,8,0:0:0:0:
88,104,80556,1,8,0:0:0:0:
224,176,80792,1,8,0:0:0:0:
488,192,81265,6,0,P|432:248|352:264,1,160,4|8,0:0|0:2,0:0:0:0:
248,264,81973,1,8,0:0:0:0:
355,264,82210,2,4,L|440:216,1,80,4|8,0:0|0:0,0:0:0:0:
408,160,82564,2,0,L|320:160,1,80,8|8,0:2|0:0,0:0:0:0:
120,160,83036,6,0,B|64:160|64:160|144:160,1,120,4|8,0:0|0:0,0:0:0:0:
224,160,83627,1,8,0:2:0:0:
352,224,83863,1,8,0:0:0:0:
408,224,83981,2,0,P|440:176|400:136,1,120,4|8,0:0|0:0,0:0:0:0:
320,136,84572,1,8,0:2:0:0:
112,248,84808,6,0,B|56:168|56:168|104:112,1,160,12|8,0:0|0:0,0:0:0:0:
200,120,85517,1,8,0:2:0:0:
344,120,85753,1,8,0:0:0:0:
400,136,85871,2,0,P|432:176|392:232,1,120,4|8,0:0|0:0,0:0:0:0:
305,231,86462,1,8,0:0:0:0:
105,231,86698,6,0,P|65:95|249:87,1,360.000013732911,4|0,0:0|0:0,0:0:0:0:
