osu file format v14

[General]
AudioFilename: audio.mp3
AudioLeadIn: 0
PreviewTime: 44592
Countdown: 0
SampleSet: Normal
StackLeniency: 0.7
Mode: 2
LetterboxInBreaks: 0
WidescreenStoryboard: 0

[Editor]
DistanceSpacing: 1.7
BeatDivisor: 4
GridSize: 8
TimelineZoom: 3.699999

[Metadata]
Title:XY&Z
TitleUnicode:XY&Z
Artist:Satoshi (CV:Matsumoto Rica)
ArtistUnicode:サトシ(CV:松本 梨香)
Creator:rew0825
Version:Rain
Source:ポケットモンスターXY&Z
Tags:xy and z xerneas yveltal zygarde opening tv size ash ketchum pokemon pokémon pocket monsters ジガルデ rika 佐香智久 xyz tomohisa Xinely Greninja
BeatmapID:951821
BeatmapSetID:442618

[Difficulty]
HPDrainRate:6
CircleSize:4
OverallDifficulty:9
ApproachRate:9
SliderMultiplier:1.6
SliderTickRate:1

[Events]
//Background and Video events
0,0,"BG.jpg",0,0
//Break Periods
//Storyboard Layer 0 (Background)
//Storyboard Layer 1 (Fail)
//Storyboard Layer 2 (Pass)
//Storyboard Layer 3 (Foreground)
//Storyboard Sound Samples

[TimingPoints]
478,236.220472440945,4,1,1,50,1,0
832,-90.9090909090909,4,1,1,50,0,0
1186,-83.3333333333333,4,1,1,50,0,0
1540,-76.9230769230769,4,1,1,50,0,0
1895,-100,4,1,1,50,0,0
2722,-90.9090909090909,4,1,1,50,0,0
3076,-100,4,1,1,50,0,0
3312,-133.333333333333,4,1,1,50,0,0
3666,-100,4,1,1,50,0,0
3785,236.220472440945,4,1,1,60,1,0
11344,-100,4,1,1,50,0,0
15123,-148.148148148148,4,1,1,40,0,0
18903,-100,4,1,1,50,0,0
22682,-147.058823529412,4,1,1,40,0,0
26462,-200,4,1,1,40,0,0
34021,-133.333333333333,4,1,1,50,0,0
41580,-100,4,1,1,60,0,0
45359,-100,4,1,1,70,0,1
60477,-100,4,1,1,60,0,0
68036,-100,4,1,1,70,0,1
86698,-86.9565217391304,4,1,1,60,0,0
87407,-100,4,1,1,30,0,0

[Colours]
Combo1 : 255,128,128
Combo2 : 60,157,255
Combo3 : 0,80,176
Combo4 : 255,72,164

[HitObjects]
64,72,477,6,0,L|224:72,1,160,4|8,0:0|0:2,0:0:0:0:
320,152,832,2,0,L|144:152,1,176.000005371094,4|8,0:0|0:2,0:0:0:0:
64,232,1186,2,0,L|256:232,1,191.999994140625,4|8,0:0|0:2,0:0:0:0:
352,312,1540,6,0,L|136:312,1,207.999990478516,4|8,0:0|0:2,0:0:0:0:
336,312,1895,2,0,L|424:312,1,80,4|8,0:0|0:2,0:0:0:0:
336,312,2131,2,0,L|256:312,1,80,4|8,0:0|0:2,0:0:0:0:
432,312,2367,6,0,L|496:264,2,80,4|0|8,0:0|0:0|0:2,0:0:0:0:
248,312,2722,2,0,L|176:256,2,88.000002685547,4|0|8,0:0|0:0|0:2,0:0:0:0:
432,312,3076,2,0,L|400:232,1,80,4|8,0:0|0:2,0:0:0:0:
128,312,3312,6,0,B|40:312|40:312|136:312,1,180.000006866455,4|0,0:0|0:0,0:0:0:0:
408,312,3785,6,0,B|488:312|488:312|384:312,1,160,4|8,0:0|0:0,0:0:0:0:
160,240,4257,1,8,0:2:0:0:
88,176,4375,1,0,0:0:0:0:
168,120,4493,1,8,0:0:0:0:
384,130,4611,2,0,P|440:186|384:242,1,160,4|0,0:0|0:0,0:0:0:0:
184,128,4966,5,8,0:0:0:0:
136,168,5084,1,0,0:0:0:0:
120,232,5202,1,8,0:2:0:0:
152,288,5320,1,0,0:0:0:0:
208,312,5438,1,8,0:0:0:0:
280,312,5556,1,0,0:0:0:0:
64,304,5674,6,0,P|96:248|192:216,1,160,4|8,0:0|0:0,0:0:0:0:
376,96,6147,1,8,0:2:0:0:
456,144,6265,1,0,0:0:0:0:
384,192,6383,1,8,0:0:0:0:
128,96,6501,2,0,P|72:152|128:208,1,160,4|0,0:0|0:0,0:0:0:0:
320,96,6855,5,8,0:0:0:0:
360,144,6974,1,0,0:0:0:0:
352,208,7092,1,8,0:2:0:0:
312,248,7210,1,0,0:0:0:0:
256,264,7328,1,8,0:0:0:0:
192,256,7446,1,0,0:0:0:0:
456,120,7564,6,0,P|424:192|349:207,1,160,4|8,0:0|0:0,0:0:0:0:
152,144,8036,1,8,0:2:0:0:
80,192,8155,1,0,0:0:0:0:
152,240,8273,1,8,0:0:0:0:
351,239,8391,2,4,P|400:192|336:144,1,160,4|0,0:0|0:0,0:0:0:0:
112,240,8745,5,8,0:0:0:0:
64,208,8863,1,0,0:0:0:0:
48,152,8981,1,8,0:2:0:0:
72,104,9099,1,0,0:0:0:0:
120,72,9218,1,8,0:0:0:0:
176,64,9336,1,0,0:0:0:0:
376,192,9454,5,4,0:0:0:0:
440,192,9572,1,0,0:0:0:0:
400,192,9690,1,8,0:0:0:0:
296,192,9808,1,4,0:0:0:0:
232,192,9926,1,0,0:0:0:0:
272,192,10044,1,8,0:0:0:0:
392,264,10163,5,4,0:0:0:0:
440,240,10281,1,0,0:0:0:0:
464,192,10399,1,8,0:0:0:0:
280,264,10517,1,4,0:0:0:0:
232,240,10635,1,0,0:0:0:0:
216,192,10753,1,8,0:0:0:0:
408,144,10871,5,4,0:0:0:0:
464,192,10989,1,0,0:0:0:0:
408,240,11107,1,8,0:0:0:0:
344,256,11225,1,8,0:0:0:0:
168,96,11344,6,4,P|120:152|184:192,1,160,4|8,0:0|0:0,0:0:0:0:
344,96,11816,2,4,P|392:160|328:192,1,160,8|8,0:2|0:0,0:0:0:0:
160,192,12288,2,8,P|192:216|312:216,1,160,8|8,0:2|0:0,0:0:0:0:
384,192,12643,2,0,P|352:216|232:216,1,160
152,192,12997,1,8,0:0:0:0:
392,128,13233,6,0,P|379:193|275:217,1,160,8|8,0:2|0:0,0:0:0:0:
120,128,13706,2,0,P|133:193|237:217,1,160,8|8,0:2|0:0,0:0:0:0:
382,217,14178,1,8,0:2:0:0:
414,169,14296,1,0,0:0:0:0:
390,121,14414,1,8,0:0:0:0:
336,112,14533,1,0,0:0:0:0:
216,112,14651,2,0,P|168:152|224:216,1,160,8|8,0:2|0:0,0:0:0:0:
296,216,15005,1,0,0:0:0:0:
472,216,15123,5,4,0:0:0:0:
320,152,15359,2,0,L|208:152,2,108.000000411987,8|8|8,0:0|0:2|0:0,0:0:0:0:
160,152,16068,2,0,P|216:208|296:216,2,162.000000617981,8|8|8,0:2|0:0|0:0,0:0:0:0:
320,152,17013,6,0,L|432:152,1,108.000000411987,8|8,0:2|0:0,0:0:0:0:
264,152,17485,2,0,P|208:152|168:184,1,108.000000411987,8|8,0:2|0:0,0:0:0:0:
288,152,17958,2,0,P|344:152|384:120,1,108.000000411987,8|8,0:2|0:0,0:0:0:0:
216,304,18430,1,8,0:2:0:0:
160,304,18548,1,8,0:2:0:0:
112,304,18666,1,8,0:0:0:0:
168,304,18785,1,8,0:0:0:0:
392,128,18903,6,0,P|379:193|275:217,1,160,4|8,0:0|0:0,0:0:0:0:
120,128,19376,2,0,P|133:193|237:217,1,160,8|8,0:2|0:0,0:0:0:0:
368,192,19847,2,0,P|312:248|232:256,1,160,8|8,0:2|0:0,0:0:0:0:
144,256,20202,2,0,P|200:312|280:320,1,160,8|0,0:2|0:0,0:0:0:0:
368,192,20556,1,8,0:0:0:0:
160,96,20792,6,0,P|112:152|168:192,1,160,8|8,0:2|0:0,0:0:0:0:
352,96,21265,2,0,P|400:152|344:192,1,160,8|8,0:2|0:0,0:0:0:0:
168,192,21737,2,0,P|112:136|176:72,1,160,8|8,0:2|0:0,0:0:0:0:
224,56,22092,1,0,0:0:0:0:
344,80,22209,2,0,P|400:136|336:200,1,160,8|8,0:2|0:0,0:0:0:0:
288,216,22564,1,0,0:0:0:0:
112,216,22682,5,4,0:0:0:0:
248,168,22918,2,0,L|368:168,2,108.800000664063,8|8|8,0:0|0:2|0:0,0:0:0:0:
384,168,23627,2,0,P|456:192|488:272,2,163.200000996094,8|8|8,0:2|0:0|0:0,0:0:0:0:
224,168,24572,6,0,L|148:92,1,108.800000664063,8|8,0:2|0:0,0:0:0:0:
312,248,25044,2,0,L|389:172,1,108.800000664063,8|8,0:2|0:0,0:0:0:0:
160,200,25517,2,0,L|104:200,1,54.4000003320313,0|8,0:0|0:3,0:0:0:0:
128,232,25694,1,8,0:3:0:0:
160,256,25753,6,0,L|224:256,1,54.4000003320313,8|8,0:3|0:3,0:0:0:0:
422,152,25989,2,0,L|350:152,1,54.4000003320313,8|0,0:3|0:2,0:0:0:0:
184,168,26225,2,8,L|128:168,1,54.4000003320313,8|0,0:3|0:0,0:0:0:0:
347,168,26462,6,0,L|427:168,1,80,4|8,0:0|0:0,0:0:0:0:
184,168,26816,2,0,L|104:168,2,80,0|8|8,0:0|0:2|0:0,0:0:0:0:
368,168,27643,1,8,0:0:0:0:
424,168,27761,1,0,0:0:0:0:
184,168,27879,2,0,L|96:168,1,80,8|8,0:2|0:0,0:0:0:0:
160,168,28233,1,0,0:0:0:0:
368,168,28351,6,0,L|448:168,1,80,4|8,0:0|0:0,0:0:0:0:
288,208,28824,2,0,L|208:208,1,80,0|8,0:0|0:0,0:0:0:0:
64,296,29296,2,0,L|152:296,1,80,0|8,0:0|0:0,0:0:0:0:
204,296,29651,2,0,L|116:296,1,80
64,296,30005,1,8,0:0:0:0:
440,280,30241,6,0,L|480:208,1,80,4|8,0:0|0:0,0:0:0:0:
416,208,30596,2,0,L|376:136,1,80
64,128,31068,2,0,L|32:207,1,80,8|0,0:0|0:0,0:0:0:0:
104,224,31422,5,8,0:0:0:0:
168,264,31540,1,0,0:0:0:0:
200,328,31659,1,8,0:0:0:0:
168,264,31777,1,0,0:0:0:0:
104,224,31895,1,8,0:0:0:0:
32,208,32013,1,0,0:0:0:0:
312,208,32131,5,4,0:0:0:0:
384,144,32367,1,8,0:0:0:0:
120,144,32485,1,4,0:0:0:0:
56,96,32722,1,8,0:0:0:0:
312,96,32840,1,4,0:0:0:0:
360,208,33076,5,8,0:3:0:0:
328,208,33135,1,8,0:3:0:0:
296,208,33194,1,8,0:3:0:0:
200,64,33312,1,8,0:3:0:0:
120,96,33430,1,0,0:0:0:0:
88,176,33548,1,8,0:0:0:0:
112,272,33666,1,0,0:0:0:0:
176,336,33784,1,8,0:0:0:0:
256,344,33903,1,0,0:0:0:0:
494,244,34021,6,0,P|450:205|392:208,1,120.000004577637,4|8,0:0|0:0,0:0:0:0:
208,240,34493,2,0,P|256:205|315:207,1,120.000004577637,8|8,0:2|0:0,0:0:0:0:
376,216,34847,1,0,0:0:0:0:
251,215,34966,6,0,L|195:191,2,60.0000022888184,0|0|8,0:2|0:0|0:0,0:0:0:0:
448,88,35438,1,0,0:0:0:0:
480,136,35556,1,0,0:0:0:0:
464,192,35674,1,8,0:0:0:0:
408,216,35792,1,0,0:0:0:0:
96,184,35910,6,0,P|140:145|198:148,1,120.000004577637,4|8,0:0|0:0,0:0:0:0:
382,180,36382,2,0,P|334:145|275:147,1,120.000004577637,8|8,0:2|0:0,0:0:0:0:
216,152,36736,1,0,0:0:0:0:
339,155,36855,2,0,L|395:131,2,60.0000022888184,0|0|8,0:2|0:0|0:0,0:0:0:0:
128,208,37328,1,0,0:0:0:0:
96,256,37446,1,0,0:0:0:0:
112,312,37564,1,8,0:0:0:0:
168,336,37682,1,0,0:0:0:0:
464,186,37800,6,0,P|416:234|304:250,2,180.000006866455,4|4|4,0:0|0:0|0:0,0:0:0:0:
248,176,38745,2,0,B|192:160|144:104,1,120.000004577637,8|8,0:2|0:0,0:0:0:0:
360,112,39218,1,8,0:2:0:0:
400,168,39336,1,0,0:0:0:0:
376,232,39454,1,8,0:0:0:0:
312,256,39572,1,0,0:0:0:0:
47,185,39690,6,0,P|114:242|203:251,2,180.000006866455,4|4|8,0:0|0:0|0:0,0:0:0:0:
232,248,40635,2,0,P|296:248|360:224,1,120.000004577637,8|8,0:2|0:0,0:0:0:0:
160,96,41107,1,8,0:2:0:0:
120,152,41225,1,0,0:0:0:0:
144,216,41343,1,8,0:0:0:0:
208,240,41461,1,0,0:0:0:0:
464,184,41580,6,0,P|406:236|328:241,1,160,4|8,0:0|0:0,0:0:0:0:
224,184,41934,2,0,P|282:236|360:241,1,160,4|0,0:0|0:0,0:0:0:0:
456,216,42288,2,0,P|398:268|320:273,1,160,4|0,0:0|0:0,0:0:0:0:
216,224,42643,2,0,P|274:276|352:281,1,160,4|0,0:0|0:0,0:0:0:0:
456,88,42997,5,4,0:0:0:0:
488,160,43115,1,0,0:0:0:0:
456,240,43233,1,8,0:0:0:0:
376,264,43351,1,0,0:0:0:0:
141,215,43470,1,4,0:0:0:0:
256,192,43706,12,8,44414,0:0:0:0:
376,192,45359,6,0,P|298:183|242:127,1,160,4|8,0:0|0:0,0:0:0:0:
168,144,45714,1,0,0:0:0:0:
243,128,45832,1,8,0:2:0:0:
320,112,45950,1,0,0:0:0:0:
496,112,46068,1,8,0:0:0:0:
424,128,46186,1,0,0:0:0:0:
181,144,46304,6,0,L|112:192,1,80,8|0,0:2|0:0,0:0:0:0:
77,240,46540,2,0,L|133:296,1,80,8|0,0:0|0:0,0:0:0:0:
336,168,46777,2,0,L|401:217,1,80,8|0,0:2|0:0,0:0:0:0:
432,264,47013,2,0,L|376:320,1,80,8|0,0:0|0:0,0:0:0:0:
133,296,47249,6,0,P|77:240|69:160,1,160,8|8,0:2|0:0,0:0:0:0:
327,263,47603,2,0,P|384:232|424:136,2,160,0|8|0,0:0|0:0|0:0,0:0:0:0:
208,208,48194,6,0,P|152:152|208:96,1,160,8|8,0:2|0:0,0:0:0:0:
256,96,48548,1,0,0:0:0:0:
376,232,48666,2,0,P|432:176|376:120,1,160,8|8,0:2|0:0,0:0:0:0:
328,112,49021,1,0,0:0:0:0:
96,56,49139,6,0,P|64:120|128:168,1,160,4|8,0:0|0:0,0:0:0:0:
288,168,49611,1,8,0:2:0:0:
376,184,49729,1,0,0:0:0:0:
416,248,49847,1,8,0:0:0:0:
352,304,49965,1,0,0:0:0:0:
176,208,50084,5,8,0:2:0:0:
88,224,50202,1,0,0:0:0:0:
48,288,50320,1,8,0:0:0:0:
112,344,50438,1,0,0:0:0:0:
384,208,50556,1,8,0:2:0:0:
448,256,50674,1,0,0:0:0:0:
400,320,50792,1,8,0:0:0:0:
320,320,50910,1,0,0:0:0:0:
96,240,51029,6,0,P|104:160|176:136,1,160,4|8,0:0|0:0,0:0:0:0:
272,136,51383,2,0,P|368:144|416:224,1,160,4|8,0:0|0:0,0:0:0:0:
224,240,51737,2,0,P|154:271|150:347,1,160,4|8,0:0|0:0,0:0:0:0:
272,352,52092,6,0,P|344:344|392:272,1,160,4|8,0:0|0:0,0:0:0:0:
208,144,52446,1,8,0:0:0:0:
128,168,52564,1,8,0:0:0:0:
88,240,52682,1,8,0:0:0:0:
136,304,52800,1,8,0:0:0:0:
392,168,52918,6,0,P|432:224|344:264,1,160,4|8,0:0|0:0,0:0:0:0:
160,176,53391,2,0,P|120:232|208:272,1,160,8|8,0:2|0:0,0:0:0:0:
272,280,53745,1,0,0:0:0:0:
472,304,53863,2,0,P|438:240|358:232,1,160,8|8,0:2|0:0,0:0:0:0:
168,88,54336,2,0,P|93:100|63:171,1,160,8|8,0:2|0:0,0:0:0:0:
136,208,54690,1,0,0:0:0:0:
408,112,54808,5,8,0:2:0:0:
472,168,54926,1,0,0:0:0:0:
448,248,55044,1,8,0:0:0:0:
368,272,55162,1,0,0:0:0:0:
168,272,55281,1,8,0:2:0:0:
104,216,55399,1,0,0:0:0:0:
128,136,55517,1,8,0:0:0:0:
208,112,55635,1,0,0:0:0:0:
408,112,55753,6,0,P|464:168|400:224,1,160,8|8,0:2|0:0,0:0:0:0:
336,232,56107,1,0,0:0:0:0:
216,120,56225,2,0,P|160:176|224:232,1,160,8|8,0:2|0:0,0:0:0:0:
288,240,56579,1,0,0:0:0:0:
488,240,56698,6,0,P|472:304|384:336,1,160,4|8,0:0|0:0,0:0:0:0:
163,204,57052,2,0,P|105:148|161:92,1,160
200,104,57407,1,8,0:0:0:0:
400,237,57525,6,0,P|456:181|400:125,1,160,4|0,0:0|0:0,0:0:0:0:
200,104,57879,2,0,L|120:112,1,80,8|0,0:0|0:0,0:0:0:0:
96,128,58115,2,0,L|152:184,1,80,8|0,0:2|0:0,0:0:0:0:
392,184,58351,2,0,L|336:128,1,80,8|0,0:0|0:0,0:0:0:0:
153,184,58588,6,0,P|112:248|176:280,1,160,4|8,0:0|0:0,0:0:0:0:
288,280,58942,2,0,P|347:239|304:182,1,160,4|8,0:0|0:0,0:0:0:0:
200,184,59296,2,4,P|272:144|344:160,1,160,4|8,0:0|0:2,0:0:0:0:
400,184,59651,1,0,0:0:0:0:
416,240,59769,1,8,0:0:0:0:
352,264,59887,1,0,0:0:0:0:
128,304,60005,6,8,L|104:256,4,53.3333333333333,8|8|8|8|0,0:3|0:3|0:3|0:3|0:0,0:3:0:0:
384,88,60477,6,0,P|440:144|392:192,1,160,4|0,0:0|0:0,0:0:0:0:
264,192,60950,1,8,1:0:0:0:
104,192,61186,1,0,1:0:0:0:
184,192,61304,1,8,0:0:0:0:
344,192,61540,1,8,1:0:0:0:
264,192,61659,1,0,0:0:0:0:
104,264,61895,1,8,1:0:0:0:
184,264,62013,1,0,0:0:0:0:
264,264,62131,1,8,1:0:0:0:
184,264,62249,1,8,1:0:0:0:
104,264,62367,6,0,P|160:208|240:192,1,160,8|0,0:0|0:0,0:0:0:0:
416,264,62722,2,0,P|476:184|420:152,1,160,8|8,0:0|0:0,0:0:0:0:
360,144,63076,1,0,0:0:0:0:
160,192,63194,2,0,L|74:193,1,80,8|0,0:0|0:0,0:0:0:0:
162,193,63430,1,8,0:0:0:0:
336,192,63666,1,0,0:0:0:0:
416,192,63785,2,0,P|464:248|416:304,1,160,8|0,1:0|0:0,0:0:0:0:
336,304,64139,1,0,0:0:0:0:
134,302,64257,6,0,P|88:246|137:191,1,160,4|0,0:0|0:0,0:0:0:0:
336,192,64729,2,0,P|382:135|333:80,1,160,8|0,0:0|0:0,0:0:0:0:
256,80,65084,1,8,0:0:0:0:
96,80,65320,1,8,1:0:0:0:
176,80,65438,1,0,0:0:0:0:
336,248,65674,1,8,1:0:0:0:
256,248,65792,1,0,0:0:0:0:
176,248,65910,1,8,1:0:0:0:
256,248,66029,1,8,1:0:0:0:
456,152,66147,6,4,L|256:288,2,240
216,112,67328,1,8,0:0:0:0:
383,192,67564,2,0,L|324:245,1,80,8|0,0:0|0:0,0:0:0:0:
128,168,67800,2,0,L|184:112,1,80,8|0,0:0|0:0,0:0:0:0:
384,192,68036,6,0,P|440:248|384:304,1,160,4|8,0:0|0:0,0:0:0:0:
256,216,68509,1,8,0:2:0:0:
123,151,68745,2,0,L|216:152,1,80,8|0,0:0|0:0,0:0:0:0:
256,152,68981,2,0,L|177:152,1,80,8|0,0:2|0:0,0:0:0:0:
64,208,69218,6,0,P|120:264|200:272,1,160,8|8,0:0|0:2,0:0:0:0:
272,264,69572,1,0,0:0:0:0:
320,200,69690,1,8,0:0:0:0:
256,152,69808,1,0,0:0:0:0:
64,208,69926,6,0,P|64:280|128:344,1,160,4|8,0:0|0:0,0:0:0:0:
419,339,70399,2,0,P|419:267|360:208,1,160,0|8,0:0|0:0,0:0:0:0:
296,200,70753,1,0,0:0:0:0:
120,160,70871,6,0,P|64:216|120:272,1,160,4|8,0:0|0:0,0:0:0:0:
159,271,71225,1,0,0:0:0:0:
347,320,71344,2,0,P|403:264|347:208,1,160,8|8,0:2|0:0,0:0:0:0:
296,200,71698,1,0,0:0:0:0:
112,208,71816,6,0,P|80:289|160:321,1,160,4|8,0:0|0:0,0:0:0:0:
383,325,72170,2,0,P|436:272|400:208,1,160,0|8,0:0|0:0,0:0:0:0:
96,160,72643,2,0,P|32:232|128:312,1,240,8|8,0:2|0:0,0:0:0:0:
328,304,73233,2,0,P|368:243|313:195,1,160,8|8,0:2|0:0,0:0:0:0:
232,192,73588,1,0,0:0:0:0:
448,128,73706,6,0,P|392:184|312:192,1,160,4|8,0:0|0:0,0:0:0:0:
208,192,74060,2,0,P|136:208|96:288,1,160,4|8,0:0|0:0,0:0:0:0:
314,192,74414,2,0,P|370:248|314:304,1,160,4|8,0:0|0:0,0:0:0:0:
208,192,74768,2,0,P|152:248|208:304,1,160,4|8,0:0|0:2,0:0:0:0:
384,288,75123,5,8,0:0:0:0:
448,240,75241,1,0,0:0:0:0:
416,176,75359,1,8,0:0:0:0:
336,160,75477,1,0,0:0:0:0:
96,128,75596,6,0,P|152:184|232:192,1,160,4|8,0:0|0:0,0:0:0:0:
336,192,75950,2,0,P|408:208|448:288,1,160,4|8,0:0|0:0,0:0:0:0:
229,192,76304,2,0,P|173:248|229:304,1,160,4|8,0:0|0:0,0:0:0:0:
336,192,76658,2,0,P|392:248|336:304,1,160,4|8,0:0|0:2,0:0:0:0:
144,304,77013,5,8,0:0:0:0:
80,256,77131,1,0,0:0:0:0:
112,192,77249,1,8,0:0:0:0:
192,176,77367,1,0,0:0:0:0:
384,176,77485,6,0,P|448:208|416:288,1,160,4|8,0:0|0:0,0:0:0:0:
176,224,77958,2,0,P|112:192|144:112,1,160,8|8,0:2|0:0,0:0:0:0:
320,112,78430,2,0,P|336:176|256:224,1,160,4|8,0:0|0:0,0:0:0:0:
176,224,78785,2,0,P|120:168|176:112,1,160
272,104,79139,1,8,0:0:0:0:
457,250,79257,6,0,P|419:189|323:173,1,160,4|0,0:0|0:0,0:0:0:0:
104,224,79611,2,0,L|48:280,1,80,8|0,0:0|0:0,0:0:0:0:
337,169,79847,1,8,0:2:0:0:
409,193,79966,1,0,0:0:0:0:
449,257,80084,1,8,0:0:0:0:
417,329,80202,1,0,0:0:0:0:
96,328,80320,5,8,0:2:0:0:
64,256,80438,1,0,0:0:0:0:
104,192,80556,1,8,0:0:0:0:
176,168,80675,1,0,0:0:0:0:
368,240,80792,2,0,L|424:184,1,80,8|8,0:0|0:0,0:0:0:0:
328,152,81029,1,8,0:0:0:0:
288,136,81088,1,8,0:0:0:0:
248,120,81147,1,8,0:0:0:0:
64,232,81265,6,0,P|120:288|200:296,1,160,4|8,0:0|0:0,0:0:0:0:
360,176,81737,2,0,P|304:232|224:240,1,160,8|8,0:2|0:0,0:0:0:0:
64,232,82210,2,0,P|120:176|200:176,1,160,8|8,0:2|0:0,0:0:0:0:
272,232,82564,2,0,P|216:176|136:176,1,160
64,232,82918,1,8,0:0:0:0:
352,176,83036,6,0,B|496:176|464:232|304:232,1,240,4|8,0:0|0:0,0:0:0:0:
168,232,83627,1,0,0:0:0:0:
352,176,83863,1,8,0:0:0:0:
152,176,83981,2,0,B|8:176|40:232|200:232,1,240,4|8,0:0|0:0,0:0:0:0:
352,296,84572,1,8,0:2:0:0:
416,232,84690,1,8,0:2:0:0:
176,232,84808,6,4,B|32:128|208:48|312:96,1,320,4|8,0:0|0:0,0:0:0:0:
464,96,85517,1,8,0:2:0:0:
312,96,85753,1,8,0:0:0:0:
112,96,85871,2,0,B|16:136|56:208|208:192,1,240,4|8,0:0|0:0,0:0:0:0:
368,192,86462,1,8,0:0:0:0:
160,344,86698,6,4,B|40:200|40:200|176:72|176:72|309:189,1,552.000010528565,4|0,0:0|0:0,0:0:0:0:
