osu file format v14

[General]
AudioFilename: audio.mp3
AudioLeadIn: 0
PreviewTime: 44592
Countdown: 0
SampleSet: Normal
StackLeniency: 0.7
Mode: 2
LetterboxInBreaks: 0
WidescreenStoryboard: 0

[Editor]
DistanceSpacing: 1.4
BeatDivisor: 4
GridSize: 8
TimelineZoom: 3.299999

[Metadata]
Title:XY&Z
TitleUnicode:XY&Z
Artist:Satoshi (CV:Matsumoto Rica)
ArtistUnicode:サトシ(CV:松本 梨香)
Creator:rew0825
Version:Platter
Source:ポケットモンスターXY&Z
Tags:xy and z xerneas yveltal zygarde opening tv size ash ketchum pokemon pokémon pocket monsters ジガルデ rika 佐香智久 xyz tomohisa Xinely Greninja
BeatmapID:951823
BeatmapSetID:442618

[Difficulty]
HPDrainRate:5
CircleSize:3.5
OverallDifficulty:8
ApproachRate:8
SliderMultiplier:1.2
SliderTickRate:1

[Events]
//Background and Video events
0,0,"BG.jpg",0,0
//Break Periods
//Storyboard Layer 0 (Background)
//Storyboard Layer 1 (Fail)
//Storyboard Layer 2 (Pass)
//Storyboard Layer 3 (Foreground)
//Storyboard Sound Samples

[TimingPoints]
478,236.220472440945,4,1,1,50,1,0
832,-90.9090909090909,4,1,1,50,0,0
1186,-83.3333333333333,4,1,1,50,0,0
1540,-76.9230769230769,4,1,1,50,0,0
1895,-100,4,1,1,50,0,0
2722,-90.9090909090909,4,1,1,50,0,0
3076,-83.3333333333333,4,1,1,50,0,0
3312,-100,4,1,1,50,0,0
3785,236.220472440945,4,1,1,60,1,0
11344,-100,4,1,1,50,0,0
15123,-148.148148148148,4,1,1,40,0,0
18903,-100,4,1,1,50,0,0
22682,-147.058823529412,4,1,1,40,0,0
26462,-200,4,1,1,40,0,0
34021,-133.333333333333,4,1,1,50,0,0
41580,-100,4,1,1,60,0,0
42643,-111.111111111111,4,1,1,60,0,0
42997,-100,4,1,1,60,0,0
45359,-100,4,1,1,70,0,1
60477,-100,4,1,1,60,0,0
68036,-100,4,1,1,70,0,1
79139,-66.6666666666667,4,1,1,70,0,1
79257,-100,4,1,1,70,0,1
86698,-66.6666666666667,4,1,1,60,0,0
87407,-100,4,1,1,30,0,0

[Colours]
Combo1 : 255,128,128
Combo2 : 60,157,255
Combo3 : 0,80,176
Combo4 : 255,72,164

[HitObjects]
64,72,477,6,0,L|152:160,1,120,4|8,0:0|0:0,0:0:0:0:
240,64,832,2,0,L|136:168,1,132.00000402832,4|8,0:0|0:0,0:0:0:0:
56,160,1186,2,0,L|160:264,1,143.999995605469,4|8,0:0|0:0,0:0:0:0:
256,152,1540,6,0,L|144:264,1,155.999992858887,4|8,0:0|0:0,0:0:0:0:
232,288,1895,1,4,0:0:0:0:
376,216,2131,2,0,L|312:216,1,60,8|8,0:0|0:0,0:0:0:0:
232,224,2367,6,0,L|360:224,1,120,4|8,0:0|0:0,0:0:0:0:
416,152,2722,2,0,L|272:152,1,132.00000402832,4|8,0:0|0:0,0:0:0:0:
352,152,3076,1,4,0:0:0:0:
416,152,3194,1,0,0:0:0:0:
472,152,3312,6,0,P|496:208|440:248,1,120,4|0,0:0|0:0,0:0:0:0:
136,144,3785,6,0,P|72:144|24:192,2,120,4|8|8,0:0|0:0|0:2,0:0:0:0:
328,288,4493,1,8,0:0:0:0:
304,242,4611,2,0,P|240:242|184:146,1,180,4|8,0:0|0:0,0:0:0:0:
240,160,5084,5,0,0:0:0:0:
280,192,5202,1,8,0:2:0:0:
296,248,5320,1,0,0:0:0:0:
280,304,5438,1,8,0:0:0:0:
63,151,5674,6,0,P|120:176|152:224,2,120,4|8|8,0:0|0:0|0:2,0:0:0:0:
400,296,6383,1,8,0:0:0:0:
384,248,6501,2,0,L|288:176,1,120,4|0,0:0|0:0,0:0:0:0:
240,192,6855,5,8,0:0:0:0:
208,232,6973,1,0,0:0:0:0:
216,288,7092,1,8,0:2:0:0:
256,320,7210,1,0,0:0:0:0:
312,320,7328,1,8,0:0:0:0:
464,184,7564,6,0,P|407:209|375:257,2,120,4|8|8,0:0|0:0|0:2,0:0:0:0:
136,184,8273,1,8,0:0:0:0:
80,184,8391,2,0,P|48:232|80:280,1,120,4|0,0:0|0:0,0:0:0:0:
136,280,8745,5,8,0:0:0:0:
168,240,8863,1,0,0:0:0:0:
168,184,8981,1,8,0:2:0:0:
136,136,9099,1,0,0:0:0:0:
80,120,9218,1,8,0:0:0:0:
400,96,9454,6,0,L|488:184,1,120,4|8,0:0|0:0,0:0:0:0:
400,184,9808,2,0,L|312:272,1,120,4|8,0:0|0:0,0:0:0:0:
232,264,10162,2,0,L|352:264,1,120,4|8,0:0|0:0,0:0:0:0:
264,328,10517,6,0,L|136:328,1,120,4|8,0:0|0:0,0:0:0:0:
240,280,10871,2,0,L|304:280,1,60,4|0,0:0|0:0,0:0:0:0:
360,280,11107,2,0,L|300:280,1,60,8|8,0:0|0:0,0:0:0:0:
120,280,11344,6,0,P|72:232|184:152,1,240,4|8,0:0|0:2,0:0:0:0:
296,144,12052,1,8,0:0:0:0:
77,98,12288,2,0,P|125:146|173:146,1,120,8|8,0:2|0:0,0:0:0:0:
293,144,12761,2,0,P|381:200|381:232,1,120,8|8,0:2|0:0,0:0:0:0:
312,272,13115,1,0,0:0:0:0:
240,280,13233,6,0,P|192:232|192:184,1,120,8|8,0:2|0:0,0:0:0:0:
312,183,13706,2,0,P|272:127|208:111,1,120,8|8,0:2|0:0,0:0:0:0:
104,112,14178,2,0,P|160:96|208:56,2,120,8|8|8,0:2|0:0|0:2,0:0:0:0:
288,184,14887,1,8,0:0:0:0:
328,184,15005,1,0,0:0:0:0:
112,184,15123,6,0,L|16:184,1,81.0000003089905,4|8,0:0|0:0,0:0:0:0:
112,184,15596,2,0,L|193:184,1,81.0000003089905,8|8,0:2|0:0,0:0:0:0:
384,184,16068,2,0,P|448:184|488:144,2,121.500000463486,8|8|8,0:2|0:0|0:0,0:0:0:0:
193,184,17013,6,0,L|112:184,1,81.0000003089905,8|8,0:2|0:0,0:0:0:0:
32,184,17485,2,0,L|128:184,1,81.0000003089905,8|8,0:2|0:0,0:0:0:0:
303,184,17958,2,0,L|391:184,2,81.0000003089905,8|8|8,0:2|0:0|0:2,0:0:0:0:
112,184,18666,1,8,0:0:0:0:
152,184,18785,1,0,0:0:0:0:
384,184,18903,6,0,P|431:232|415:280,1,120,4|8,0:0|0:0,0:0:0:0:
320,280,19375,2,0,L|200:280,1,120,8|8,0:2|0:0,0:0:0:0:
78,276,19847,2,0,P|67:220|112:184,1,120,8|8,0:2|0:0,0:0:0:0:
231,184,20320,2,0,L|351:184,1,120,8|8,0:2|0:0,0:0:0:0:
280,200,20674,1,0,0:0:0:0:
208,192,20792,6,8,P|152:176|96:144,1,120,8|8,0:2|0:0,0:0:0:0:
224,152,21265,2,0,L|344:152,1,120,8|8,0:2|0:0,0:0:0:0:
464,160,21737,2,8,P|408:144|352:112,2,120,8|8|8,0:2|0:0|0:2,0:0:0:0:
256,160,22446,1,8,0:0:0:0:
216,160,22564,1,0,0:0:0:0:
400,160,22682,6,4,L|488:160,1,81.6000004980469,4|8,0:0|0:0,0:0:0:0:
400,160,23155,2,0,L|312:160,1,81.6000004980469,8|8,0:2|0:0,0:0:0:0:
128,160,23627,2,0,P|72:160|16:200,2,122.40000074707,8|8|8,0:2|0:0|0:0,0:0:0:0:
320,160,24572,6,0,L|402:160,1,81.6000004980469,8|8,0:2|0:0,0:0:0:0:
480,160,25044,2,0,L|399:160,1,81.6000004980469,8|8,0:2|0:0,0:0:0:0:
184,160,25517,2,0,L|102:160,1,81.6000004980469,8|8,0:2|0:0,0:0:0:0:
20,160,25989,2,0,L|104:160,1,81.6000004980469,8|8,0:2|0:0,0:0:0:0:
400,184,26462,6,0,L|304:184,1,90,4|8,0:0|0:0,0:0:0:0:
216,184,27052,2,0,L|288:184,1,60,0|8,0:0|0:0,0:0:0:0:
400,184,27643,2,0,L|464:184,2,60,8|8|8,0:0|0:2|0:0,0:0:0:0:
224,184,28351,6,0,L|288:184,1,60,8|8,0:2|0:0,0:0:0:0:
376,224,28824,2,0,L|304:224,1,60,8|8,0:2|0:0,0:0:0:0:
240,184,29296,2,0,L|304:184,1,60,8|8,0:2|0:0,0:0:0:0:
368,184,29651,2,0,P|408:200|424:248,1,90,0|8,0:0|0:0,0:0:0:0:
128,184,30241,6,0,P|105:219|137:250,1,90,4|8,0:0|0:0,0:0:0:0:
232,248,30832,2,0,L|280:200,1,60,8|8,0:2|0:0,0:0:0:0:
136,200,31422,2,8,L|88:152,2,60,8|8|8,0:0|0:2|0:0,0:0:0:0:
344,200,32131,6,0,L|414:203,1,60,4|8,0:0|0:0,0:0:0:0:
328,248,32485,2,0,L|264:264,1,60,4|8,0:0|0:0,0:0:0:0:
184,264,32840,2,0,L|117:253,1,60,4|8,0:0|0:0,0:0:0:0:
96,216,33194,1,8,0:2:0:0:
80,160,33312,1,8,0:0:0:0:
96,112,33430,1,8,0:2:0:0:
133,77,33548,2,0,L|197:77,1,60,8|8,0:0|0:0,0:0:0:0:
496,192,34021,6,0,P|432:272|352:288,2,180.000006866455,4|8|8,0:0|0:2|0:2,0:0:0:0:
424,120,35202,1,8,0:0:0:0:
320,80,35438,1,8,0:2:0:0:
464,56,35674,1,8,0:0:0:0:
152,192,35910,6,0,P|64:120|32:56,2,180.000006866455,4|8|8,0:0|0:2|0:2,0:0:0:0:
240,224,37092,1,8,0:0:0:0:
280,304,37328,1,8,0:2:0:0:
128,328,37564,1,8,0:0:0:0:
431,192,37800,6,0,P|485:152|496:88,2,135.000005149841,4|8|8,0:0|0:2|0:2,0:0:0:0:
336,192,38745,2,0,L|246:192,1,90.0000034332277,8|8,0:2|0:0,0:0:0:0:
336,192,39218,2,0,L|426:192,1,90.0000034332277,0|8,0:0|0:0,0:0:0:0:
127,271,39690,6,0,P|65:249|32:192,2,135.000005149841,4|8|8,0:0|0:2|0:2,0:0:0:0:
234,192,40635,2,0,L|144:192,1,90.0000034332277,8|8,0:2|0:0,0:0:0:0:
56,104,41107,2,0,L|152:104,1,90.0000034332277,0|8,0:0|0:0,0:0:0:0:
496,64,41580,6,0,L|432:168,1,120,4|8,0:0|0:0,0:0:0:0:
344,160,41934,2,0,L|408:264,1,120,4|8,0:0|0:0,0:0:0:0:
496,256,42288,2,4,P|424:328|384:336,1,120,4|8,0:0|0:0,0:0:0:0:
312,328,42643,6,0,L|200:328,1,107.999996704102,4|8,0:0|0:0,0:0:0:0:
112,328,42997,2,4,P|184:256|224:248,1,120,4|8,0:0|0:0,0:0:0:0:
496,328,43470,1,4,0:0:0:0:
256,192,43706,12,8,44414,0:0:0:0:
297,209,45359,6,0,B|361:209|361:209|401:249,1,120,4|8,0:0|0:0,0:0:0:0:
216,208,45832,2,0,B|144:208|144:208|104:248,1,120,8|8,0:2|0:0,0:0:0:0:
297,209,46304,2,0,L|409:161,1,120,8|8,0:2|0:0,0:0:0:0:
511,222,46777,2,0,L|408:160,1,120,8|8,0:2|0:0,0:0:0:0:
96,320,47249,6,0,L|35:212,1,120,8|8,0:2|0:0,0:0:0:0:
136,280,47603,2,0,P|232:208|232:208,1,120,0|8,0:0|0:0,0:0:0:0:
392,224,48076,2,0,B|432:184|432:184|352:152,1,120,8|0,0:2|0:0,0:0:0:0:
320,152,48430,1,8,0:0:0:0:
112,288,48666,2,0,P|64:248|56:192,1,120,8|8,0:2|0:0,0:0:0:0:
360,192,49139,6,0,P|416:192|480:224,1,120,4|8,0:0|0:0,0:0:0:0:
320,160,49611,2,0,P|264:160|200:192,1,120,8|8,0:2|0:0,0:0:0:0:
360,192,50084,2,0,B|312:240|312:240|256:240,1,120,8|8,0:2|0:0,0:0:0:0:
40,144,50556,2,0,B|88:192|88:192|144:192,1,120,8|8,0:2|0:0,0:0:0:0:
456,160,51029,6,0,B|400:120|400:120|320:32,2,180,4|4|8,0:0|0:0|0:0,0:0:0:0:
488,208,51855,1,0,0:0:0:0:
472,264,51973,1,8,0:2:0:0:
432,304,52092,1,0,0:0:0:0:
376,312,52210,1,8,0:0:0:0:
192,120,52446,1,8,0:2:0:0:
144,128,52564,1,0,0:0:0:0:
112,160,52682,1,8,0:0:0:0:
424,112,52918,6,0,B|496:208|496:208,1,120,4|8,0:0|0:0,0:0:0:0:
384,248,53391,2,0,B|264:272,1,120,8|8,0:2|0:0,0:0:0:0:
32,192,53863,2,0,P|80:144|128:144,1,120,8|8,0:2|0:0,0:0:0:0:
296,192,54336,2,0,P|248:144|200:144,1,120,8|8,0:2|0:0,0:0:0:0:
72,272,54808,6,0,P|119:223|175:223,1,120,8|8,0:2|0:0,0:0:0:0:
360,224,55281,2,0,P|418:220|456:176,1,120,8|8,0:2|0:0,0:0:0:0:
208,80,55753,2,0,P|156:107|128:160,1,120,8|8,0:2|0:0,0:0:0:0:
328,160,56225,2,0,P|380:133|408:80,1,120,8|8,0:2|0:0,0:0:0:0:
96,80,56698,6,0,B|56:128|56:128|112:176,1,120,4|8,0:0|0:0,0:0:0:0:
200,160,57052,2,0,B|248:208|248:208|200:256,1,120
152,272,57407,1,8,0:0:0:0:
63,247,57525,6,0,P|111:199|159:199,1,120,4|0,0:0|0:0,0:0:0:0:
256,160,57879,2,0,P|208:112|160:112,1,120,8|8,0:0|0:2,0:0:0:0:
104,136,58233,1,0,0:0:0:0:
72,192,58351,1,8,0:0:0:0:
376,208,58588,6,0,P|448:184|504:96,2,180,4|4|4,0:0|0:0|0:0,0:0:0:0:
136,160,59533,2,0,P|137:102|185:70,1,120,8|8,0:2|0:0,0:0:0:0:
240,80,59887,1,0,0:0:0:0:
296,112,60005,1,8,0:0:0:0:
400,208,60241,1,8,0:0:0:0:
88,80,60477,6,4,P|32:136|48:184,1,120,4|8,0:0|0:0,0:0:0:0:
160,208,60950,1,8,0:2:0:0:
376,208,61186,2,0,P|312:240|264:240,1,120,8|8,0:0|0:2,0:0:0:0:
84,240,61659,2,0,L|187:303,2,120,8|8|8,0:0|0:2|0:0,0:0:0:0:
384,152,62367,6,0,P|408:202|368:242,1,120,8|8,0:2|0:0,0:0:0:0:
288,248,62722,2,0,P|248:192|296:152,1,120
328,144,63076,1,8,0:0:0:0:
388,126,63194,2,0,L|268:158,1,120
328,168,63548,1,8,0:0:0:0:
488,152,63785,2,0,L|368:192,1,120,8|8,0:2|0:0,0:0:0:0:
64,168,64257,6,0,L|184:136,1,120,4|8,0:0|0:0,0:0:0:0:
312,176,64729,2,0,P|370:172|408:128,1,120,8|8,0:2|0:0,0:0:0:0:
256,88,65202,1,8,0:2:0:0:
432,256,65438,2,0,L|336:344,2,120,8|8|8,0:0|0:2|0:0,0:0:0:0:
120,192,66147,6,0,P|48:128|32:48,2,180,4|4|4,0:0|0:0|0:0,0:0:0:0:
464,224,67564,1,8,0:0:0:0:
432,184,67682,1,8,0:0:0:0:
387,159,67800,1,8,0:0:0:0:
87,159,68036,6,0,P|122:120|202:112,1,120,4|8,0:0|0:0,0:0:0:0:
344,96,68509,2,0,P|408:96|448:136,1,120,8|8,0:2|0:0,0:0:0:0:
298,144,68981,2,0,L|176:208,1,120,8|8,0:2|0:0,0:0:0:0:
336,216,69454,2,0,L|480:240,1,120,8|8,0:2|0:0,0:0:0:0:
139,188,69926,6,4,B|75:188|75:188|35:228,1,120,4|8,0:0|0:0,0:0:0:0:
160,304,70399,2,0,P|207:332|272:320,1,120,8|8,0:2|0:0,0:0:0:0:
456,288,70871,2,0,P|496:232|472:192,1,120,4|8,0:0|0:0,0:0:0:0:
352,192,71344,2,0,P|306:203|250:163,1,120,8|8,0:2|0:0,0:0:0:0:
100,167,71816,6,0,P|148:119|196:119,1,120,4|8,0:0|0:0,0:0:0:0:
272,136,72170,1,0,0:0:0:0:
384,192,72407,1,8,0:0:0:0:
144,208,72643,2,0,P|192:256|304:256,1,180,0|8,0:0|0:0,0:0:0:0:
448,192,73233,2,0,L|320:192,1,120,8|8,0:2|0:0,0:0:0:0:
16,80,73706,6,4,P|32:152|136:200,2,180
164,152,74651,2,0,L|288:152,1,120,8|8,0:2|0:0,0:0:0:0:
164,152,75123,1,8,0:2:0:0:
116,176,75241,1,8,0:2:0:0:
96,224,75359,1,8,0:0:0:0:
497,80,75596,6,4,P|496:160|400:192,2,180
348,152,76540,2,0,L|224:152,1,120,8|8,0:2|0:0,0:0:0:0:
348,152,77012,1,8,0:2:0:0:
396,176,77130,1,8,0:2:0:0:
428,216,77249,1,8,0:0:0:0:
120,208,77485,6,4,L|32:120,1,120,4|8,0:0|0:0,0:0:0:0:
176,120,77958,1,8,0:2:0:0:
336,176,78194,2,0,L|421:261,1,120,8|4,0:0|0:0,0:0:0:0:
192,256,78666,2,0,B|104:168|104:168,1,120,8|8,0:0|0:2,0:0:0:0:
304,144,79139,2,0,L|368:208,1,90.0000034332277,8|4,0:0|0:0,0:0:0:0:
192,256,79611,5,8,0:0:0:0:
112,176,79847,1,8,0:2:0:0:
224,256,80084,1,8,0:0:0:0:
80,176,80320,1,8,0:2:0:0:
256,256,80556,1,8,0:0:0:0:
48,176,80792,2,0,L|168:176,1,120,0|8,0:2|0:0,0:0:0:0:
496,200,81265,6,0,P|448:248|400:248,1,120,4|8,0:0|0:0,0:0:0:0:
263,128,81737,2,0,P|205:131|167:176,1,120,8|8,0:2|0:0,0:0:0:0:
272,256,82210,1,8,0:2:0:0:
440,136,82446,2,0,L|376:136,1,60,8|0,0:0|0:0,0:0:0:0:
200,176,82800,1,8,0:0:0:0:
408,176,83036,6,0,P|416:240|328:304,1,180,4|8,0:0|0:0,0:0:0:0:
456,304,83627,1,8,0:2:0:0:
144,312,83863,1,8,0:0:0:0:
112,264,83981,2,0,P|168:184|265:202,1,180,4|8,0:0|0:0,0:0:0:0:
432,256,84572,1,8,0:2:0:0:
128,168,84808,6,0,B|16:216|80:296|80:296|192:336,1,240,4|8,0:0|0:0,0:0:0:0:
312,280,85517,1,8,0:2:0:0:
432,216,85753,1,8,0:0:0:0:
456,168,85871,2,8,P|440:128|304:112,1,180,4|8,0:0|0:0,0:0:0:0:
160,280,86462,1,8,0:0:0:0:
360,304,86698,6,0,P|472:152|224:112,1,540.000020599366,4|0,0:0|0:0,0:0:0:0:
